osu file format v12

[General]
AudioFilename: Leaf Ticket.mp3
AudioLeadIn: 1000
PreviewTime: 84528
Countdown: 0
SampleSet: Soft
StackLeniency: 0.7
Mode: 0
LetterboxInBreaks: 0
WidescreenStoryboard: 0

[Editor]
DistanceSpacing: 1.1
BeatDivisor: 4
GridSize: 32
TimelineZoom: 1

[Metadata]
Title:Leaf ticket (Short Ver.)
TitleUnicode:Leaf ticket (Short Ver.)
Artist:KOTOKO
ArtistUnicode:KOTOKO
Creator:Zejky
Version:D.N.Angel
Source:Parfait ~Chocolat Second Brew~
Tags:DarknessAngel Wreath sandgodoven2 hibarirailwayz Giga visual novel eroge
BeatmapID:191051
BeatmapSetID:62636

[Difficulty]
HPDrainRate:6
CircleSize:4
OverallDifficulty:7
ApproachRate:8
SliderMultiplier:2
SliderTickRate:1

[Events]
//Background and Video events
Video,0,"Video.avi"
0,0,"BG.jpg",0,0
//Break Periods
//Storyboard Layer 0 (Background)
//Storyboard Layer 1 (Fail)
//Storyboard Layer 2 (Pass)
//Storyboard Layer 3 (Foreground)
//Storyboard Sound Samples
//Background Colour Transformations
3,100,163,162,255

[TimingPoints]
1139,508.474576271186,4,2,2,50,1,0
1139,-200,4,2,2,50,0,0
7749,-200,4,2,1,10,0,0
8257,-200,4,2,2,50,0,0
8384,-200,4,2,1,10,0,0
9274,-200,4,2,2,50,0,0
9401,-200,4,2,2,10,0,0
10291,-200,4,2,2,25,0,0
11308,-100,4,2,1,60,0,0
13342,-100,4,2,1,70,0,0
31647,-133.333333333333,4,2,1,50,0,0
32664,-133.333333333333,4,2,2,60,0,0
33681,-133.333333333333,4,2,1,50,0,0
34698,-133.333333333333,4,2,2,60,0,0
35715,-133.333333333333,4,2,1,50,0,0
36732,-133.333333333333,4,2,2,60,0,0
37749,-133.333333333333,4,2,1,50,0,0
38766,-133.333333333333,4,2,2,40,0,0
39783,-133.333333333333,4,2,1,50,0,0
40800,-133.333333333333,4,2,2,60,0,0
41816,-133.333333333333,4,2,1,50,0,0
42833,-133.333333333333,4,2,2,60,0,0
43596,-133.333333333333,4,2,2,30,0,0
43850,-133.333333333333,4,2,1,50,0,0
44867,-133.333333333333,4,2,2,60,0,0
45884,-133.333333333333,4,2,1,50,0,0
47918,-100,4,2,1,70,0,0
80461,-100,4,1,0,70,0,0
81477,-100,4,2,1,70,0,0
82494,-100,4,1,0,70,0,0
82749,-100,4,2,1,70,0,0
82876,-100,4,1,0,70,0,0
83003,-100,4,2,1,70,0,0
83257,-100,4,1,0,70,0,0
83511,-100,4,2,1,70,0,0
84528,-100,4,2,0,70,0,1
84655,-100,4,2,1,70,0,1
92664,-100,4,2,0,70,0,1
92918,-100,4,2,1,70,0,1
104867,-100,4,2,1,60,0,1
105630,-100,4,2,1,70,0,1
106393,-100,4,2,1,60,0,1
106901,-100,4,2,1,70,0,1
107410,-100,4,2,1,60,0,1
107791,-100,4,2,1,70,0,1
108935,-100,4,2,1,70,0,0
109952,-100,4,2,0,50,0,0
110079,-100,4,2,1,70,0,0
125206,-100,4,2,1,80,0,0
127240,-100,4,2,2,30,0,0

[Colours]
Combo1 : 255,187,85
Combo2 : 255,255,128
Combo3 : 181,211,152
Combo4 : 253,149,149

[HitObjects]
192,56,1139,5,0,0:0:0:0:
124,96,1393,1,2,0:0:0:0:
88,168,1647,1,0,0:0:0:0:
84,248,1901,1,2,0:0:0:0:
308,344,2410,1,2,0:0:0:0:
308,344,2664,1,2,0:0:0:0:
448,176,3172,5,2,0:0:0:0:
392,116,3427,1,0,0:0:0:0:
312,124,3681,1,2,0:0:0:0:
84,248,4189,1,4,0:0:0:0:
88,276,5206,5,0,0:0:0:0:
168,276,5461,1,2,0:0:0:0:
244,304,5715,1,0,0:0:0:0:
304,356,5969,1,2,0:0:0:0:
460,192,6477,1,2,0:0:0:0:
460,192,6732,1,0,0:0:0:0:
168,109,7240,6,0,P|264:149|343:107,2,200,2|2|4,0:0|0:0|0:0,0:0:0:0:
256,192,9401,12,8,11308,0:0:0:0:
92,280,11562,5,8,0:0:0:0:
196,240,11816,1,8,0:0:0:0:
160,136,12071,1,2,0:0:0:0:
56,172,12325,1,8,0:0:0:0:
52,208,12452,1,8,0:0:0:0:
60,244,12579,1,2,0:0:0:0:
76,276,12706,1,2,0:0:0:0:
100,300,12833,2,0,L|144:328,3,50,8|2|0|2,0:0|0:0|0:0|0:0,0:0:0:0:
176,340,13342,6,0,P|252:356|320:336,1,150,4|2,0:0|0:0,0:0:0:0:
368,308,13850,2,0,P|420:296|472:308,1,100,0|8,0:0|0:0,0:0:0:0:
368,172,14359,2,0,P|320:192|272:184,1,100,2|0,0:0|0:0,0:0:0:0:
72,88,14867,1,0,0:0:0:0:
176,48,15122,1,0,0:0:0:0:
176,48,15249,1,0,0:0:0:0:
176,48,15376,6,0,P|200:96|200:144,1,100,2|0,0:0|0:0,0:0:0:0:
172,188,15757,2,0,B|124:216|80:216|28:188,1,150,2|2,0:0|0:0,0:0:0:0:
108,312,16393,1,0,0:0:0:0:
108,312,16520,1,0,0:0:0:0:
108,312,16647,2,0,P|160:296|204:300,1,100,0|8,0:0|0:0,0:0:0:0:
316,312,17155,1,0,0:0:0:0:
420,272,17410,6,0,L|444:168,1,100,4|0,0:0|0:0,0:0:0:0:
436,120,17791,2,0,P|364:144|292:124,1,150,2|8,0:0|0:0,0:0:0:0:
120,44,18427,2,0,L|56:132,1,100
60,272,18935,2,0,L|124:184,1,100
208,128,19444,6,0,P|240:172|248:220,1,100,4|0,0:0|0:0,0:0:0:0:
232,268,19825,2,0,P|184:336|120:352,1,150,2|2,0:0|0:0,0:0:0:0:
232,268,20461,1,8,0:0:0:0:
336,360,20715,1,8,0:0:0:0:
432,260,20969,1,8,0:0:0:0:
432,260,21096,1,8,0:0:0:0:
432,260,21223,1,2,0:0:0:0:
328,168,21477,6,0,P|260:140|180:140,1,150,4|2,0:0|0:0,0:0:0:0:
140,172,21986,2,0,P|92:192|40:184,1,100,8|2,0:0|0:0,0:0:0:0:
80,84,22494,1,0,0:0:0:0:
232,32,22749,2,0,P|248:84|240:132,1,100,2|8,0:0|0:0,0:0:0:0:
132,288,23257,1,2,0:0:0:0:
140,172,23511,6,0,P|208:200|248:268,1,150,2|2,0:0|0:0,0:0:0:0:
276,304,24020,2,0,P|328:316|380:308,1,100,8|2,0:0|0:0,0:0:0:0:
440,192,24528,1,0,0:0:0:0:
440,192,24655,1,0,0:0:0:0:
440,192,24783,2,0,P|388:180|336:188,1,100,2|8,0:0|0:0,0:0:0:0:
200,224,25291,1,2,0:0:0:0:
68,148,25545,5,2,0:0:0:0:
68,148,25672,1,2,0:0:0:0:
68,148,25800,1,0,0:0:0:0:
68,148,25927,1,2,0:0:0:0:
68,148,26054,2,0,L|48:48,1,100,8|0,0:0|0:0,0:0:0:0:
226,128,26562,1,2,0:0:0:0:
226,128,26689,1,2,0:0:0:0:
226,128,26816,2,0,L|198:232,1,100,2|8,0:0|0:0,0:0:0:0:
280,300,27325,1,0,0:0:0:0:
388,272,27579,5,2,0:0:0:0:
400,240,27706,1,2,0:0:0:0:
412,208,27833,1,0,0:0:0:0:
424,176,27961,1,2,0:0:0:0:
436,144,28088,2,0,L|468:48,1,100,8|0,0:0|0:0,0:0:0:0:
356,48,28596,1,2,0:0:0:0:
356,48,28723,1,2,0:0:0:0:
356,48,28850,2,0,P|304:64|260:60,1,100,2|8,0:0|0:0,0:0:0:0:
152,44,29359,1,0,0:0:0:0:
68,116,29613,5,2,0:0:0:0:
60,148,29740,1,2,0:0:0:0:
56,184,29867,1,8,0:0:0:0:
60,220,29994,1,0,0:0:0:0:
72,252,30122,2,0,L|92:300,3,50,2|2|2|0,0:0|0:0|0:0|0:0,0:0:0:0:
116,324,30630,5,8,0:0:0:0:
204,204,30884,1,8,0:0:0:0:
56,184,31138,1,2,0:0:0:0:
56,184,31266,1,2,0:0:0:0:
56,184,31393,1,2,0:0:0:0:
116,324,31647,6,0,P|152:316|196:320,1,75.0000028610231,2|0,0:0|0:0,0:0:0:0:
228,336,32028,2,0,P|288:348|336:332,1,112.500004291535,2|2,0:0|0:0,0:0:0:0:
400,280,32664,1,0,3:0:0:0:
56,184,33172,1,8,0:0:0:0:
56,184,33681,5,2,0:0:0:0:
208,52,34062,1,2,0:0:0:0:
376,164,34444,1,2,0:0:0:0:
436,220,34698,2,0,P|476:156|432:104,1,150.000005722046,0|8,3:0|0:0,0:0:0:0:
160,272,35715,6,0,P|124:316|68:332,2,112.500004291535,2|2|2,0:0|0:0|0:0,0:0:0:0:
164,188,36732,1,0,3:0:0:0:
400,60,37240,1,8,0:0:0:0:
164,188,37749,5,2,0:0:0:0:
288,348,38130,1,2,0:0:0:0:
404,180,38511,1,2,0:0:0:0:
224,148,38766,5,0,1:0:0:0:
260,160,39274,5,0,1:0:0:0:
292,180,39783,6,0,P|332:192|368:192,1,75.0000028610231,2|0,0:0|0:0,0:0:0:0:
404,180,40164,2,0,P|428:236|420:292,1,112.500004291535,2|2,0:0|0:0,0:0:0:0:
356,336,40800,2,0,P|284:360|212:344,1,150.000005722046,0|8,3:0|0:0,0:0:0:0:
72,120,41816,6,0,P|112:104|144:104,1,75.0000028610231,2|0,0:0|0:0,0:0:0:0:
184,116,42198,2,0,P|240:136|292:120,1,112.500004291535,2|2,0:0|0:0,0:0:0:0:
356,72,42833,1,0,3:0:0:0:
356,72,43342,2,0,L|288:32,1,75.0000028610231,8|0,0:0|0:0,0:0:0:0:
411,161,43850,6,0,P|444:124|456:64,2,112.500004291535,2|2|2,0:0|0:0|0:0,0:0:0:0:
336,192,44867,1,0,3:0:0:0:
336,192,45376,1,8,0:0:0:0:
176,80,45884,2,0,P|140:72|104:80,1,75.0000028610231,2|0,0:0|0:0,0:0:0:0:
72,108,46266,2,0,P|48:164|48:216,1,112.500004291535,2|2,0:0|0:0,0:0:0:0:
164,196,46901,5,8,0:0:0:0:
64,320,47155,1,2,0:0:0:0:
176,308,47410,2,0,L|212:328,2,37.5000014305115,2|2|2,0:0|0:0|0:0,0:0:0:0:
164,196,47918,5,4,0:0:0:0:
196,184,48045,1,2,0:0:0:0:
232,180,48172,1,0,0:0:0:0:
268,184,48300,1,2,0:0:0:0:
300,196,48427,2,0,P|352:212|400:208,1,100,8|2,0:0|0:0,0:0:0:0:
274,308,48935,2,0,P|218:300|174:308,1,100,0|2,0:0|0:0,0:0:0:0:
64,316,49444,1,8,0:0:0:0:
24,212,49698,1,2,0:0:0:0:
68,112,49952,6,0,P|112:88|160:80,1,100,2|0,0:0|0:0,0:0:0:0:
212,100,50333,2,0,P|272:112|352:80,1,150,2|2,0:0|0:0,0:0:0:0:
464,48,50969,2,0,L|440:156,1,100,2|0,0:0|0:0,0:0:0:0:
336,292,51477,2,0,L|360:184,1,100,8|0,0:0|0:0,0:0:0:0:
248,188,51986,5,2,0:0:0:0:
140,216,52240,1,0,0:0:0:0:
140,216,52367,1,2,0:0:0:0:
140,216,52494,2,0,P|164:264|204:288,1,100,8|2,0:0|0:0,0:0:0:0:
172,116,53003,2,0,P|117:113|78:139,1,100,0|2,0:0|0:0,0:0:0:0:
248,188,53511,2,0,P|272:140|272:92,1,100,8|2,0:0|0:0,0:0:0:0:
172,116,54020,5,2,0:0:0:0:
140,216,54274,1,0,0:0:0:0:
140,216,54401,1,2,0:0:0:0:
140,216,54528,1,8,0:0:0:0:
248,188,54783,1,2,0:0:0:0:
336,256,55037,2,0,P|276:340|184:344,2,200,2|10|2,0:0|0:0|0:0,0:0:0:0:
368,152,56308,5,0,0:0:0:0:
368,152,56435,1,2,0:0:0:0:
368,152,56562,2,0,P|420:144|472:156,1,100,8|0,0:0|0:0,0:0:0:0:
284,92,57071,2,0,P|232:80|184:84,1,100,0|2,0:0|0:0,0:0:0:0:
84,124,57579,1,8,0:0:0:0:
84,124,58088,5,2,0:0:0:0:
68,232,58342,1,0,0:0:0:0:
68,232,58469,1,2,0:0:0:0:
68,232,58596,2,0,P|60:288|72:332,1,100,8|2,0:0|0:0,0:0:0:0:
176,364,59105,1,2,0:0:0:0:
176,364,59232,1,2,0:0:0:0:
176,364,59359,2,0,P|184:308|172:264,1,100,2|8,0:0|0:0,0:0:0:0:
216,164,59867,1,0,0:0:0:0:
284,80,60122,6,0,P|336:68|384:72,1,100,2|0,0:0|0:0,0:0:0:0:
412,84,60503,1,2,0:0:0:0:
440,104,60630,2,0,P|464:152|460:200,1,100,8|0,0:0|0:0,0:0:0:0:
404,320,61139,2,0,P|356:300|332:260,1,100,0|2,0:0|0:0,0:0:0:0:
256,120,61647,2,0,L|256:236,1,100,8|2,0:0|0:0,0:0:0:0:
108,320,62155,6,0,P|156:300|180:260,1,100,2|0,0:0|0:0,0:0:0:0:
180,224,62537,1,2,0:0:0:0:
164,192,62664,2,0,P|116:212|92:252,1,100,8|2,0:0|0:0,0:0:0:0:
256,220,63172,5,8,0:0:0:0:
176,68,63427,1,8,0:0:0:0:
40,168,63681,1,8,0:0:0:0:
324,324,64189,5,4,0:0:0:0:
424,280,64444,1,0,0:0:0:0:
424,280,64571,2,0,P|452:216|464:136,1,150,2|2,0:0|0:0,0:0:0:0:
392,56,65206,1,0,0:0:0:0:
284,40,65461,1,2,0:0:0:0:
284,40,65588,1,0,0:0:0:0:
284,40,65715,2,0,P|264:88|264:136,1,100,8|0,0:0|0:0,0:0:0:0:
296,240,66223,2,0,P|252:272|208:280,1,100,2|0,0:0|0:0,0:0:0:0:
156,264,66605,2,0,P|80:248|8:264,1,150,2|2,0:0|0:0,0:0:0:0:
84,108,67240,5,2,0:0:0:0:
156,264,67494,1,0,0:0:0:0:
12,352,67749,1,8,0:0:0:0:
280,320,68257,6,0,P|336:308|384:312,1,100,2|0,0:0|0:0,0:0:0:0:
432,324,68639,2,0,P|472:256|476:184,1,150,2|2,0:0|0:0,0:0:0:0:
412,96,69274,1,0,0:0:0:0:
308,68,69528,1,2,0:0:0:0:
308,68,69655,1,0,0:0:0:0:
308,68,69783,2,0,P|256:60|208:72,1,100,8|0,0:0|0:0,0:0:0:0:
136,240,70291,2,0,P|172:200|184:156,1,100,2|0,0:0|0:0,0:0:0:0:
172,104,70672,2,0,P|100:80|24:92,1,150,2|2,0:0|0:0,0:0:0:0:
136,240,71308,5,0,0:0:0:0:
284,160,71562,1,2,0:0:0:0:
280,328,71816,1,8,0:0:0:0:
280,328,72325,5,4,0:0:0:0:
384,300,72579,1,0,0:0:0:0:
384,300,72706,1,2,0:0:0:0:
384,300,72833,2,0,P|420:264|440:216,1,100,0|2,0:0|0:0,0:0:0:0:
432,108,73342,1,0,0:0:0:0:
332,60,73596,1,2,0:0:0:0:
332,60,73723,1,0,0:0:0:0:
332,60,73850,2,0,P|264:132|168:140,1,200,8|2,0:0|0:0,0:0:0:0:
212,40,74613,5,0,0:0:0:0:
212,40,74740,1,2,0:0:0:0:
212,40,74867,2,0,P|252:80|264:128,1,100,0|2,0:0|0:0,0:0:0:0:
80,220,75376,2,0,P|40:180|28:132,1,100,0|2,0:0|0:0,0:0:0:0:
148,136,75884,2,0,P|192:232|164:320,1,200,8|4,0:0|0:0,0:0:0:0:
104,228,76647,5,0,0:0:0:0:
104,228,76774,1,2,0:0:0:0:
104,228,76901,1,0,0:0:0:0:
276,204,77155,2,0,L|380:192,1,100,2|0,0:0|0:0,0:0:0:0:
324,96,77664,1,2,0:0:0:0:
172,28,77918,2,0,P|148:72|148:124,1,100,8|0,0:0|0:0,0:0:0:0:
252,296,78427,6,0,P|276:252|276:200,1,100,4|0,0:0|0:0,0:0:0:0:
272,168,78808,1,2,0:0:0:0:
300,148,78935,2,0,L|404:136,1,100,0|2,0:0|0:0,0:0:0:0:
180,136,79444,2,0,L|76:148,1,100,0|2,0:0|0:0,0:0:0:0:
12,232,79952,1,8,0:0:0:0:
12,232,80461,5,4,0:2:0:0:
256,336,80842,1,4,0:2:0:0:
500,232,81223,1,4,0:2:0:0:
396,120,81477,5,2,0:0:0:0:
364,148,81605,1,2,0:0:0:0:
332,172,81732,1,2,0:0:0:0:
296,184,81859,1,0,0:0:0:0:
256,192,81986,1,2,0:0:0:0:
224,184,82113,1,2,0:0:0:0:
188,172,82240,1,8,0:0:0:0:
156,148,82367,1,8,0:0:0:0:
124,120,82494,1,4,0:2:0:0:
256,72,82749,6,0,L|256:20,2,50,2|4|8,0:0|0:2|0:0,0:0:0:0:
256,192,83257,1,4,0:2:0:0:
176,320,83511,1,0,0:0:0:0:
148,300,83639,1,2,0:0:0:0:
132,268,83766,1,2,0:0:0:0:
380,268,84020,1,8,0:0:0:0:
364,300,84147,1,8,0:0:0:0:
336,320,84274,1,2,0:0:0:0:
256,192,84528,6,0,P|340:136|436:136,1,200,4|8,0:0|0:0,0:0:0:0:
316,56,85291,1,0,0:0:0:0:
316,56,85418,2,0,P|236:76|164:52,1,150,2|2,0:0|0:0,0:0:0:0:
455,38,86054,2,0,L|435:142,1,100,8|2,0:0|0:0,0:0:0:0:
344,256,86562,5,2,0:0:0:0:
344,256,87071,2,0,P|292:280|248:280,1,100,8|0,0:0|0:0,0:0:0:0:
196,264,87452,2,0,P|120:248|48:264,1,150,2|2,0:0|0:0,0:0:0:0:
104,140,88088,2,0,P|156:156|204:148,1,100,8|2,0:0|0:0,0:0:0:0:
284,76,88596,5,2,0:0:0:0:
284,76,89105,2,0,P|336:72|384:80,1,100,8|0,0:0|0:0,0:0:0:0:
392,136,89486,2,0,P|468:96|496:36,1,150,2|2,0:0|0:0,0:0:0:0:
308,164,90122,2,0,L|264:264,1,100,8|2,0:0|0:0,0:0:0:0:
164,220,90630,6,0,L|204:128,1,100,2|0,0:0|0:0,0:0:0:0:
132,44,91139,1,8,0:0:0:0:
44,112,91393,2,0,P|16:208|36:304,1,200,0|2,0:0|0:0,0:0:0:0:
35,303,92155,1,8,0:0:0:0:
364,324,92664,5,4,0:0:0:0:
440,244,92918,1,0,0:0:0:0:
440,136,93172,1,8,0:0:0:0:
364,68,93427,1,0,0:0:0:0:
364,68,93554,2,0,P|292:44|216:52,1,150,2|2,0:0|0:0,0:0:0:0:
69,148,94189,2,0,P|61:105|69:49,1,100,8|2,0:0|0:0,0:0:0:0:
192,144,94698,6,0,P|200:200|192:244,1,100,2|0,0:0|0:0,0:0:0:0:
64,312,95206,1,8,0:0:0:0:
192,243,95461,1,0,0:0:0:0:
192,243,95588,2,0,P|276:235|340:247,1,150,2|2,0:0|0:0,0:0:0:0:
448,264,96223,1,8,0:0:0:0:
380,350,96477,1,2,0:0:0:0:
339,247,96732,6,0,P|368:148|440:88,1,200,2|8,0:0|0:0,0:0:0:0:
336,48,97494,1,0,0:0:0:0:
284,36,97622,1,0,0:0:0:0:
232,48,97749,1,2,0:0:0:0:
156,128,98003,1,2,0:0:0:0:
124,24,98257,1,8,0:0:0:0:
232,48,98511,2,0,P|256:96|260:144,1,100,0|2,0:0|0:0,0:0:0:0:
72,200,99020,6,0,P|48:152|44:104,1,100,0|8,0:0|0:0,0:0:0:0:
156,128,99528,1,0,0:0:0:0:
188,172,99655,1,2,0:0:0:0:
180,228,99783,2,0,P|156:276|116:304,1,100,0|2,0:0|0:0,0:0:0:0:
332,228,100291,2,0,P|356:276|396:304,1,100,8|2,0:0|0:0,0:0:0:0:
440,148,100800,6,0,P|400:112|352:104,1,100,4|0,0:0|0:0,0:0:0:0:
256,152,101308,2,0,P|216:184|164:192,1,100,8|0,0:0|0:0,0:0:0:0:
130,153,101689,2,0,P|190:97|262:109,1,150,2|2,0:0|0:0,0:0:0:0:
140,296,102325,2,0,P|92:320|44:324,1,100,8|2,0:0|0:0,0:0:0:0:
232,272,102833,6,0,P|332:248|428:260,1,200,4|8,0:0|0:0,0:0:0:0:
344,332,103596,1,0,0:0:0:0:
344,332,103723,1,2,0:0:0:0:
344,332,103850,2,0,P|335:283|342:231,1,100,0|2,0:0|0:0,0:0:0:0:
464,64,104359,2,0,P|472:112|465:164,1,100,8|2,0:0|0:0,0:0:0:0:
355,112,104867,6,0,L|155:112,1,200,4|8,0:0|0:0,0:0:0:0:
76,188,105630,1,0,0:0:0:0:
69,227,105757,1,0,0:0:0:0:
81,264,105884,1,0,0:0:0:0:
171,326,106139,1,0,0:0:0:0:
256,256,106393,1,8,0:0:0:0:
341,326,106647,1,0,0:0:0:0:
430,264,106901,1,0,0:0:0:0:
438,232,107028,1,0,0:0:0:0:
446,200,107155,1,0,0:0:0:0:
454,164,107283,1,0,0:0:0:0:
462,128,107410,1,8,0:0:0:0:
256,100,107791,5,2,0:0:0:0:
256,100,107918,1,8,0:0:0:0:
256,284,108172,1,8,0:0:0:0:
200,212,108427,1,8,0:0:0:0:
228,196,108554,1,0,0:0:0:0:
256,188,108681,1,2,0:0:0:0:
284,196,108808,1,2,0:0:0:0:
312,212,108935,1,4,0:0:0:0:
96,312,109316,5,2,0:0:0:0:
96,312,109444,2,0,P|88:256|96:208,1,100,8|4,0:0|0:0,0:0:0:0:
136,112,109952,2,0,L|36:100,1,100,4|0,0:0|0:0,0:0:0:0:
232,80,110461,2,0,P|284:80|336:92,1,100,8|0,0:0|0:0,0:0:0:0:
428,144,110969,5,2,0:0:0:0:
440,252,111223,1,0,0:0:0:0:
428,304,111350,1,0,0:0:0:0:
388,344,111477,1,8,0:0:0:0:
284,312,111732,1,0,0:0:0:0:
196,244,111986,1,2,0:0:0:0:
140,236,112113,1,0,0:0:0:0:
88,252,112240,2,0,P|60:296|52:348,1,100,2|8,0:0|0:0,0:0:0:0:
196,244,112749,1,2,0:0:0:0:
148,88,113003,5,4,0:0:0:0:
44,52,113257,1,0,0:0:0:0:
32,104,113384,1,0,0:0:0:0:
60,152,113511,1,8,0:0:0:0:
148,88,113766,2,0,P|204:76|248:84,1,100,0|2,0:0|0:0,0:0:0:0:
336,144,114274,1,2,0:0:0:0:
444,140,114528,1,8,0:0:0:0:
388,44,114783,1,2,0:0:0:0:
256,192,115037,6,0,L|256:296,1,100,4|0,0:0|0:0,0:0:0:0:
212,324,115418,1,2,0:0:0:0:
156,316,115545,2,0,L|104:220,1,100,8|0,0:0|0:0,0:0:0:0:
96,120,116054,2,0,L|0:152,1,100,2|2,0:0|0:0,0:0:0:0:
200,84,116562,2,0,P|252:76|304:80,1,100,8|0,0:0|0:0,0:0:0:0:
348,108,116944,1,0,0:0:0:0:
400,124,117071,6,0,P|452:132|500:120,1,100,4|0,0:0|0:0,0:0:0:0:
408,288,117579,1,8,0:0:0:0:
312,232,117833,1,0,0:0:0:0:
260,212,117961,1,2,0:0:0:0:
204,220,118088,1,0,0:0:0:0:
100,256,118342,1,2,0:0:0:0:
132,360,118596,1,8,0:0:0:0:
240,332,118850,1,2,0:0:0:0:
256,280,118977,1,0,0:0:0:0:
256,224,119105,1,2,0:0:0:0:
183,141,119359,6,0,P|135:125|87:125,1,100,0|8,0:0|0:0,0:0:0:0:
256,224,119867,1,0,0:0:0:0:
329,141,120122,2,0,P|377:125|425:125,1,100,2|2,0:0|0:0,0:0:0:0:
462,228,120630,1,8,0:0:0:0:
412,324,120884,1,2,0:0:0:0:
308,356,121139,5,2,0:0:0:0:
256,372,121266,1,0,0:0:0:0:
204,356,121393,1,0,0:0:0:0:
140,264,121647,1,8,0:0:0:0:
88,168,121901,2,0,L|92:116,2,50,0|0|2,0:0|0:0|0:0,0:0:0:0:
32,264,122410,1,2,0:0:0:0:
140,264,122664,2,0,P|184:240|212:200,1,100,8|0,0:0|0:0,0:0:0:0:
308,112,123172,5,2,0:0:0:0:
256,88,123300,1,0,0:0:0:0:
204,112,123427,1,0,0:0:0:0:
300,200,123681,2,0,P|328:240|372:264,1,100,8|0,0:0|0:0,0:0:0:0:
456,192,124189,2,0,L|456:140,2,50,0|2|0,0:0|0:0|0:0,0:0:0:0:
456,304,124698,2,0,P|416:344|372:352,1,100,8|0,0:0|0:0,0:0:0:0:
168,296,125206,5,2,0:0:0:0:
340,200,125461,1,2,0:0:0:0:
192,88,125715,1,8,0:0:0:0:
192,88,125842,1,2,0:0:0:0:
192,88,125969,1,2,0:0:0:0:
320,88,126223,5,8,0:0:0:0:
172,200,126477,1,8,0:0:0:0:
344,296,126732,1,8,0:0:0:0:
344,296,126859,1,2,0:0:0:0:
344,296,126986,1,2,0:0:0:0:
256,192,127240,12,2,129783,0:0:0:0:
