osu file format v6

[General]
AudioFilename: Leaf ticket.mp3
AudioLeadIn: 0
PreviewTime: 85397
Countdown: 1
SampleSet: Soft
StackLeniency: 0.5
Mode: 0
LetterboxInBreaks: 1

[Editor]
DistanceSpacing: 1.29999995231628
BeatDivisor: 4
GridSize: 8

[Metadata]
Title:Leaf Ticket
Artist:KOTOKO
Creator:dayuki
Version:Hard
Source:Parfait
Tags:

[Difficulty]
HPDrainRate:7
CircleSize:5
OverallDifficulty:7
SliderMultiplier:1.2
SliderTickRate:1

[Events]
//Background and Video events
0,0,"Rikako.png"
//Break Periods
2,106953,108904
//Storyboard Layer 0 (Background)
//Storyboard Layer 1 (Fail)
//Storyboard Layer 2 (Pass)
//Storyboard Layer 3 (Foreground)
//Storyboard Sound Samples
//Background Colour Transformations
3,100,163,162,255

[TimingPoints]
2008,508.474576271186,4,2,0,100,1,0
4169,-100,4,2,0,61,0,0
4423,-100,4,2,0,100,0,0
4931,-100,4,2,0,40,0,0
5948,-100,4,2,0,100,0,0
8745,-100,4,2,0,39,0,0
12092,-100,4,2,0,26,0,0
12304,-100,4,2,0,35,0,0
12558,-100,4,2,0,43,0,0
12813,-100,4,2,0,54,0,0
13385,-100,4,2,0,69,0,0
13639,-100,4,2,0,84,0,0
14126,-100,4,2,0,100,0,0
35228,-100,4,2,0,57,0,0
35991,-100,4,2,0,100,0,0
39550,-100,4,2,0,35,0,0
41075,-100,4,2,0,100,0,0
46923,-100,4,2,0,50,0,0
47092,-100,4,2,0,100,0,0
47431,-100,4,2,0,51,0,0
47685,-100,4,2,0,100,0,0
61414,-100,4,2,0,50,0,0
62431,-100,4,2,0,100,0,0
67516,-100,4,2,0,71,0,0
68533,-100,4,2,0,42,0,0
69041,-100,4,2,0,100,0,0
81245,-100,4,2,0,70,0,0
85313,-100,4,2,0,100,0,1
92177,-100,4,2,0,58,0,1
93448,-100,4,2,0,100,0,1
109719,-100,4,2,0,100,0,0
111245,-100,4,2,0,42,0,0
111753,-100,4,2,0,50,0,0
112516,-100,4,2,0,100,0,0
113279,-100,4,2,0,51,0,0
113787,-100,4,2,0,100,0,0
116753,-100,4,2,0,43,0,0
116859,-100,4,2,0,100,0,0
117368,-100,4,2,0,62,0,0
117876,-100,4,2,0,100,0,0
119910,-100,4,2,0,91,0,0
120291,-100,4,2,0,81,0,0
120673,-100,4,2,0,73,0,0
120800,-100,4,2,0,61,0,0
120927,-100,4,2,0,57,0,0
121944,-100,4,2,0,100,0,0
124995,-100,4,2,0,49,0,0
126075,-100,4,2,0,100,0,0
126584,-100,4,2,0,87,0,0
127092,-100,4,2,0,72,0,0
127601,-100,4,2,0,59,0,0
128046,-100,4,2,0,45,0,0
130482,-100,4,2,0,31,0,0

[Colours]
Combo1 : 255,150,0
Combo2 : 5,240,5
Combo3 : 5,5,240
Combo4 : 240,5,5
Combo5 : 0,255,255

[HitObjects]
32,48,2008,1,0
112,64,2262,1,0
192,48,2516,1,0
272,64,2770,1,0
432,64,3279,1,0
400,136,3533,2,0,B|352:192|408:248,1,120
296,320,4296,5,2
216,320,4550,1,0
256,168,5058,1,4
480,48,6075,5,0
400,64,6330,1,0
320,48,6584,1,0
240,64,6838,1,0
88,72,7346,1,0
112,144,7601,2,0,B|64:200|120:256,1,120
256,144,8872,5,2
256,240,9126,1,2
256,192,10143,5,4
256,192,10270,1,4
256,192,12177,5,2
256,192,12431,1,2
256,192,12685,1,2
256,192,12940,1,2
256,120,13194,5,2
256,136,13321,1,2
256,152,13448,1,2
256,168,13575,1,2
256,184,13702,1,2
256,184,13957,1,2
256,264,14211,6,0,B|216:304|152:256,1,90
64,240,14974,1,2
64,240,15228,1,0
32,88,15736,1,0
184,40,16245,5,2
416,192,16753,1,2
96,224,17262,1,2
352,352,17770,1,2
256,256,18279,5,0
360,312,18660,2,0,B|416:336|456:272,1,90
488,232,19296,1,0
480,80,19804,1,0
328,40,20313,5,2
96,192,20821,1,2
416,224,21330,1,2
160,352,21838,1,2
288,200,22346,6,0,B|248:144|208:216,1,90
256,312,23109,1,2
256,312,23363,1,0
256,312,23872,1,0
104,280,24380,5,2
232,88,24889,1,2
264,312,25397,1,2
392,120,25906,1,2
256,192,26414,6,0,B|224:192,20,20
256,192,28448,6,0,B|288:192,19,20
392,128,30482,5,2
264,320,30991,1,2
232,96,31499,1,2
104,288,32007,1,2
96,32,32516,6,0,B|32:16|16:48|16:96|32:128|96:112,1,180,0|0
256,80,34041,1,0
368,112,34550,1,0
256,320,35313,2,2,B|256:264,2,30
496,352,36075,5,0
424,320,36330,1,0
352,288,36584,1,0
160,352,37346,5,0
104,304,37601,1,0
176,280,37855,1,0
120,232,38109,1,0
192,208,38363,1,0
144,160,38618,2,0,B|80:160|56:96|56:32|104:16,1,180,0|0
85,26,39635,5,4
197,114,40143,1,4
85,202,40652,1,4
40,352,41160,5,0
152,264,41669,1,0
264,352,42177,1,0
376,264,42685,2,0,B|376:328|424:360|472:344,1,120
443,347,43448,1,0
256,192,44211,5,0
296,256,44465,1,0
360,296,44719,2,0,B|256:264|264:128,1,180
288,88,45736,6,0,B|360:112|344:184,1,120
320,336,46753,2,0,B|280:320|264:288,1,60
263,288,47135,1,0
208,184,47516,1,2
160,120,47770,1,0
48,96,48152,1,0
40,112,48279,1,0
32,288,48787,6,0,B|40:344|72:352|120:344|160:272,1,180,0|0
256,128,50313,1,0
360,192,50821,1,0
192,32,52346,5,0
256,80,52601,1,0
320,32,52855,1,0
256,240,53618,5,0
312,192,53872,1,0
360,248,54126,1,0
312,304,54380,1,0
256,344,54635,1,0
192,304,54889,2,0,B|154:268|160:200|208:176|264:224|264:256,1,180,0|0
480,344,57431,5,0
336,344,57940,1,0
408,216,58448,1,0
360,80,58957,2,0,B|384:32|448:40|456:88,1,120,0|0
408,136,59719,1,0
480,24,60482,5,0
416,64,60736,1,0
352,104,60991,1,0
288,232,61499,5,2
272,224,61626,1,2
256,216,61753,2,2,B|280:144|280:144|248:80,1,120,0|0
216,48,62516,1,0
160,96,62770,1,0
216,144,63024,2,0,B|208:280|112:248|88:200,1,180,0|0
105,222,64041,1,0
40,296,65058,6,0,L|44:351|82:308|168:328,1,180
144,176,66330,1,0
200,120,66584,1,0
256,264,67092,1,0
256,264,67601,5,2
312,160,67982,1,2
324,159,68109,1,0
376,112,68363,1,2
424,168,68618,1,4
472,296,69126,6,0,L|468:351|430:308|344:328,1,180
368,168,70397,1,0
312,120,70652,1,0
256,264,71160,1,0
256,352,73194,5,0
240,280,73448,1,0
272,216,73702,1,0
240,152,73957,2,0,L|240:24,1,120
240,32,74719,1,0
384,32,75228,5,0
424,96,75482,1,0
408,168,75736,1,0
440,232,75991,2,0,B|384:288|328:224,1,120
335,231,76753,1,0
256,112,77262,6,0,B|256:214|132:138|119:225,1,180,0|0
80,344,78533,1,0
80,344,78787,1,0
256,208,79296,12,0,80821
256,128,81330,5,4
320,224,81711,1,4
192,224,82092,1,4
256,256,82346,5,0
256,256,82474,1,0
256,256,82601,1,0
256,256,82855,1,0
256,256,83363,5,4
320,160,83745,1,4
192,160,84126,1,4
256,352,85397,6,0,B|264:296|280:256|336:240,1,120
384,240,86160,1,0
392,256,86287,1,0
440,352,86669,1,0
480,288,86923,1,0
464,216,87177,1,0
488,144,87431,6,0,B|480:88|448:48|392:48,1,120
361,21,88194,1,0
352,32,88321,1,0
280,112,88702,1,0
232,56,88957,1,0
184,112,89211,1,0
128,64,89465,6,0,B|80:94|57:140|81:191,1,120
87,220,90228,5,0
104,216,90355,1,0
208,176,90736,1,0
208,248,90991,1,0
128,288,91245,1,0
216,272,91499,1,0
136,312,91753,1,0
224,296,92008,1,0
144,336,92262,2,4,B|176:400|304:272|184:280|208:400|312:320,1,180
464,344,93533,6,0,B|416:313|393:267|417:216,1,120
419,162,94296,1,0
408,152,94423,1,0
320,256,94804,1,0
256,320,95058,1,0
192,256,95313,1,0
256,192,95567,6,0,B|224:232|192:120|144:160,1,120,0|0
72,168,96330,1,0
72,184,96457,1,0
72,320,96838,1,0
160,328,97092,1,0
240,288,97346,1,0
256,200,97601,2,0,B|320:168|320:360,1,180
56,264,99635,5,0
120,224,99889,1,0
192,224,100143,1,0
248,272,100397,2,0,B|288:256|296:304|264:304|216:312|248:360|296:344,1,120,0|0
268,345,101160,1,0
376,328,101669,6,0,B|376:264|344:232|312:264|344:296|408:264|440:264,1,180
440,120,102940,1,0
464,48,103194,1,0
320,104,103702,6,0,B|280:104|224:136|192:104|224:72|256:96|256:168,1,180
296,312,104974,1,0
216,312,105228,1,0
256,160,105736,2,0,B|200:152|248:232|312:320|240:304,1,180
253,305,106753,1,0
256,192,109804,5,0
160,120,110185,2,0,B|216:152|256:80,1,90
280,40,110821,2,0,B|352:16|384:88,1,120
400,232,111838,1,2
448,336,112219,1,2
337,280,112601,1,0
337,294,112728,1,0
342,308,112855,1,0
342,308,113363,1,4
256,192,113872,5,0
176,264,114253,1,0
256,336,114635,1,0
328,336,114889,1,0
480,288,115397,2,0,B|416:240|416:176,1,120
392,32,116414,1,0
320,64,116669,2,0,B|280:96,2,30
328,144,117177,1,0
256,184,117431,1,2
256,344,117940,5,0
272,232,118321,1,0
176,304,118702,2,0,B|152:264|184:232,1,60
216,96,119465,2,0,B|160:64|88:104,1,120
100,97,120355,1,0
80,216,120736,1,0
93,222,120863,1,0
107,219,120991,1,4
256,208,122008,12,0,123533
264,96,124041,6,0,B|264:56|297:40|334:70|322:60|360:89|346:120|296:160,1,180
256,192,125058,5,2
256,192,125185,1,2
256,192,125313,1,2
256,208,126075,12,0,127601
256,192,128109,5,0
256,192,128236,1,0
256,192,128363,1,0
256,192,128745,1,0
256,192,130567,5,0
256,192,130694,1,0
