osu file format v6

[General]
AudioFilename: 3ff86fe89c7029ea015485ee501470ab.mp3
AudioLeadIn: 0
PreviewTime: 99077
Countdown: 0
SampleSet: Soft
StackLeniency: 0.2
Mode: 0
LetterboxInBreaks: 1

[Editor]
DistanceSpacing: 1
BeatDivisor: 4
GridSize: 8

[Metadata]
Title:La Clef ~Meikyuu no Kagi~
Artist:KOTOKO
Creator:Nekomiya Nono
Version:Relaxing
Source:
Tags:I've KOTOKO

[Difficulty]
HPDrainRate:5
CircleSize:4
OverallDifficulty:5
SliderMultiplier:1.4
SliderTickRate:0.5

[Events]
//Background and Video events
0,0,"kkk.jpg"
//Break Periods
2,25060,35175
//Storyboard Layer 0 (Background)
//Storyboard Layer 1 (Fail)
//Storyboard Layer 2 (Pass)
//Storyboard Layer 3 (Foreground)
//Storyboard Sound Samples
//Background Colour Transformations
3,100,0,0,0

[TimingPoints]
3042,606.060606060606,4,2,0,60,1,0
22132,-200,4,2,0,60,0,0
24254,-100,4,2,0,60,0,0
92738,-200,4,2,0,60,0,0
94860,-100,4,2,0,0,0,0
95163,-100,4,2,0,60,0,0
98799,-100,4,2,0,0,0,0
98950,-100,4,2,0,60,0,0
140011,-100,4,1,0,30,0,0
140314,-100,4,2,0,60,0,0

[Colours]
Combo1 : 255,128,255
Combo2 : 0,255,128
Combo3 : 128,128,255

[HitObjects]
120,96,4557,2,0,B|32:96,3,70,0|0|0|2
200,48,6072,2,0,B|280:48,1,70
232,112,6678,2,0,B|328:112,1,70,2|0
272,176,7284,2,0,B|368:176,1,70,0|2
408,176,7890,2,0,B|512:264|400:368,1,210,0|2
272,352,9405,5,0
272,352,9708,1,0
272,352,10011,2,0,B|184:352,1,70,0|2
64,352,10920,2,0,B|64:280,1,70
64,208,11526,2,0,B|128:144,1,70,2|0
168,112,12132,1,0
168,112,12435,1,2
232,80,12738,2,0,B|288:56|352:88,2,105,2|0|2
352,232,14254,6,0,B|424:192,2,70
288,264,15163,1,2
144,264,15769,2,0,B|56:264,3,70,0|0|2|0
24,216,16981,2,0,B|24:128,1,70,0|2
24,72,17587,1,2
160,72,18193,1,0
232,72,18496,2,0,B|280:72,1,35,2|0
440,248,19708,5,0
440,248,20011,2,0,B|368:296|296:248,1,140,2|0
344,192,20920,2,0,B|272:144|200:192,1,140,2|0
240,248,21829,1,0
240,248,22132,2,0,B|120:320|0:248,1,245,2|2
8,184,24557,1,0
8,112,24860,1,2
256,56,36375,5,0
328,56,36678,1,0
328,128,36981,2,0,B|408:128,1,70,2|0
464,128,37587,2,0,B|496:184|464:248,1,105,0|0
320,320,38799,5,0
248,320,39102,1,0
176,320,39405,2,0,B|88:320,1,70,2|0
48,280,40011,1,0
8,224,40314,2,0,B|8:168,1,35,0|2
8,80,40920,1,2
64,32,41223,6,0,B|152:32,1,70
200,32,41829,1,2
200,32,42132,1,0
272,32,42435,1,0
272,32,42738,1,2
344,32,43042,2,0,B|448:32,2,70,0|2|0
344,104,43951,2,0,B|296:104,2,35,0|2|0
416,104,44557,1,0
488,104,44860,1,0
488,104,45163,2,0,B|536:192|480:320,1,210,2|0
416,312,46375,5,0
416,312,46678,1,2
272,312,47284,1,0
200,312,47587,2,0,B|144:312,1,35,2|0
96,72,48799,5,0
96,72,49102,1,2
240,72,49708,1,0
312,72,50011,2,0,B|368:72,1,35,2|0
256,192,51223,6,0,B|256:240,2,35,0|0|2
296,136,51829,1,2
256,80,52132,1,0
216,136,52435,1,0
176,80,52738,2,0,B|96:80,1,70,0|2
24,192,53648,2,0,B|112:272|224:192|336:112|440:192,1,420,2|2
472,232,55769,5,0
472,304,56072,1,0
416,352,56375,2,0,B|336:352,1,70,2|0
272,352,56981,2,0,B|240:296|280:232,1,105
296,80,58193,6,0,B|200:80,1,70
152,80,58799,2,0,B|64:80,1,70,2|0
24,128,59405,1,0
80,176,59708,2,0,B|168:176,1,70,0|2
112,312,60617,5,0
160,264,60920,1,0
208,312,61223,1,2
256,264,61526,1,0
304,312,61829,2,0,B|360:344|416:304,1,105,0|2
488,248,62738,1,0
488,176,63042,2,0,B|488:96,2,70,2|0|0
384,144,64102,1,0
280,176,64557,2,0,B|184:224|56:168,1,210,2|0
24,128,65769,5,0
80,88,66072,2,0,B|152:48|240:96,1,140,2|0
280,104,66981,2,0,B|352:136|440:96,1,140
480,72,67890,1,2
416,32,68193,5,0
344,32,68496,2,0,B|264:32,1,70,0|2
200,32,69102,2,0,B|160:88|200:136,1,105,0|2
248,216,70011,1,0
248,216,70314,1,2
248,288,70617,5,0
176,304,70920,2,0,B|128:328|40:296,2,105,0|0|2
248,288,72132,2,0,B|296:264|384:296,2,105,0|0|2
200,232,73345,2,0,B|176:184|208:96,2,105,2|2|2
256,192,74557,12,0,75769
200,112,76375,6,0,B|48:112,2,140,2|0|2
312,192,78193,2,0,B|432:192,2,105,2|0|0
200,280,79708,6,0,B|120:280,2,70,0|0|2
272,280,80617,2,0,B|304:240|280:168,2,105,0|2|0
208,312,81829,2,0,B|136:352|40:304,1,140,0|2
24,264,82738,1,0
72,208,83042,6,0,B|128:176|192:216,1,105,0|2
272,240,83951,1,0
272,240,84254,2,0,B|344:280|424:232,1,140,0|2
472,208,85163,5,0
472,136,85466,2,0,B|472:24,2,105,0|2|0
408,104,86678,2,0,B|408:256,1,140,0|2
344,208,87587,1,0
344,280,87890,2,0,B|224:280,2,105,0|2|0
416,280,89102,2,0,B|448:208|408:120,1,140
392,80,90011,1,2
336,40,90314,6,0,B|288:16|208:48,1,105,0|2
144,96,91223,2,0,B|96:168|160:256,1,140
208,312,92284,1,2
304,344,92738,2,0,B|480:344|480:176,1,245
256,192,95163,12,0,98799
256,96,99102,5,0
184,96,99405,1,0
112,96,99708,1,0
40,96,100011,2,0,B|-8:160|40:248,1,140,4|0
104,232,100920,1,2
176,232,101223,2,0,B|296:232,2,105,0|0|2
104,232,102435,2,0,B|48:136|104:24,1,210,0|2
240,32,103951,5,0
240,104,104254,1,0
240,176,104557,1,0
240,248,104860,2,0,B|320:280|400:240,1,140,4|0
440,216,105769,1,2
488,160,106072,2,0,B|488:72,1,70,0|2
424,56,106678,2,0,B|424:152,1,70,0|2
424,192,107284,2,0,B|360:216|304:184,2,105,0|0|2
344,304,108799,6,0,B|440:304,2,70
272,304,109708,2,0,B|104:304,1,140,4|0
64,304,110617,1,2
64,304,110920,2,0,B|0:240,1,70,0|2
16,184,111526,2,0,B|80:120,1,70,0|2
112,80,112132,2,0,B|184:40|264:88,1,140,2|0
304,120,113042,2,0,B|352:160,1,35,2|0
416,208,113648,1,0
416,208,113951,1,2
416,280,114254,5,0
344,280,114557,2,0,B|304:216|352:136,1,140,0|2
416,144,115466,2,0,B|456:80|408:0,1,140,0|2
344,8,116375,2,0,B|256:8,1,70,0|2
256,192,116981,12,2,118193
256,96,118496,5,0
304,144,118799,1,0
352,96,119102,1,0
400,144,119405,2,0,B|400:296,1,140,4|0
400,352,120314,1,2
328,352,120617,2,0,B|240:352,1,70,0|2
184,352,121223,1,0
112,352,121526,2,0,B|64:352,2,35,2|0|0
136,288,122132,1,0
112,224,122435,1,2
144,160,122738,1,0
48,56,123345,5,0
112,24,123648,1,0
176,56,123951,1,0
240,88,124254,2,0,B|320:120|400:80,1,140,4|0
376,16,125163,1,2
448,16,125466,2,0,B|448:112,1,70,0|2
448,160,126072,2,0,B|448:240,1,70,0|2
448,304,126678,1,2
376,304,126981,2,0,B|376:352,2,35,2|0|0
304,304,127587,1,2
216,192,128193,6,0,B|216:120,2,70
216,264,129102,2,0,B|152:296|72:264,1,140,4|0
32,216,130011,1,2
16,144,130314,2,0,B|16:64,1,70,0|2
64,24,130920,2,0,B|160:24,1,70,0|2
200,24,131526,2,0,B|256:88|200:160,1,140,2|0
168,216,132435,2,0,B|120:288,1,70,2|0
256,24,133648,5,0
200,72,133951,2,0,B|248:128|320:160,1,140,0|2
312,72,134860,2,0,B|264:128|192:160,1,140,0|2
256,208,135769,1,2
256,208,136072,1,0
256,192,136375,12,4,140011
256,192,140617,5,2
256,192,140920,1,2
256,192,141223,1,4
