osu file format v6

[General]
AudioFilename: 3ff86fe89c7029ea015485ee501470ab.mp3
AudioLeadIn: 0
PreviewTime: 99077
Countdown: 0
SampleSet: Soft
StackLeniency: 0.2
Mode: 0
LetterboxInBreaks: 1

[Editor]
DistanceSpacing: 1
BeatDivisor: 4
GridSize: 8

[Metadata]
Title:La Clef ~Meikyuu no Kagi~
Artist:KOTOKO
Creator:Nekomiya Nono
Version:Nono Mix
Source:
Tags:I've KOTOKO

[Difficulty]
HPDrainRate:7
CircleSize:5
OverallDifficulty:7
SliderMultiplier:1.8
SliderTickRate:0.5

[Events]
//Background and Video events
0,0,"kkk.jpg"
//Break Periods
//Storyboard Layer 0 (Background)
//Storyboard Layer 1 (Fail)
//Storyboard Layer 2 (Pass)
//Storyboard Layer 3 (Foreground)
//Storyboard Sound Samples
//Background Colour Transformations
3,100,0,0,0

[TimingPoints]
3042,606.060606060606,4,2,0,60,1,0
34406,-200,4,2,0,0,0,0
36224,-100,4,2,0,60,0,0
75088,-100,4,1,0,30,0,0
75694,-100,4,2,0,60,0,0
97512,-100,4,1,0,30,0,0
98800,-100,4,1,0,0,0,0
98951,-100,4,2,0,60,0,0
138724,-100,4,1,0,30,0,0
141376,-100,4,2,0,60,0,0
160542,-100,4,2,0,30,0,0
180012,-100,4,1,0,0,0,0

[Colours]
Combo1 : 255,128,255
Combo2 : 0,255,128
Combo3 : 128,128,255

[HitObjects]
56,56,4557,1,0
56,144,4860,1,0
56,232,5163,1,0
56,320,5466,2,0,B|136:384|232:320,1,180,2|0
304,280,6375,1,0
384,328,6678,2,0,B|480:328,1,90,2|0
474,328,7132,2,0,B|512:264|480:184,1,135,0|2
464,160,7738,1,0
464,160,7890,2,0,B|412:83|460:19,2,135,0|0|2
392,216,9102,1,0
304,216,9405,6,0,B|192:216,2,90
392,216,10314,2,0,B|448:128|384:32,1,180,2|0
304,40,11223,1,0
216,40,11526,2,0,B|104:40,1,90,2|0
80,40,11981,2,0,B|40:104|88:184,1,135
168,168,12738,2,0,B|264:168,1,90,2|0
304,168,13193,2,0,B|336:216|288:280,1,90,2|0
304,253,13648,1,2
96,344,14254,5,0
32,280,14557,1,0
32,192,14860,1,0
96,128,15163,2,0,B|280:128,1,180,2|0
368,128,16072,1,0
456,128,16375,2,0,B|488:176|456:224,1,90,2|0
461,213,16829,2,0,B|424:280|472:352,1,135,2|0
376,344,17587,2,0,B|280:376|192:344,1,180,2|0
112,312,18496,1,2
112,312,18648,2,0,B|72:248|120:168,1,135
152,104,19405,1,2
216,40,19708,5,0
304,40,20011,2,0,B|376:120|304:208,1,180,2|0
216,112,20920,2,0,B|144:192|216:280,1,180,2|0
304,280,21829,1,0
392,280,22132,1,2
464,224,22435,2,0,B|512:136|464:32,2,180,0|2|0
256,224,24254,6,0,B|136:224,1,90,2|0
72,224,24860,1,2
16,152,25163,1,0
16,152,25314,1,0
16,152,25466,1,2
72,88,25769,1,0
136,24,26072,2,0,B|232:24,1,90,0|2
312,24,26678,6,0,B|344:72|304:120,1,90
224,112,27284,2,0,B|176:184|232:248,1,135,2|0
223,237,27890,1,2
296,288,28193,2,0,B|376:336|488:288,1,180
472,200,29102,1,2
472,112,29405,1,0
472,24,29708,6,0,B|368:24,1,90
288,24,30314,1,2
200,24,30617,2,0,B|88:24|88:144,1,180
88,224,31526,1,2
152,288,31829,1,0
216,352,32132,6,0,B|264:368|320:352,1,90,2|0
305,355,32587,2,0,B|384:344|408:280,1,90,0|2
384,317,33042,2,0,B|456:240|456:144,1,180
448,64,33951,1,2
448,64,34254,1,0
352,120,34557,6,0,B|256:180|149:112,1,202.5
48,192,36375,5,0
104,256,36678,1,0
168,192,36981,2,0,B|208:152|248:192,1,90,2|0
304,256,37587,2,0,B|352:296|408:240,1,90
424,232,38042,2,0,B|488:184|456:104,1,135,0|2
400,40,38799,5,0
312,40,39102,1,0
224,40,39405,2,0,B|112:40,1,90,2|0
128,88,39860,2,0,B|240:88,1,90
264,88,40314,2,0,B|312:176|264:264,1,180,0|2
232,344,41223,5,0
144,344,41526,1,0
56,344,41829,2,0,B|0:264,1,90,2|0
64,200,42435,2,0,B|8:120,1,90,0|2
12,126,42890,2,0,B|-40:64|32:8,1,135
120,8,43648,1,2
208,8,43951,1,0
208,8,44102,1,0
208,8,44254,2,0,B|240:56|200:104,1,90,2|0
184,128,44708,2,0,B|144:184|200:240,1,90,2|0
208,248,45163,2,0,B|280:320|400:312,1,180,2|2
456,312,46072,1,0
488,224,46375,6,0,B|512:176|480:120,2,90,0|2|0
400,224,47284,2,0,B|296:224,1,90,0|2
264,224,47738,2,0,B|216:160|280:80,1,135,0|2
288,56,48345,1,0
288,56,48496,1,2
368,96,48799,6,0,B|472:96,2,90,0|2|0
280,96,49708,2,0,B|176:96,1,90,0|2
144,96,50163,2,0,B|104:168|144:232,1,135,0|2
160,264,50769,1,0
160,264,50920,1,2
240,224,51223,5,0
240,224,51375,1,0
240,224,51526,2,0,B|352:224,1,90,2|0
296,136,52132,2,0,B|200:136,1,90,2|0
112,136,52738,1,0
16,136,53042,2,0,B|72:216|8:320,1,180,0|2
112,312,53951,1,0
200,312,54254,1,0
200,312,54405,1,2
288,312,54708,1,2
288,312,54860,1,0
376,312,55163,2,0,B|400:272|376:208,1,90,0|2
360,136,55769,5,0
304,64,56072,1,0
224,24,56375,2,0,B|112:24,1,90,2|0
56,72,56981,2,0,B|24:120|56:160,1,90
96,160,57435,2,0,B|248:160,1,135,0|2
320,160,58193,5,0
408,160,58496,1,0
496,160,58799,2,0,B|520:208|496:256,1,90,2|0
456,240,59254,2,0,B|400:216|352:248,1,90
328,256,59708,2,0,B|240:288|136:248,1,180,0|2
64,216,60617,5,0
8,288,60920,1,0
64,360,61223,1,2
152,360,61526,1,0
240,360,61829,2,0,B|352:360,1,90,0|2
376,360,62284,2,0,B|464:360|464:272,1,135,2|0
464,192,63042,2,0,B|464:88,1,90,0|2
456,48,63496,1,0
400,32,63648,5,0
256,112,64102,1,0
112,32,64557,1,2
48,96,64860,1,0
48,96,65011,1,2
48,96,65163,1,0
112,160,65466,1,2
200,160,65769,5,0
288,160,66072,1,2
376,160,66375,1,0
464,160,66678,1,0
464,72,66981,1,2
464,72,67132,2,0,B|304:72,1,135,0|0
240,72,67890,1,2
144,72,68193,5,0
144,72,68345,1,2
144,72,68496,2,0,B|56:160,1,90
16,200,69102,1,0
16,288,69405,1,2
16,288,69557,2,0,B|88:328|176:280,1,135
232,264,70314,1,2
320,264,70617,5,0
320,264,70769,1,0
320,264,70920,2,0,B|384:264|384:176,1,90,2|0
384,160,71375,2,0,B|384:72|280:72,1,135,0|2
208,72,72132,2,0,B|144:72|144:160,1,90,2|0
144,176,72587,2,0,B|144:264|248:264,1,135,0|2
312,264,73345,2,0,B|480:264,2,135,2|2|2
224,264,74557,5,0
176,264,74708,1,0
128,264,74860,1,0
80,264,75011,1,0
40,224,75163,5,0
80,176,75314,1,0
120,128,75466,1,0
160,80,75617,1,0
200,32,75769,6,0,B|400:32,2,180,0|2|0
112,32,77284,1,0
24,32,77587,2,0,B|24:128,1,90,2|0
24,208,78193,2,0,B|128:208,1,90,0|2
160,208,78648,2,0,B|232:296,1,90,0|2
248,312,79102,2,0,B|368:312,1,90
424,312,79708,5,0
496,256,80011,1,0
424,200,80314,1,2
352,256,80617,2,0,B|288:288|208:256,2,135,0|2|0
352,168,81829,2,0,B|288:136|208:168,2,135,0|2|0
440,168,83042,6,0,B|464:128|440:80,1,90,0|2
408,48,83496,2,0,B|368:24|320:48,1,90,0|2
280,64,83951,1,0
192,64,84254,1,0
104,64,84557,1,2
104,64,84708,1,0
104,64,84860,1,2
48,136,85163,5,0
48,136,85314,1,0
48,136,85466,2,0,B|120:208,1,90,2|0
111,199,85920,2,0,B|112:296,1,90,2|0
111,288,86375,2,0,B|192:368,1,90
264,352,86981,1,2
264,352,87132,1,0
264,352,87284,1,2
352,352,87587,5,0
352,352,87738,1,0
352,352,87890,2,0,B|416:352|416:272,1,90,2|0
413,299,88345,2,0,B|416:232|480:232,1,90,2|0
462,233,88799,1,0
464,144,89102,1,0
464,144,89254,1,2
464,144,89405,1,0
416,72,89708,5,0
328,72,90011,1,2
272,144,90314,2,0,B|208:200|112:128,2,135,0|2|0
208,80,91526,1,0
128,40,91829,2,0,B|40:96|72:192,1,135,0|2
80,288,92738,5,0
80,288,92890,1,2
80,288,93042,1,0
160,328,93345,1,2
240,288,93648,1,0
240,288,93799,1,2
320,328,94102,1,0
320,328,94254,1,2
400,288,94557,1,0
480,328,94860,1,2
480,240,95163,6,0,B|480:192,3,45,0|0|0|2
432,192,95769,2,0,B|432:144,3,45,0|0|0|2
384,144,96375,2,0,B|384:88,3,45,0|0|0|2
336,96,96981,2,0,B|336:48,3,45,0|0|0|2
280,32,97587,5,0
232,64,97738,1,0
280,96,97890,1,0
232,128,98042,1,0
280,160,98193,1,0
232,192,98345,1,0
280,224,98496,1,0
232,256,98648,2,0,B|232:320,1,45,0|0
152,344,99102,5,0
72,296,99405,1,0
72,208,99708,1,0
72,120,100011,2,0,B|72:8|200:8,1,180,4|0
272,8,100920,1,2
272,96,101223,2,0,B|216:96|192:168,1,90
201,144,101678,2,0,B|168:232|224:288,1,135,0|2
248,296,102284,1,0
288,312,102435,2,0,B|328:336|376:328,1,90,0|2
416,312,102890,2,0,B|464:288|464:224,1,90,0|2
464,192,103345,1,0
432,104,103648,1,2
360,48,103951,5,0
288,104,104254,1,0
200,104,104557,1,0
120,152,104860,2,0,B|56:232|128:336,1,180,4|0
208,328,105769,1,2
304,328,106072,2,0,B|304:224,1,90,0|2
304,238,106526,2,0,B|304:144|192:144,1,135,0|2
176,144,107132,1,0
128,144,107284,2,0,B|40:144|40:40,2,135,2|0|2
128,56,108496,1,2
216,56,108799,5,0
304,56,109102,1,0
392,56,109405,1,0
480,56,109708,2,0,B|536:136|480:232,1,180,4|0
392,184,110617,1,2
304,144,110920,2,0,B|168:144,1,90,0|2
168,144,111375,2,0,B|72:144|72:248,1,135,0|2
80,312,112132,2,0,B|184:376|272:296,1,180,2|0
336,272,113042,1,2
336,272,113193,2,0,B|480:272,1,135
472,184,113951,1,2
472,96,114254,5,0
400,40,114557,2,0,B|312:0|208:48,1,180,0|2
320,136,115466,2,0,B|232:176|128:128,1,180,0|2
64,104,116375,1,0
8,176,116678,1,2
64,248,116981,1,0
152,248,117284,1,2
216,312,117587,1,0
216,312,117738,1,2
304,312,118042,1,0
304,312,118193,1,2
392,312,118496,5,0
456,248,118799,1,0
496,168,119102,1,0
448,88,119405,2,0,B|336:112|336:248,1,180,4|0
336,304,120314,1,2
248,304,120617,2,0,B|200:280|216:224,1,90,0|2
216,184,121072,2,0,B|216:96|152:72,1,135,0|2
112,72,121678,1,0
64,72,121829,2,0,B|24:112|64:168,1,90,2|0
96,232,122435,1,2
168,288,122738,1,0
168,288,122890,1,2
288,224,123345,5,0
288,136,123648,1,0
288,48,123951,1,0
208,96,124254,2,0,B|16:96,1,180,4|0
56,176,125163,1,2
120,240,125466,2,0,B|168:264|216:240,1,90,0|2
248,224,125920,2,0,B|320:184|392:224,1,135,0|2
416,240,126526,1,0
456,264,126678,2,0,B|520:192|472:56,1,180,2|2
416,32,127587,2,0,B|368:64|312:24,1,90,0|2
240,32,128193,5,0
152,32,128496,1,0
200,104,128799,1,0
288,104,129102,2,0,B|344:184|280:280,1,180,4|0
192,272,130011,1,2
104,272,130314,2,0,B|56:224|112:176,1,90,0|2
120,152,130769,2,0,B|168:88|112:8,1,135,0|2
56,80,131526,2,0,B|144:112|248:72,1,180,2|0
320,48,132435,1,2
320,48,132587,2,0,B|392:136|312:272,1,225,0|2
248,312,133648,5,0
248,312,133951,2,0,B|160:352|64:304,1,180,0|2
72,184,134860,2,0,B|160:144|256:192,1,180,0|2
320,240,135769,1,0
368,320,136072,1,2
280,320,136375,5,0
248,288,136526,1,0
216,320,136678,1,0
184,288,136829,1,2
152,320,136981,1,0
120,288,137132,1,0
88,320,137284,1,0
56,288,137435,1,2
24,256,137587,5,0
56,224,137738,1,0
24,192,137890,1,0
56,160,138041,1,2
24,128,138193,1,0
56,96,138345,1,0
24,64,138496,1,0
56,32,138648,1,2
96,8,138799,5,0
144,32,138951,1,0
192,56,139102,1,0
240,80,139254,1,0
288,56,139405,1,0
336,80,139557,1,0
384,104,139708,1,0
432,128,139860,1,0
432,72,140011,5,0
384,104,140163,1,0
336,128,140314,1,0
288,152,140466,1,0
240,128,140617,1,0
192,152,140769,1,0
144,176,140920,1,0
96,208,141072,1,0
72,256,141223,6,0,B|-40:136|88:0,1,270,4|2
168,16,142435,1,0
256,16,142738,1,2
344,16,143041,6,0,B|464:8|480:136,1,180,0|2
480,248,144102,1,0
480,248,144254,1,2
408,304,144557,2,0,B|320:344|200:296,1,180
144,272,145466,1,2
64,224,145769,1,0
16,144,146072,6,0,B|16:24|152:24,1,180,0|2
216,24,146981,2,0,B|400:24,1,180
488,24,147890,2,0,B|512:64|488:112,1,90,2|0
416,168,148496,5,2
328,168,148799,1,0
328,168,148951,1,0
240,168,149254,1,2
240,168,149405,2,0,B|48:168,1,180
16,248,150314,1,2
56,328,150617,1,0
144,328,150920,6,0,B|288:328,1,135,0|2
320,328,151526,2,0,B|344:288|312:216,1,90,0|2
296,152,152132,1,0
248,72,152435,1,2
168,24,152738,6,0,B|56:16|0:96,1,180,0|2
72,208,153799,1,0
72,208,153951,2,0,B|112:232|192:200,1,90,2|0
248,192,154557,1,0
336,168,154860,1,2
424,192,155163,1,0
512,168,155466,1,2
472,88,155769,6,0,B|384:120|288:88,1,180,0|2
40,88,156981,2,0,B|128:120|224:88,1,180,0|2
256,280,158193,6,0,B|256:336,2,45,2|2|2
256,192,158799,1,2
208,112,159102,1,0
208,112,159254,1,2
304,112,159557,1,0
304,112,159708,1,2
256,32,160011,1,2
256,32,160163,1,2
256,32,160314,1,2
256,32,160466,1,2
208,32,160617,5,4
56,136,161223,1,8
112,304,161829,1,0
288,328,162435,1,8
448,272,163041,1,0
472,96,163648,1,8
312,16,164254,1,0
256,192,164860,1,8
88,256,165466,6,0,B|16:232|16:144|104:120,1,180,0|8
424,256,166678,2,0,B|496:232|496:144|408:120,1,180,0|8
256,48,167890,6,0,B|168:8|80:48,1,180,0|8
256,336,169102,2,0,B|344:376|432:336,1,180,0|8
440,160,170314,5,0
488,80,170617,1,0
392,80,170920,2,0,B|304:32|200:88,1,180,8|0
264,160,171829,1,0
218,78,172132,2,0,B|104:136|120:240,1,180,8|0
208,216,173041,1,0
224,304,173345,2,0,B|328:272|304:128,1,180,8|0
296,72,174254,1,0
216,32,174557,1,8
48,104,175163,5,0
120,160,175466,1,0
48,216,175769,1,8
120,272,176072,1,0
208,272,176375,1,0
296,272,176678,1,0
376,232,176981,1,8
376,144,177284,1,0
376,56,177587,5,0
288,56,177890,1,0
376,56,178193,1,8
288,56,178496,1,0
200,56,178799,1,0
120,96,179102,1,0
64,160,179405,1,8
40,248,179708,1,0
256,192,180011,12,0,182738
