osu file format v5

[General]
AudioFilename: 09. Kyarurun Kiaa de Junbo.mp3
AudioLeadIn: 0
PreviewTime: -1
Countdown: 1
SampleSet: Normal
StackLeniency: 0.6
Mode: 0
LetterboxInBreaks: 1
EditorBookmarks: 6776,41121,67604,84156,102777

[Metadata]
Title:Kyururun Kiaa de JUMBO
Artist:KOTOKO
Creator:mrtn
Version:Alace Difficulty
Source:
Tags:

[Difficulty]
HPDrainRate:5
CircleSize:6
OverallDifficulty:6
SliderMultiplier:1.6
SliderTickRate:2

[Events]
//Background and Video events
0,0,"background.jpg"
//Break Periods
2,25192,26632
//Storyboard Layer 0 (Background)
//Storyboard Layer 1 (Failing)
//Storyboard Layer 2 (Passing)
//Storyboard Layer 3 (Foreground)
//Storyboard Sound Samples
//Background Colour Transformations
3,100,0,0,0

[TimingPoints]
6786,413.793103448276,4,1,0,100,1
7717,-100,4,2,0,100,0
8130,-100,4,1,0,100,0
11130,-100,4,2,0,100,0
11751,-200,4,2,0,48,0
12579,-100,4,2,0,100,0
13199,-100,4,2,0,100,0
16510,-100,4,1,0,100,0
18165,-100,4,2,0,100,0
19820,-100,4,1,0,100,0
21682,-100,4,2,0,100,0
23441,-100,4,1,0,29,0
23854,-100,4,1,0,37,0
24165,-100,4,1,0,48,0
24475,-100,4,1,0,65,0
24786,-100,4,1,0,85,0
27475,-100,4,2,0,100,0
39786,-100,4,1,0,100,0
43303,-100,4,2,0,100,0
44130,-100,4,1,0,100,0
45889,-100,4,2,0,100,0
46613,-100,4,1,0,100,0
54579,-100,4,2,0,100,0
64820,-100,4,1,0,54,0
65234,-100,4,1,0,75,0
65648,-100,4,1,0,88,0
66268,-100,4,1,0,100,0
68958,-100,4,2,0,100,0
69372,-100,4,1,0,100,0
70717,-100,4,2,0,100,0
71130,-100,4,1,0,100,0
72268,-100,4,2,0,100,0
72786,-100,4,1,0,100,0
73923,-100,4,2,0,100,0
84372,-100,4,1,0,100,0
85510,-100,4,2,0,100,0
85923,-100,4,1,0,100,0
88820,-100,4,2,0,100,0
89544,-200,4,2,0,48,0
90372,-100,4,2,0,100,0
99475,-200,4,2,0,53,0
100510,-100,4,2,0,100,0
103717,-100,4,1,0,64,0

[HitObjects]
256,320,6785,1,0
320,208,7199,1,0
192,208,7613,1,0
256,208,7820,5,2
256,208,8027,1,2
224,152,8234,5,0
288,152,8441,1,0
256,96,8648,1,0
256,32,8854,1,0
256,96,9061,2,0,B|256:344,1,240
384,336,10096,5,0
448,336,10303,1,0
416,280,10510,1,0
416,216,10717,2,0,B|416:48,1,160,0|2
416,56,11234,1,0
416,56,11337,1,2
416,56,11441,1,0
416,56,11544,5,2
352,56,11751,2,0,B|352:224,1,160,0|2
352,280,12785,5,2
352,280,12992,1,2
32,272,13406,6,0,B|88:200,1,80,2|0
144,232,13820,1,2
120,168,14027,1,0
64,136,14234,1,2
40,72,14441,1,0
104,72,14648,2,0,B|192:40|264:72,2,160,2|2|2
136,128,15682,1,2
136,128,15785,1,0
136,128,15889,1,2
200,128,16096,1,2
168,184,16303,1,2
256,280,16717,5,0
424,184,17130,1,0
256,80,17544,1,0
96,184,17958,1,0
256,280,18372,5,2
256,216,18579,1,0
256,152,18785,1,2
312,184,18992,1,2
312,184,19096,1,2
312,184,19199,2,0,B|368:248|368:248|424:192,1,160
416,64,20027,5,0
160,64,20441,1,0
160,320,20854,1,0
416,320,21268,1,0
256,192,21682,12,0,22510
256,88,22923,5,4
256,280,23337,1,4
256,280,23544,6,0,B|256:232,14,40
256,192,27682,5,0
256,192,27889,1,0
440,304,28303,5,2
480,248,28510,1,0
440,192,28717,1,2
376,208,28923,1,0
384,272,29130,1,2
376,208,29337,6,2,B|448:256|456:264|456:256,2,80
328,248,29958,5,2
272,208,30165,1,0
288,144,30372,1,2
352,144,30579,1,0
376,208,30785,1,2
352,144,30992,6,2,B|304:224,2,80
288,144,31613,5,2
232,184,31820,1,0
176,144,32027,1,2
200,80,32234,1,0
264,80,32441,1,2
200,80,32648,6,2,B|248:160,2,80
256,192,33268,12,0,34510
256,112,34923,5,2
320,128,35130,1,0
312,192,35337,1,2
256,224,35544,1,0
216,168,35751,1,2
256,224,35958,6,2,B|280:144,2,80
192,248,36579,5,2
144,200,36786,1,0
80,224,36992,1,2
96,288,37199,1,0
160,304,37406,1,2
96,288,37613,6,2,B|168:224,2,80
256,192,38234,12,0,39682
256,192,39889,5,0
256,192,40096,2,0,B|192:136|192:136|264:88,2,160
320,192,41130,1,0
320,192,41234,1,0
408,224,41544,6,0,B|440:280|344:336|264:304|224:272,1,240
168,240,42372,1,0
120,192,42579,2,0,B|80:144|128:80|264:40,1,240
312,88,43406,5,2
360,40,43613,1,2
360,40,43717,1,2
360,40,43820,1,2
408,88,44027,1,2
456,136,44234,6,0,B|488:184|464:216,1,80
464,272,44648,2,0,B|488:312|464:352,1,80
408,312,45061,2,0,B|352:176|224:272|232:160,1,240
104,176,46096,5,2
104,176,46303,1,2
104,176,46510,1,2
104,176,46717,6,0,B|168:272|192:120|248:216,1,160
240,264,47337,1,0
296,232,47544,1,0
296,168,47751,1,0
40,80,48165,6,0,B|80:64|120:80,1,80,0|0
80,136,48579,2,0,B|120:160|160:136,1,80,8|0
120,80,48992,2,0,B|160:64|200:80,1,80,0|0
160,136,49406,2,0,B|200:160|240:136,1,80,8|0
200,80,49820,1,0
328,56,50234,5,8
432,128,50648,1,0
432,192,50854,6,0,B|456:232|432:272,1,80,0|8
376,232,51268,2,0,B|360:272|376:312,1,80,0|0
440,312,51682,1,0
440,312,51889,1,8
344,192,52303,5,0
224,232,52717,1,8
128,152,53130,1,0
128,152,53337,5,0
192,152,53544,1,8
160,96,53751,1,0
224,96,53958,1,0
192,40,54165,1,8
256,40,54372,1,8
416,280,54786,6,2,B|344:288|304:232|304:232|304:240,2,120
416,216,55613,1,2
416,216,55717,1,0
416,152,55923,1,2
416,152,56027,1,0
360,184,56234,1,2
360,120,56441,6,2,B|288:112|248:168|248:168|248:160,2,120
360,184,57268,1,2
360,184,57372,1,0
360,248,57579,1,2
360,248,57682,1,0
304,208,57889,1,2
304,272,58096,6,2,B|232:280|192:224|192:224|192:232,2,120
304,208,58923,6,2,B|232:200|192:256|192:256|192:248,2,120
360,240,59751,5,4
104,192,60165,1,4
360,152,60579,1,4
104,112,60992,1,4
264,48,61406,6,2,B|320:40|376:96,2,120
264,112,62234,1,2
264,112,62337,1,0
264,176,62544,1,2
264,176,62648,1,2
208,144,62854,1,2
208,208,63061,6,2,B|152:216|96:160,2,120
208,144,63889,1,2
208,144,63992,1,0
208,80,64199,1,2
208,80,64303,1,2
264,112,64510,2,0,B|312:112,2,40,2|0|2
264,176,64923,6,0,B|344:200,1,80,0|0
336,264,65337,2,0,B|256:232,1,80
256,296,65751,2,0,B|336:328,1,80
392,296,66165,1,0
392,296,66372,5,0
256,80,66786,1,0
120,296,67199,1,0
256,80,67613,1,0
256,208,68027,5,0
256,272,68234,1,0
312,240,68441,1,0
312,176,68648,1,0
368,208,68854,1,0
368,144,69061,5,2
368,144,69268,1,2
424,176,69475,5,0
424,240,69682,2,0,B|424:328,1,80
368,288,70096,1,0
304,288,70303,2,0,B|232:328|144:280,1,160,0|2
150,283,70820,1,0
150,283,70923,1,2
56,192,71337,6,0,B|96:112,1,80
136,72,71751,2,0,B|224:72,1,80
280,72,72165,1,0
344,72,72372,2,0,B|344:120,4,40,2|0|2|2|0
408,72,72992,5,0
456,112,73199,1,0
408,152,73406,1,0
456,192,73613,1,0
408,232,73820,1,0
456,272,74027,5,2
456,272,74234,1,2
344,336,74648,6,0,B|256:360|176:328,1,160,2|8
186,52,75475,2,0,B|256:24|344:48,1,160,2|8
256,304,76303,5,2
256,304,76406,1,0
256,240,76613,1,0
256,240,76717,1,8
256,176,76923,1,2
256,176,77027,1,0
256,176,77130,1,2
256,112,77337,1,8
256,48,77544,1,8
56,112,77958,6,0,B|24:192|56:272,1,160,2|8
457,268,78786,2,0,B|488:192|456:112,1,160,2|8
128,192,79613,5,2
128,192,79717,1,0
192,192,79923,1,0
192,192,80027,1,8
256,192,80234,1,2
256,192,80337,1,0
256,192,80441,1,2
320,192,80648,1,8
384,192,80854,1,8
264,336,81268,6,0,B|208:272,1,80,2|0
272,248,81682,2,0,B|360:248,1,80,8|0
384,192,82096,2,0,B|328:128,1,80,0|0
280,88,82510,2,0,B|192:88,1,80,8|0
152,136,82923,2,0,B|208:200,3,80,2|0|8|2
248,240,83751,1,2
248,240,83854,1,0
184,256,84061,1,2
184,256,84165,1,10
72,192,84579,5,0
120,152,84786,1,0
168,192,84992,1,0
216,152,85199,1,0
264,192,85406,1,0
312,152,85613,5,2
312,152,85820,1,2
376,152,86027,6,0,B|376:240,1,80
440,232,86441,2,0,B|440:144,1,80
440,88,86854,2,0,B|328:40|200:88,1,240
80,72,87889,6,0,B|80:160,1,80
48,208,88303,1,0
112,208,88510,2,0,B|200:208,1,80
256,208,88923,1,2
256,208,89027,1,0
256,208,89130,1,2
256,208,89234,1,0
256,208,89337,5,2
320,208,89544,2,0,B|392:248|480:208,1,160,0|0
474,210,90579,5,2
474,210,90786,1,2
480,80,91199,6,0,B|408:120|368:16|320:80,1,160,2|8
224,144,92027,2,0,B|312:168|184:232|280:288|280:288|280:288,1,160,2|8
360,192,92854,1,2
456,272,93268,1,8
360,192,93682,1,2
408,232,93889,1,8
456,272,94096,1,8
328,272,94510,6,0,B|272:336|272:336|224:272,1,160,2|8
96,272,95337,2,0,B|32:216|32:216|96:168,1,160,2|8
184,80,96165,1,2
312,80,96579,1,8
184,80,96992,1,2
248,80,97199,1,8
312,80,97406,1,8
440,80,97820,5,2
392,128,98027,1,0
344,176,98234,1,2
304,224,98441,1,0
256,272,98648,1,2
208,312,98854,1,0
160,272,99061,1,2
120,224,99268,1,2
120,224,99475,6,0,B|32:136|168:64,1,200
256,192,100717,12,0,102786
256,192,103199,5,2
256,256,103406,1,2
256,256,103510,1,2
256,256,103613,1,2
224,312,103820,5,0
288,312,104027,1,0
