osu file format v14

[General]
AudioFilename: kke.mp3
AudioLeadIn: 0
PreviewTime: 60987
Countdown: 0
SampleSet: Normal
StackLeniency: 0.7
Mode: 1
LetterboxInBreaks: 0
WidescreenStoryboard: 0

[Editor]
Bookmarks: 1765,6765,11352,20098,22601,22810,23018,23226,23435,23851,24060,29268,29476,29685,29893,30101,30518,30726,33434,35518,35726,35934,36143,36351,36559,36768,38851,39059,39268,39476,39684,39893,40101,40309,40518,40726,41143,41559,41976,42184,42393,42809,43018,43434,43643,43851,44059,44476,44684,44893,45309,45518,45726,45934,46143,46765,47393,47601,48018,48434,49059,49268,49476,49684,50101,50517,50726,50934,51351,51767,51976,52184,52392,52601,53017,53434,54059,54267,54684,55101,55726,55934,56142,56351,56559,56663,56767,57184,57392,57601,58017,58434,58851,59059,59267,59476,59684,60101,60309,60517,60726,60934,61765,61976,62054,62080,62106,62184,62392,62496,62601,63226,63330,63434,63642,63851,64059,64267,64371,64476,65309,65387,65413,65439,65986,66012,66038,66064,66090,66116,66559,66663,66767,66793,66975,67002,67184,67210,67392,67418,67600,67627,67809,68017,68225,68330,68434,68850,69059,69267,69892,69996,70100,70309,70517,70725,70932,71141,71557,71766,74475,74684,75099,75411,75516,75725,77600,77809,78017,78225,78434,78486,78538,78564,78590,78616,78642,78694,78746,78850,78876,78902,78954,79059,79111,79163,79215,79267,79371,79397,79423,79449,79475,79527,79579,79631,79684,79710,79736,79762,79788,79814,79840,79866,79892,79918,79944,79970,79996,80022,80048,80074,80100,82183,82392,82600,83017,83225,83433,83850,84058,84267,84371,84475,84683,84788,84892,85100,87053,87079,87105,87470,87496,87522,87886,87913,87939,88429,93017,99266,99475,100725,101037
DistanceSpacing: 0.8
BeatDivisor: 4
GridSize: 32
TimelineZoom: 1.3

[Metadata]
Title:Koi Kou Enishi
TitleUnicode:恋ひ恋ふ縁
Artist:KOTOKO
ArtistUnicode:KOTOKO
Creator:JUDYDANNY
Version:Oni
Source:千恋*万花
Tags:Taiko Senren Banka Asai Yasuo 尾上秀樹 Ogami Hideki Famishin 井ノ原 智 Inohara Satoru Angel Note yuzu soft ゆずソフト visual novel ビジュアルノベル eroge opening
BeatmapID:1034840
BeatmapSetID:485249

[Difficulty]
HPDrainRate:5
CircleSize:5
OverallDifficulty:5
ApproachRate:5
SliderMultiplier:1.4
SliderTickRate:2

[Events]
//Background and Video events
0,0,"bg.jpg",0,80
//Break Periods
//Storyboard Layer 0 (Background)
//Storyboard Layer 1 (Fail)
//Storyboard Layer 2 (Pass)
//Storyboard Layer 3 (Foreground)
//Storyboard Sound Samples

[TimingPoints]
1769,416.666666666667,4,1,0,95,1,0
61769,-100,4,1,0,100,0,1
88435,-100,4,1,0,100,0,0
100102,-100,4,1,0,55,0,0
101560,-100,4,1,0,95,0,0

[HitObjects]
128,128,1769,5,8,0:0:0:0:
128,128,2602,1,8,0:0:0:0:
128,128,3435,1,8,0:0:0:0:
128,128,4269,1,8,0:0:0:0:
128,128,5102,1,0,0:0:0:0:
128,128,5310,1,0,0:0:0:0:
128,128,5519,1,8,0:0:0:0:
128,128,5727,1,0,0:0:0:0:
128,128,5831,1,8,0:0:0:0:
128,128,6039,1,8,0:0:0:0:
128,128,6144,1,0,0:0:0:0:
128,128,6352,1,8,0:0:0:0:
128,128,6456,1,8,0:0:0:0:
128,128,6560,1,0,0:0:0:0:
160,32,6769,5,12,0:0:0:0:
160,32,6977,1,0,0:0:0:0:
128,0,7081,1,0,0:0:0:0:
128,128,7185,1,8,0:0:0:0:
128,128,7394,1,0,0:0:0:0:
128,128,7810,1,0,0:0:0:0:
128,128,8019,1,8,0:0:0:0:
128,128,8227,1,0,0:0:0:0:
128,128,8644,1,0,0:0:0:0:
160,32,8852,1,8,0:0:0:0:
160,32,9060,1,2,0:0:0:0:
96,96,9164,1,2,0:0:0:0:
96,96,9269,1,2,0:0:0:0:
160,32,9477,1,0,0:0:0:0:
160,64,9685,1,8,0:0:0:0:
192,32,9894,1,8,0:0:0:0:
192,32,9998,1,8,0:0:0:0:
160,64,10102,5,0,0:0:0:0:
192,32,10310,1,0,0:0:0:0:
192,32,10414,1,0,0:0:0:0:
192,32,10519,1,8,0:0:0:0:
192,32,10727,1,0,0:0:0:0:
160,0,11144,1,0,0:0:0:0:
160,0,11352,1,0,0:0:0:0:
160,32,11456,1,0,0:0:0:0:
160,32,11560,1,8,0:0:0:0:
160,32,11977,1,8,0:0:0:0:
160,32,12185,1,0,0:0:0:0:
160,32,12394,1,8,0:0:0:0:
160,32,12810,1,8,0:0:0:0:
160,32,12914,1,8,0:0:0:0:
160,32,13019,1,0,0:0:0:0:
192,0,13123,1,0,0:0:0:0:
160,32,13227,1,8,0:0:0:0:
160,32,13435,1,12,0:0:0:0:
192,0,13644,1,0,0:0:0:0:
160,0,13748,1,0,0:0:0:0:
160,32,13852,1,8,0:0:0:0:
160,32,14060,1,0,0:0:0:0:
192,0,14477,1,0,0:0:0:0:
192,0,14685,1,8,0:0:0:0:
192,0,14894,1,0,0:0:0:0:
192,0,15310,1,0,0:0:0:0:
192,0,15519,1,8,0:0:0:0:
192,0,15727,1,2,0:0:0:0:
96,96,15831,1,2,0:0:0:0:
96,96,15935,1,2,0:0:0:0:
192,0,16144,1,0,0:0:0:0:
192,0,16352,1,8,0:0:0:0:
192,0,16560,1,8,0:0:0:0:
192,0,16664,1,8,0:0:0:0:
192,0,16769,1,0,0:0:0:0:
192,0,16977,1,0,0:0:0:0:
192,0,17081,1,0,0:0:0:0:
192,0,17185,1,8,0:0:0:0:
96,96,17394,1,0,0:0:0:0:
192,0,17810,1,0,0:0:0:0:
192,0,18019,1,0,0:0:0:0:
192,0,18123,1,0,0:0:0:0:
192,0,18227,1,8,0:0:0:0:
192,0,18644,1,8,0:0:0:0:
192,0,18852,1,8,0:0:0:0:
192,0,19060,1,0,0:0:0:0:
192,0,19164,1,0,0:0:0:0:
192,0,19269,1,0,0:0:0:0:
192,0,19477,1,8,0:0:0:0:
192,0,19685,1,0,0:0:0:0:
192,0,19789,1,0,0:0:0:0:
192,0,19894,1,8,0:0:0:0:
192,0,19998,1,8,0:0:0:0:
192,0,20102,5,0,0:0:0:0:
96,64,20519,1,8,0:0:0:0:
96,64,20727,1,0,0:0:0:0:
96,64,21144,1,0,0:0:0:0:
96,64,21352,1,8,0:0:0:0:
96,64,21560,1,0,0:0:0:0:
96,64,21977,1,0,0:0:0:0:
96,64,22185,1,8,0:0:0:0:
192,32,22394,1,0,0:0:0:0:
160,0,22602,1,0,0:0:0:0:
192,32,22706,1,0,0:0:0:0:
160,32,22810,1,0,0:0:0:0:
160,32,23019,1,8,0:0:0:0:
192,32,23227,1,8,0:0:0:0:
160,32,23435,5,0,0:0:0:0:
160,32,23852,1,0,0:0:0:0:
160,32,24060,1,8,0:0:0:0:
224,128,24477,1,8,0:0:0:0:
224,128,24581,1,8,0:0:0:0:
224,128,24685,1,8,0:0:0:0:
224,128,24894,1,0,0:0:0:0:
224,128,25102,1,8,0:0:0:0:
224,128,25206,1,8,0:0:0:0:
224,128,25310,1,8,0:0:0:0:
224,128,25519,1,0,0:0:0:0:
224,128,25727,1,8,0:0:0:0:
224,128,25935,1,0,0:0:0:0:
192,0,26144,1,0,0:0:0:0:
224,128,26352,1,8,0:0:0:0:
224,128,26560,1,8,0:0:0:0:
192,32,26664,1,8,0:0:0:0:
160,0,26769,5,0,0:0:0:0:
160,0,27185,1,8,0:0:0:0:
160,0,27394,1,0,0:0:0:0:
160,0,27810,1,0,0:0:0:0:
160,0,28019,1,8,0:0:0:0:
160,0,28227,1,0,0:0:0:0:
160,0,28644,1,0,0:0:0:0:
160,0,28852,1,8,0:0:0:0:
192,32,29060,1,0,0:0:0:0:
192,32,29269,1,8,0:0:0:0:
160,0,29477,1,0,0:0:0:0:
192,32,29581,1,0,0:0:0:0:
160,0,29685,1,8,0:0:0:0:
160,32,29894,1,8,0:0:0:0:
160,0,30102,1,0,0:0:0:0:
160,0,30519,1,8,0:0:0:0:
192,96,30727,1,0,0:0:0:0:
192,96,30831,1,0,0:0:0:0:
192,96,30935,1,8,0:0:0:0:
192,96,31039,1,8,0:0:0:0:
192,96,31144,1,0,0:0:0:0:
192,96,31352,1,8,0:0:0:0:
192,96,31456,1,8,0:0:0:0:
192,96,31560,1,0,0:0:0:0:
192,96,31769,1,8,0:0:0:0:
192,96,31977,1,8,0:0:0:0:
192,96,32185,1,0,0:0:0:0:
160,0,32394,1,0,0:0:0:0:
160,0,32498,1,0,0:0:0:0:
192,96,32602,1,8,0:0:0:0:
192,96,32810,1,0,0:0:0:0:
192,96,33019,1,8,0:0:0:0:
192,32,33227,1,8,0:0:0:0:
192,32,33435,5,4,0:0:0:0:
192,32,33852,1,8,0:0:0:0:
192,32,34060,1,0,0:0:0:0:
192,32,34477,1,0,0:0:0:0:
192,32,34685,1,8,0:0:0:0:
192,32,34894,1,0,0:0:0:0:
192,32,35310,1,0,0:0:0:0:
192,32,35519,1,8,0:0:0:0:
192,32,35727,1,0,0:0:0:0:
192,0,35831,1,0,0:0:0:0:
192,32,35935,1,8,0:0:0:0:
192,32,36144,1,0,0:0:0:0:
192,32,36352,1,8,0:0:0:0:
192,32,36560,1,0,0:0:0:0:
192,32,36664,1,0,0:0:0:0:
192,0,36769,5,0,0:0:0:0:
192,32,37185,1,8,0:0:0:0:
192,32,37394,1,0,0:0:0:0:
192,32,37810,1,0,0:0:0:0:
192,32,38019,1,8,0:0:0:0:
192,32,38227,1,0,0:0:0:0:
192,32,38331,1,8,0:0:0:0:
192,32,38435,1,0,0:0:0:0:
192,32,38644,1,0,0:0:0:0:
192,32,38852,1,8,0:0:0:0:
192,32,39060,1,0,0:0:0:0:
192,32,39164,1,0,0:0:0:0:
192,0,39269,1,8,0:0:0:0:
192,0,39477,1,0,0:0:0:0:
192,0,39685,1,8,0:0:0:0:
192,32,39894,1,8,0:0:0:0:
192,0,39998,1,8,0:0:0:0:
192,32,40102,1,0,0:0:0:0:
192,32,40310,1,0,0:0:0:0:
192,32,40414,1,0,0:0:0:0:
192,32,40519,1,8,0:0:0:0:
192,32,40727,1,12,0:0:0:0:
192,32,41144,1,12,0:0:0:0:
192,32,41560,1,12,0:0:0:0:
192,32,41977,1,4,0:0:0:0:
192,32,42394,1,12,0:0:0:0:
192,32,42810,1,0,0:0:0:0:
192,32,43019,1,8,0:0:0:0:
192,32,43227,1,8,0:0:0:0:
192,32,43435,1,0,0:0:0:0:
192,32,43644,1,0,0:0:0:0:
192,0,43748,1,0,0:0:0:0:
192,32,43852,1,0,0:0:0:0:
192,32,44060,1,8,0:0:0:0:
192,32,44269,1,0,0:0:0:0:
192,32,44477,1,0,0:0:0:0:
192,0,44581,1,0,0:0:0:0:
192,0,44685,1,8,0:0:0:0:
192,32,44894,1,0,0:0:0:0:
192,0,44998,1,8,0:0:0:0:
192,32,45102,1,0,0:0:0:0:
192,32,45310,1,0,0:0:0:0:
192,32,45519,1,8,0:0:0:0:
192,32,45727,1,8,0:0:0:0:
192,32,45831,1,8,0:0:0:0:
192,32,45935,1,0,0:0:0:0:
192,32,46144,1,12,0:0:0:0:
192,32,46769,5,0,0:0:0:0:
192,32,47394,1,0,0:0:0:0:
192,32,47602,1,0,0:0:0:0:
192,32,48019,1,8,0:0:0:0:
192,32,48435,1,0,0:0:0:0:
192,32,49060,1,0,0:0:0:0:
192,32,49269,1,0,0:0:0:0:
192,32,49477,1,0,0:0:0:0:
192,32,49685,1,8,0:0:0:0:
192,32,50102,1,0,0:0:0:0:
192,32,50727,1,0,0:0:0:0:
192,32,50935,1,0,0:0:0:0:
192,32,51352,1,8,0:0:0:0:
160,32,51769,1,0,0:0:0:0:
192,32,51977,1,0,0:0:0:0:
192,32,52185,1,8,0:0:0:0:
160,32,52394,1,0,0:0:0:0:
192,0,52602,1,0,0:0:0:0:
160,32,53019,1,2,0:0:0:0:
160,32,53435,5,12,0:0:0:0:
160,32,54060,1,2,0:0:0:0:
160,32,54269,1,0,0:0:0:0:
160,32,54685,1,8,0:0:0:0:
160,32,55102,1,0,0:0:0:0:
192,0,55310,1,0,0:0:0:0:
192,32,55519,1,2,0:0:0:0:
160,32,55727,1,2,0:0:0:0:
160,32,55935,1,0,0:0:0:0:
160,32,56352,1,8,0:0:0:0:
160,32,56769,5,0,0:0:0:0:
160,32,57185,1,8,0:0:0:0:
160,32,57394,1,0,0:0:0:0:
160,32,57602,1,0,0:0:0:0:
160,32,58019,1,8,0:0:0:0:
160,32,58435,1,0,0:0:0:0:
160,32,58852,1,8,0:0:0:0:
160,32,59060,1,0,0:0:0:0:
160,32,59269,1,2,0:0:0:0:
160,32,59685,1,2,0:0:0:0:
160,32,60102,5,0,0:0:0:0:
160,32,61144,1,12,0:0:0:0:
160,32,61352,1,12,0:0:0:0:
160,32,61769,5,4,0:0:0:0:
160,32,62185,1,8,0:0:0:0:
160,32,62394,1,8,0:0:0:0:
160,32,62602,1,0,0:0:0:0:
160,32,62706,1,0,0:0:0:0:
192,0,62810,1,0,0:0:0:0:
160,32,63019,1,8,0:0:0:0:
192,32,63227,1,0,0:0:0:0:
160,32,63435,1,0,0:0:0:0:
192,0,63539,1,0,0:0:0:0:
160,32,63644,1,8,0:0:0:0:
160,32,63852,1,8,0:0:0:0:
160,32,64060,1,0,0:0:0:0:
160,32,64269,1,8,0:0:0:0:
160,32,64477,1,8,0:0:0:0:
160,32,64581,1,8,0:0:0:0:
160,32,64685,1,0,0:0:0:0:
160,32,64894,1,8,0:0:0:0:
128,32,65102,1,0,0:0:0:0:
128,32,65414,1,0,0:0:0:0:
128,32,65519,1,8,0:0:0:0:
128,32,65727,1,0,0:0:0:0:
128,32,65935,1,8,0:0:0:0:
160,0,66144,1,2,0:0:0:0:
128,0,66248,1,8,0:0:0:0:
160,32,66352,1,0,0:0:0:0:
128,0,66560,1,2,0:0:0:0:
160,32,66769,1,0,0:0:0:0:
160,0,66873,1,0,0:0:0:0:
160,0,66977,1,8,0:0:0:0:
160,0,67081,1,8,0:0:0:0:
160,0,67185,1,0,0:0:0:0:
160,0,67394,1,8,0:0:0:0:
160,0,67602,1,0,0:0:0:0:
160,0,67810,1,8,0:0:0:0:
192,0,67914,1,8,0:0:0:0:
160,0,68019,1,8,0:0:0:0:
160,0,68227,1,8,0:0:0:0:
160,0,68331,1,8,0:0:0:0:
160,0,68435,1,0,0:0:0:0:
160,0,68852,1,8,0:0:0:0:
160,0,69060,1,0,0:0:0:0:
192,32,69269,1,0,0:0:0:0:
192,32,69373,1,0,0:0:0:0:
192,32,69477,1,0,0:0:0:0:
192,32,69685,1,8,0:0:0:0:
192,32,70102,1,0,0:0:0:0:
192,0,70310,1,0,0:0:0:0:
192,32,70519,1,8,0:0:0:0:
192,32,70727,1,0,0:0:0:0:
160,32,70831,1,2,0:0:0:0:
192,32,70935,1,0,0:0:0:0:
192,32,71144,1,8,0:0:0:0:
192,32,71560,1,8,0:0:0:0:
192,32,71769,1,0,0:0:0:0:
224,0,71977,1,0,0:0:0:0:
192,0,72081,1,0,0:0:0:0:
192,32,72185,1,8,0:0:0:0:
192,32,72394,1,0,0:0:0:0:
192,32,72602,1,8,0:0:0:0:
192,32,72810,1,0,0:0:0:0:
192,0,72914,1,0,0:0:0:0:
160,64,73019,1,8,0:0:0:0:
160,32,73227,1,8,0:0:0:0:
192,32,73435,1,0,0:0:0:0:
192,32,73644,1,8,0:0:0:0:
192,32,73748,1,8,0:0:0:0:
192,32,73852,1,0,0:0:0:0:
192,32,74060,1,8,0:0:0:0:
192,32,74164,1,8,0:0:0:0:
192,32,74269,1,0,0:0:0:0:
192,32,74477,1,12,0:0:0:0:
192,32,74685,1,12,0:0:0:0:
192,32,75102,1,4,0:0:0:0:
192,32,75519,1,8,0:0:0:0:
192,32,75727,1,8,0:0:0:0:
192,0,75935,1,0,0:0:0:0:
192,0,76039,1,0,0:0:0:0:
192,0,76144,1,0,0:0:0:0:
192,32,76352,1,8,0:0:0:0:
192,32,76560,1,0,0:0:0:0:
160,32,76769,1,0,0:0:0:0:
192,0,76873,1,0,0:0:0:0:
192,0,76977,1,8,0:0:0:0:
192,32,77081,1,0,0:0:0:0:
192,32,77185,1,8,0:0:0:0:
192,32,77394,1,0,0:0:0:0:
160,32,77602,1,8,0:0:0:0:
192,32,77810,1,0,0:0:0:0:
192,32,77914,1,8,0:0:0:0:
192,32,78019,1,0,0:0:0:0:
192,32,78227,1,8,0:0:0:0:
192,32,78435,5,0,0:0:0:0:
160,0,78539,1,0,0:0:0:0:
192,32,78644,1,0,0:0:0:0:
192,32,78852,1,8,0:0:0:0:
192,32,79060,1,0,0:0:0:0:
160,96,79269,1,8,0:0:0:0:
160,96,79581,1,8,0:0:0:0:
160,96,79685,1,0,0:0:0:0:
160,96,79894,1,8,0:0:0:0:
160,96,80102,1,0,0:0:0:0:
160,96,80310,1,0,0:0:0:0:
192,32,80414,1,0,0:0:0:0:
160,96,80519,1,8,0:0:0:0:
160,96,80727,1,8,0:0:0:0:
160,96,80935,1,0,0:0:0:0:
160,96,81144,1,8,0:0:0:0:
160,96,81248,1,8,0:0:0:0:
160,0,81352,1,0,0:0:0:0:
160,32,81456,1,0,0:0:0:0:
160,96,81560,1,8,0:0:0:0:
160,64,81664,1,8,0:0:0:0:
160,96,81769,1,0,0:0:0:0:
160,96,82185,1,8,0:0:0:0:
160,32,82394,1,0,0:0:0:0:
160,32,82602,1,0,0:0:0:0:
160,32,82706,1,0,0:0:0:0:
160,32,82810,1,0,0:0:0:0:
160,32,83019,1,2,0:0:0:0:
160,32,83227,1,0,0:0:0:0:
160,32,83435,1,8,0:0:0:0:
160,32,83539,1,8,0:0:0:0:
160,32,83644,1,8,0:0:0:0:
160,32,83852,1,0,0:0:0:0:
160,32,84060,1,8,0:0:0:0:
160,32,84269,1,0,0:0:0:0:
160,32,84373,1,0,0:0:0:0:
160,32,84477,1,0,0:0:0:0:
160,32,84581,1,0,0:0:0:0:
160,32,84685,1,8,0:0:0:0:
160,32,84894,1,8,0:0:0:0:
160,32,84998,1,8,0:0:0:0:
160,32,85102,5,0,0:0:0:0:
160,32,85310,1,8,0:0:0:0:
160,32,85519,1,8,0:0:0:0:
160,32,85727,1,8,0:0:0:0:
160,32,85935,1,0,0:0:0:0:
192,32,86144,1,2,0:0:0:0:
192,32,86248,1,2,0:0:0:0:
160,32,86352,1,2,0:0:0:0:
160,32,86560,1,8,0:0:0:0:
160,32,86769,5,4,0:0:0:0:
160,32,86977,1,8,0:0:0:0:
160,32,87081,1,8,0:0:0:0:
160,32,87185,1,0,0:0:0:0:
160,32,87394,1,8,0:0:0:0:
160,32,87498,1,8,0:0:0:0:
160,32,87602,1,0,0:0:0:0:
160,0,87810,1,8,0:0:0:0:
160,0,87914,1,8,0:0:0:0:
160,0,88019,1,0,0:0:0:0:
160,0,88123,1,0,0:0:0:0:
160,0,88227,1,8,0:0:0:0:
160,32,88435,1,12,0:0:0:0:
160,32,88644,1,0,0:0:0:0:
128,96,88748,1,0,0:0:0:0:
160,32,88852,1,8,0:0:0:0:
160,32,89060,1,0,0:0:0:0:
160,32,89477,1,0,0:0:0:0:
160,32,89685,1,8,0:0:0:0:
160,32,89894,1,0,0:0:0:0:
160,32,90310,1,0,0:0:0:0:
160,32,90519,1,8,0:0:0:0:
160,32,90727,1,8,0:0:0:0:
192,32,90831,1,8,0:0:0:0:
192,32,90935,1,8,0:0:0:0:
160,32,91144,1,0,0:0:0:0:
160,0,91352,1,8,0:0:0:0:
160,32,91560,1,8,0:0:0:0:
160,0,91664,1,8,0:0:0:0:
160,32,91769,1,0,0:0:0:0:
160,32,91977,1,0,0:0:0:0:
160,32,92081,1,0,0:0:0:0:
160,32,92185,1,8,0:0:0:0:
160,32,92394,1,0,0:0:0:0:
160,32,92810,1,0,0:0:0:0:
160,32,93019,1,8,0:0:0:0:
160,32,93123,1,0,0:0:0:0:
160,32,93227,1,8,0:0:0:0:
160,32,93644,1,8,0:0:0:0:
160,32,93852,1,0,0:0:0:0:
160,32,94060,1,8,0:0:0:0:
160,32,94477,1,8,0:0:0:0:
160,32,94581,1,8,0:0:0:0:
160,32,94685,1,0,0:0:0:0:
160,32,94789,1,0,0:0:0:0:
160,32,94894,1,8,0:0:0:0:
160,32,95102,1,12,0:0:0:0:
160,32,95310,1,0,0:0:0:0:
160,32,95414,1,0,0:0:0:0:
160,32,95519,1,8,0:0:0:0:
160,32,95727,1,0,0:0:0:0:
160,32,96144,1,0,0:0:0:0:
160,32,96352,1,8,0:0:0:0:
160,32,96560,1,0,0:0:0:0:
160,32,96977,1,0,0:0:0:0:
160,64,97185,1,8,0:0:0:0:
160,64,97394,1,8,0:0:0:0:
160,64,97498,1,8,0:0:0:0:
160,64,97602,1,8,0:0:0:0:
160,64,97810,1,0,0:0:0:0:
160,64,98019,1,8,0:0:0:0:
160,64,98227,1,8,0:0:0:0:
160,64,98331,1,8,0:0:0:0:
160,64,98435,1,0,0:0:0:0:
160,64,98644,1,0,0:0:0:0:
160,64,98748,1,0,0:0:0:0:
160,64,98852,1,8,0:0:0:0:
160,64,99060,1,0,0:0:0:0:
160,64,99269,1,8,0:0:0:0:
160,64,99373,1,8,0:0:0:0:
160,64,99477,1,8,0:0:0:0:
160,64,99581,1,8,0:0:0:0:
160,64,99685,1,8,0:0:0:0:
160,64,99894,1,4,0:0:0:0:
160,64,100310,1,0,0:0:0:0:
160,64,100519,1,8,0:0:0:0:
160,64,100727,1,0,0:0:0:0:
192,32,100831,1,0,0:0:0:0:
160,64,100935,1,0,0:0:0:0:
160,64,101144,1,0,0:0:0:0:
160,64,101352,1,8,0:0:0:0:
160,64,101560,1,12,0:0:0:0:
160,64,101977,1,12,0:0:0:0:
160,64,102185,1,12,0:0:0:0:
160,64,102394,1,4,0:0:0:0:
