osu file format v14

[General]
AudioFilename: kke.mp3
AudioLeadIn: 0
PreviewTime: 60987
Countdown: 0
SampleSet: Normal
StackLeniency: 0.7
Mode: 1
LetterboxInBreaks: 0
WidescreenStoryboard: 0

[Editor]
Bookmarks: 1765,1977,2185,2602,2810,3018,3435,3643,3852,4268,4477,4685,5831,6765,6977,7185,7393,7810,8227,8643,8852,9060,9425,9451,9477,9503,9529,10102,10310,10518,10727,11143,11352,11560,11977,12185,12393,12810,12914,13018,13227,13331,13435,13643,13852,14060,14477,14893,15310,15518,15727,16352,16560,16768,16977,17185,17393,17810,18018,18226,18643,18851,19060,19476,19685,19737,19789,19841,19893,19945,19997,20049,20098,20101,20154,20206,20258,20310,20362,20414,20466,20518,26768,26976,27185,33435,42393,42601,42809,43434,43486,43538,43591,43643,43695,43747,43851,43903,43955,44007,44059,44111,44163,44216,46765,48434,49060,49269,50101,50934,51767,52184,52601,53017,53434,54267,55101,55727,55934,56559,56663,56767,57185,57601,58017,58434,58852,59269,59685,60102,61765,61976,62054,62080,62106,62184,62392,62601,63226,63330,63434,63642,63851,64059,64267,64371,64476,65309,65387,65413,65439,65986,66012,66038,66064,66090,66116,66559,66663,66767,66793,66975,67002,67184,67210,67392,67418,67600,67627,68434,68850,69059,69267,69892,69996,70100,70309,70517,70725,70932,71141,71557,71766,71819,71871,71923,71975,72027,72080,72184,72236,72288,72340,72392,72444,72496,72548,72600,73800,73826,73852,73878,73904,73930,74475,74684,75099,75411,75516,77600,77809,78017,78225,78538,79684,80048,80074,80100,80126,80152,80309,80517,80725,80934,81142,81350,81559,81767,88429,99894,100102,100310,100519,100727,100831,100935,101039,101144,101352,101560
DistanceSpacing: 0.8
BeatDivisor: 2
GridSize: 32
TimelineZoom: 1.2

[Metadata]
Title:Koi Kou Enishi
TitleUnicode:恋ひ恋ふ縁
Artist:KOTOKO
ArtistUnicode:KOTOKO
Creator:JUDYDANNY
Version:Muzukashii
Source:千恋*万花
Tags:Taiko Senren Banka Asai Yasuo 尾上秀樹 Ogami Hideki Famishin 井ノ原 智 Inohara Satoru Angel Note yuzu soft ゆずソフト visual novel ビジュアルノベル eroge opening
BeatmapID:1034839
BeatmapSetID:485249

[Difficulty]
HPDrainRate:6
CircleSize:5
OverallDifficulty:4.5
ApproachRate:5
SliderMultiplier:1.4
SliderTickRate:2

[Events]
//Background and Video events
0,0,"bg.jpg",0,80
//Break Periods
//Storyboard Layer 0 (Background)
//Storyboard Layer 1 (Fail)
//Storyboard Layer 2 (Pass)
//Storyboard Layer 3 (Foreground)
//Storyboard Sound Samples

[TimingPoints]
1769,416.666666666667,4,1,0,95,1,0
61769,-100,4,1,0,100,0,1
88435,-100,4,1,0,100,0,0
100102,-100,4,1,0,55,0,0
101560,-100,4,1,0,95,0,0

[HitObjects]
128,128,1768,5,8,0:0:0:0:
128,128,2602,1,8,0:0:0:0:
128,128,3435,1,8,0:0:0:0:
128,128,4269,1,8,0:0:0:0:
128,128,5102,1,0,0:0:0:0:
128,128,5310,1,0,0:0:0:0:
128,128,5519,1,8,0:0:0:0:
160,32,5935,1,2,0:0:0:0:
128,128,6144,1,0,0:0:0:0:
128,128,6352,1,8,0:0:0:0:
128,32,6456,1,8,0:0:0:0:
128,32,6560,1,8,0:0:0:0:
160,32,6769,5,6,0:0:0:0:
128,128,7185,1,2,0:0:0:0:
128,128,7394,1,0,0:0:0:0:
159,92,7810,1,2,0:0:0:0:
128,128,8227,1,0,0:0:0:0:
128,128,8644,1,0,0:0:0:0:
160,32,8852,1,8,0:0:0:0:
160,32,9060,1,8,0:0:0:0:
160,192,9685,1,8,0:0:0:0:
192,32,9894,1,8,0:0:0:0:
160,64,10102,5,0,0:0:0:0:
192,32,10519,1,2,0:0:0:0:
192,32,10727,1,0,0:0:0:0:
160,0,11144,1,0,0:0:0:0:
160,32,11560,1,8,0:0:0:0:
160,32,11977,1,8,0:0:0:0:
160,32,12185,1,0,0:0:0:0:
160,32,12394,1,8,0:0:0:0:
160,0,12810,1,2,0:0:0:0:
160,0,12914,1,2,0:0:0:0:
160,0,13019,1,2,0:0:0:0:
160,32,13227,1,2,0:0:0:0:
160,32,13435,5,12,0:0:0:0:
160,32,13852,1,8,0:0:0:0:
160,32,14060,1,0,0:0:0:0:
192,0,14477,1,2,0:0:0:0:
192,0,14894,1,0,0:0:0:0:
192,0,15310,1,0,0:0:0:0:
192,0,15519,1,8,0:0:0:0:
192,0,15727,1,8,0:0:0:0:
192,0,16352,1,8,0:0:0:0:
192,0,16560,1,8,0:0:0:0:
192,0,16769,5,0,0:0:0:0:
192,0,17185,1,8,0:0:0:0:
96,96,17394,1,0,0:0:0:0:
192,0,17810,1,0,0:0:0:0:
192,0,18227,1,8,0:0:0:0:
192,0,18644,1,8,0:0:0:0:
192,0,18852,1,8,0:0:0:0:
192,0,19060,1,0,0:0:0:0:
192,0,19477,1,0,0:0:0:0:
192,0,19685,1,0,0:0:0:0:
192,0,19789,1,0,0:0:0:0:
160,32,19894,1,0,0:0:0:0:
192,0,20102,5,0,0:0:0:0:
160,96,20519,1,8,0:0:0:0:
96,64,20727,1,0,0:0:0:0:
96,64,21144,1,0,0:0:0:0:
160,32,21352,1,2,0:0:0:0:
192,96,21560,1,0,0:0:0:0:
160,32,21977,1,0,0:0:0:0:
96,64,22185,1,8,0:0:0:0:
160,0,22602,1,0,0:0:0:0:
160,32,22810,1,0,0:0:0:0:
192,32,23019,1,2,0:0:0:0:
160,32,23435,5,0,0:0:0:0:
160,32,23852,1,0,0:0:0:0:
160,32,24060,1,8,0:0:0:0:
192,32,24477,1,2,0:0:0:0:
192,32,24581,1,2,0:0:0:0:
192,32,24685,1,2,0:0:0:0:
192,32,24894,1,0,0:0:0:0:
224,128,25102,1,2,0:0:0:0:
192,32,25206,1,2,0:0:0:0:
192,0,25310,1,2,0:0:0:0:
192,0,25519,1,0,0:0:0:0:
224,128,25935,1,0,0:0:0:0:
192,64,26144,1,0,0:0:0:0:
224,128,26352,1,8,0:0:0:0:
224,128,26560,1,8,0:0:0:0:
160,0,26769,5,0,0:0:0:0:
192,32,27185,1,8,0:0:0:0:
160,0,27394,1,0,0:0:0:0:
160,0,27810,1,0,0:0:0:0:
192,32,28019,1,2,0:0:0:0:
160,0,28227,1,0,0:0:0:0:
160,0,28644,1,0,0:0:0:0:
160,0,28852,1,2,0:0:0:0:
192,32,29269,1,8,0:0:0:0:
192,32,29477,1,0,0:0:0:0:
160,0,29685,1,10,0:0:0:0:
160,0,30102,1,0,0:0:0:0:
160,0,30519,1,2,0:0:0:0:
192,96,30727,1,0,0:0:0:0:
160,32,30831,1,0,0:0:0:0:
160,32,30935,1,0,0:0:0:0:
160,32,31144,1,2,0:0:0:0:
160,32,31352,1,0,0:0:0:0:
160,32,31456,1,0,0:0:0:0:
192,96,31560,1,0,0:0:0:0:
192,96,31769,1,2,0:0:0:0:
192,96,32185,1,2,0:0:0:0:
192,0,32394,1,0,0:0:0:0:
192,96,32602,1,2,0:0:0:0:
192,96,33019,1,8,0:0:0:0:
192,0,33227,1,2,0:0:0:0:
192,32,33435,5,4,0:0:0:0:
192,64,33852,1,2,0:0:0:0:
192,32,34060,1,0,0:0:0:0:
192,32,34477,1,2,0:0:0:0:
192,32,34894,1,0,0:0:0:0:
192,32,35310,1,2,0:0:0:0:
192,32,35519,1,2,0:0:0:0:
192,0,35727,1,0,0:0:0:0:
192,0,35831,1,0,0:0:0:0:
192,32,35935,1,0,0:0:0:0:
160,0,36352,1,2,0:0:0:0:
192,32,36560,1,0,0:0:0:0:
192,0,36769,5,0,0:0:0:0:
192,32,37185,1,8,0:0:0:0:
192,32,37394,1,0,0:0:0:0:
192,32,37810,1,2,0:0:0:0:
192,32,38227,1,0,0:0:0:0:
192,32,38644,1,2,0:0:0:0:
192,0,38852,1,0,0:0:0:0:
192,32,39060,1,2,0:0:0:0:
192,0,39164,1,2,0:0:0:0:
192,0,39269,1,8,0:0:0:0:
192,0,39685,5,8,0:0:0:0:
192,32,39894,1,8,0:0:0:0:
192,32,40102,1,4,0:0:0:0:
256,64,40519,1,0,0:0:0:0:
192,32,40727,1,12,0:0:0:0:
192,32,41144,1,12,0:0:0:0:
192,32,41560,1,12,0:0:0:0:
192,32,41977,1,4,0:0:0:0:
192,32,42394,1,12,0:0:0:0:
192,32,43019,1,8,0:0:0:0:
192,32,43227,1,2,0:0:0:0:
192,32,43435,1,0,0:0:0:0:
192,32,43852,1,2,0:0:0:0:
192,32,44269,1,0,0:0:0:0:
192,32,44477,1,8,0:0:0:0:
160,32,44685,1,0,0:0:0:0:
192,32,44894,1,8,0:0:0:0:
192,32,45310,1,8,0:0:0:0:
192,0,45519,1,0,0:0:0:0:
192,32,45727,1,8,0:0:0:0:
192,0,45831,1,2,0:0:0:0:
192,0,45935,1,2,0:0:0:0:
192,32,46144,1,12,0:0:0:0:
192,32,46769,5,0,0:0:0:0:
192,32,47602,1,0,0:0:0:0:
192,32,48019,1,8,0:0:0:0:
192,32,48435,1,0,0:0:0:0:
192,32,49060,1,0,0:0:0:0:
192,32,49269,1,0,0:0:0:0:
192,32,49685,1,8,0:0:0:0:
192,32,50102,1,0,0:0:0:0:
192,32,50935,1,0,0:0:0:0:
192,32,51352,1,8,0:0:0:0:
160,32,51769,1,0,0:0:0:0:
192,32,52185,1,2,0:0:0:0:
160,32,52394,1,0,0:0:0:0:
192,0,52602,1,0,0:0:0:0:
160,32,53019,1,2,0:0:0:0:
160,32,53435,5,12,0:0:0:0:
160,32,54269,1,0,0:0:0:0:
160,32,54685,1,8,0:0:0:0:
160,32,55102,1,0,0:0:0:0:
192,32,55519,1,2,0:0:0:0:
160,32,55727,1,2,0:0:0:0:
160,32,55935,1,0,0:0:0:0:
160,32,56352,1,8,0:0:0:0:
160,32,56769,5,0,0:0:0:0:
160,32,57185,1,8,0:0:0:0:
160,32,57394,1,0,0:0:0:0:
160,32,57602,1,0,0:0:0:0:
160,32,58019,1,8,0:0:0:0:
160,32,58435,1,0,0:0:0:0:
160,32,58852,1,8,0:0:0:0:
192,0,59060,1,0,0:0:0:0:
160,32,59269,1,8,0:0:0:0:
160,32,59685,1,8,0:0:0:0:
160,32,60102,5,0,0:0:0:0:
160,32,61144,1,12,0:0:0:0:
160,32,61352,1,12,0:0:0:0:
128,64,61769,1,4,0:0:0:0:
160,32,62185,1,2,0:0:0:0:
160,32,62394,1,2,0:0:0:0:
160,32,62602,1,0,0:0:0:0:
160,32,62706,1,0,0:0:0:0:
160,32,62810,1,0,0:0:0:0:
160,32,63019,1,2,0:0:0:0:
160,32,63435,1,0,0:0:0:0:
192,0,63644,1,2,0:0:0:0:
160,32,63852,1,8,0:0:0:0:
160,32,64060,1,0,0:0:0:0:
160,32,64269,1,2,0:0:0:0:
192,0,64477,1,0,0:0:0:0:
160,0,64581,1,0,0:0:0:0:
160,32,64685,1,0,0:0:0:0:
128,32,65102,1,0,0:0:0:0:
160,32,65414,1,0,0:0:0:0:
128,32,65519,1,8,0:0:0:0:
128,32,65727,1,0,0:0:0:0:
128,32,65935,1,2,0:0:0:0:
160,32,66352,1,0,0:0:0:0:
160,0,66769,1,2,0:0:0:0:
160,0,66977,1,2,0:0:0:0:
160,0,67185,1,0,0:0:0:0:
160,0,67394,1,2,0:0:0:0:
160,0,67602,1,0,0:0:0:0:
160,0,67810,1,8,0:0:0:0:
192,0,67914,1,2,0:0:0:0:
160,0,68019,1,8,0:0:0:0:
160,0,68435,1,4,0:0:0:0:
160,0,68852,1,8,0:0:0:0:
160,0,69060,1,0,0:0:0:0:
192,32,69269,1,0,0:0:0:0:
192,32,69685,1,8,0:0:0:0:
192,32,70102,1,0,0:0:0:0:
192,32,70310,1,0,0:0:0:0:
192,32,70519,1,8,0:0:0:0:
192,32,70727,1,2,0:0:0:0:
192,32,70935,1,0,0:0:0:0:
192,32,71144,1,8,0:0:0:0:
192,32,71560,1,8,0:0:0:0:
192,32,71769,1,0,0:0:0:0:
192,32,72185,1,8,0:0:0:0:
192,32,72602,1,2,0:0:0:0:
192,32,72810,1,0,0:0:0:0:
160,64,73019,1,8,0:0:0:0:
192,32,73435,1,0,0:0:0:0:
192,32,73644,1,8,0:0:0:0:
192,32,74060,1,8,0:0:0:0:
192,32,74477,1,12,0:0:0:0:
192,32,74685,1,12,0:0:0:0:
192,32,75102,1,4,0:0:0:0:
192,32,75519,1,8,0:0:0:0:
192,32,75727,1,8,0:0:0:0:
192,32,75935,1,0,0:0:0:0:
160,32,76039,1,0,0:0:0:0:
192,0,76144,1,0,0:0:0:0:
192,32,76352,1,8,0:0:0:0:
160,32,76769,1,0,0:0:0:0:
192,0,76977,1,8,0:0:0:0:
192,32,77185,1,2,0:0:0:0:
192,32,77394,1,0,0:0:0:0:
160,32,77602,1,2,0:0:0:0:
192,32,77810,1,8,0:0:0:0:
192,0,77914,1,8,0:0:0:0:
192,32,78019,1,10,0:0:0:0:
192,32,78435,1,0,0:0:0:0:
192,32,78852,1,2,0:0:0:0:
160,32,79060,1,0,0:0:0:0:
160,96,79269,1,2,0:0:0:0:
192,32,79581,1,2,0:0:0:0:
160,0,79685,1,0,0:0:0:0:
160,0,80102,1,2,0:0:0:0:
160,32,80310,1,0,0:0:0:0:
160,96,80519,1,2,0:0:0:0:
160,96,80727,1,8,0:0:0:0:
160,96,80935,1,0,0:0:0:0:
192,32,81144,1,2,0:0:0:0:
192,32,81248,1,2,0:0:0:0:
160,96,81352,1,8,0:0:0:0:
160,96,81560,1,8,0:0:0:0:
160,96,81769,1,4,0:0:0:0:
160,96,82185,1,2,0:0:0:0:
160,32,82394,1,0,0:0:0:0:
160,32,82602,1,0,0:0:0:0:
160,32,83019,1,10,0:0:0:0:
192,0,83227,1,0,0:0:0:0:
192,64,83435,1,2,0:0:0:0:
160,32,83852,1,2,0:0:0:0:
160,32,84060,1,2,0:0:0:0:
160,32,84269,1,0,0:0:0:0:
160,32,84477,1,0,0:0:0:0:
160,32,84685,1,8,0:0:0:0:
160,32,85102,1,4,0:0:0:0:
160,32,85519,1,8,0:0:0:0:
160,32,85935,1,0,0:0:0:0:
160,32,86144,1,2,0:0:0:0:
160,32,86352,1,2,0:0:0:0:
160,32,86769,1,4,0:0:0:0:
128,0,86977,1,4,0:0:0:0:
128,0,87394,1,4,0:0:0:0:
160,32,87810,1,0,0:0:0:0:
160,32,87914,1,0,0:0:0:0:
160,32,88019,1,0,0:0:0:0:
160,32,88227,1,0,0:0:0:0:
160,32,88435,1,12,0:0:0:0:
160,32,88852,1,8,0:0:0:0:
160,32,89060,1,0,0:0:0:0:
160,32,89477,1,2,0:0:0:0:
160,32,89894,1,0,0:0:0:0:
160,32,90310,1,0,0:0:0:0:
160,32,90519,1,8,0:0:0:0:
160,32,90727,1,8,0:0:0:0:
160,0,91352,1,8,0:0:0:0:
160,32,91560,1,8,0:0:0:0:
160,32,91769,1,0,0:0:0:0:
160,32,92185,1,8,0:0:0:0:
160,32,92394,1,0,0:0:0:0:
160,32,92810,1,0,0:0:0:0:
160,32,93227,1,8,0:0:0:0:
160,32,93644,1,8,0:0:0:0:
160,32,93852,1,0,0:0:0:0:
160,32,94060,1,8,0:0:0:0:
160,32,94477,1,8,0:0:0:0:
128,0,94581,1,2,0:0:0:0:
128,0,94685,1,2,0:0:0:0:
160,32,94894,1,8,0:0:0:0:
160,32,95102,1,12,0:0:0:0:
160,32,95519,1,8,0:0:0:0:
160,32,95727,1,0,0:0:0:0:
160,32,96144,1,2,0:0:0:0:
160,32,96560,1,0,0:0:0:0:
160,32,96977,1,0,0:0:0:0:
160,64,97185,1,8,0:0:0:0:
160,64,97394,1,8,0:0:0:0:
160,64,98019,1,8,0:0:0:0:
160,64,98227,1,8,0:0:0:0:
160,64,98435,1,0,0:0:0:0:
160,64,98852,1,2,0:0:0:0:
160,32,99060,1,0,0:0:0:0:
160,64,99269,1,2,0:0:0:0:
199,24,99477,1,2,0:0:0:0:
199,24,99581,1,2,0:0:0:0:
199,24,99685,1,2,0:0:0:0:
128,64,99894,5,4,0:0:0:0:
160,32,100519,5,2,0:0:0:0:
160,32,100935,5,0,0:0:0:0:
160,32,101352,5,2,0:0:0:0:
160,64,101560,1,12,0:0:0:0:
160,64,101977,1,12,0:0:0:0:
160,64,102185,1,12,0:0:0:0:
160,64,102394,1,4,0:0:0:0:
