osu file format v5

[General]
AudioFilename: 07 Itai yo.mp3
AudioLeadIn: 0
PreviewTime: -1
Countdown: 1
SampleSet: None

[Metadata]
Title:Itai yo
Artist:KOTOKO
Creator:Leng81
Version:Normal

[Difficulty]
HPDrainRate:5
CircleSize:5
OverallDifficulty:5
SliderMultiplier:1.5
SliderTickRate:3

[Events]
//Background and Video events
//Break Periods
//Storyboard Layer 0 (Background)
//Storyboard Layer 1 (Failing)
//Storyboard Layer 2 (Passing)
//Storyboard Layer 3 (Foreground)
//Storyboard Sound Samples
//Background Colour Transformations
3,100,163,162,255

[TimingPoints]
0,1000,4,0,0,100

[HitObjects]
48,159,5619,1,0
113,174,6235,1,0
41,159,6902,1,0
110,173,7552,1,0
296,179,9236,5,0
346,182,9703,1,0
347,181,12337,5,0
273,148,13070,1,0
346,180,13804,1,0
278,153,14470,1,0
340,177,15088,1,0
141,159,16887,5,0
79,155,17454,1,0
225,258,19071,5,0
165,216,19738,1,0
117,182,20271,1,0
117,182,21072,1,0
96,172,22939,6,0,B|401:228|401:228|398:228,3,300
239,137,30357,2,0,B|27:220,3,150
208,253,34441,2,0,B|460:280,3,150
116,124,47727,1,0
182,130,48344,1,0
256,128,50461,1,0
192,128,50911,1,0
160,160,51695,1,0
160,192,52245,1,0
288,192,53445,5,0
320,160,54045,1,0
320,128,55078,1,0
288,128,55512,1,0
512,224,57595,5,0
448,192,58346,1,0
384,160,58979,1,0
320,160,59613,1,0
128,160,61263,5,0
64,192,61913,1,0
96,256,62513,1,0
160,224,63164,1,0
128,160,63813,1,0
384,160,66264,5,0
448,128,66914,1,0
320,96,68014,1,0
384,96,68715,1,0
352,256,70298,5,0
384,320,70882,1,0
448,288,71560,1,0
384,224,72348,1,0
320,288,73099,1,0
384,320,73832,1,0
128,224,76883,5,0
96,256,77555,1,0
96,288,78317,1,0
128,288,79400,1,0
160,288,80002,1,0
256,192,83851,12,0,93870
128,160,109606,5,0
128,128,110406,1,0
160,128,111206,1,0
160,160,111724,1,0
128,160,112340,1,0
128,128,112773,1,0
352,192,114657,5,0
352,160,115247,1,0
384,160,115852,1,0
384,192,116658,1,0
352,192,117258,1,0
96,224,119358,5,0
96,256,119992,1,0
128,256,120675,1,0
128,224,121376,1,0
160,224,122109,1,0
160,256,122743,1,0
320,288,129910,5,0
320,256,130494,1,0
320,224,131211,1,0
352,224,131926,1,0
384,224,132561,1,0
384,256,133161,1,0
160,192,136328,5,0
256,160,137128,1,0
320,192,137995,1,0
256,256,138696,1,0
352,192,146547,5,0
256,160,147081,1,0
192,192,147664,1,0
160,192,150315,5,0
256,160,151165,1,0
320,192,151831,1,0
256,288,152748,1,0
416,224,153715,1,0
256,64,155098,5,0
288,64,155649,1,0
320,64,156182,1,0
69,68,161166,6,0,B|395:290,3,300
113,152,172336,1,0
249,171,173586,1,0
138,155,174603,1,0
169,339,176286,5,0
155,259,177020,1,0
260,238,178017,1,0
340,226,178770,1,0
253,239,179571,1,0
341,226,180387,1,0
252,239,181204,1,0
227,140,182121,5,0
302,239,183266,1,0
361,316,184171,1,0
309,249,184938,1,0
364,318,185755,1,0
281,214,186955,1,0
436,97,188706,5,0
342,167,189773,1,0
306,196,190206,1,0
149,182,191623,5,0
249,190,192540,1,0
196,186,193023,1,0
288,195,193873,1,0
232,189,194390,1,0
168,185,194974,1,0
283,192,196040,1,0
206,187,196740,1,0
326,102,198074,5,0
268,143,198724,1,0
189,203,199624,1,0
233,169,200141,1,0
280,135,200674,1,0
128,160,220378,5,0
160,160,221628,1,0
224,160,222205,1,0
96,160,224079,5,0
160,128,224563,1,0
224,128,225079,1,0
256,192,225697,1,0
256,224,226363,1,0
256,192,228597,12,0,234498
160,160,237632,5,0
192,160,238216,1,0
224,160,238766,1,0
288,160,239983,1,0
320,160,240534,1,0
320,160,241150,1,0
64,160,243436,5,0
160,160,244367,1,0
256,160,245117,1,0
128,352,247068,5,0
160,288,247801,1,0
192,256,248353,1,0
224,192,248984,1,0
352,96,250535,5,0
288,128,251086,1,0
224,96,251702,1,0
352,256,253518,5,0
320,192,254102,1,0
256,160,254673,1,0
320,192,255402,1,0
256,160,256069,1,0
352,192,256886,1,0
256,160,257728,1,0
64,160,259453,5,0
128,160,260086,1,0
192,160,260657,1,0
128,160,261137,1,0
192,160,261854,1,0
96,160,262804,1,0
256,160,264154,1,0
96,224,265738,5,0
160,224,266471,1,0
224,256,267171,1,0
