osu file format v7

[General]
AudioFilename: Inside of A Wilderness.mp3
AudioLeadIn: 0
PreviewTime: 83278
Countdown: 0
SampleSet: Normal
StackLeniency: 0.7
Mode: 0
LetterboxInBreaks: 1

[Editor]
DistanceSpacing: 0.800000011920929
BeatDivisor: 4
GridSize: 8

[Metadata]
Title:Inside of A Wilderness
Artist:KOTOKO
Creator:Mystearica
Version:Normal
Source:
Tags:J-Pop MegaManEXE Megaboy

[Difficulty]
HPDrainRate:2
CircleSize:4
OverallDifficulty:3
SliderMultiplier:1.1
SliderTickRate:1

[Events]
//Background and Video events
0,0,"bg.jpg"
//Break Periods
//Storyboard Layer 0 (Background)
//Storyboard Layer 1 (Fail)
//Storyboard Layer 2 (Pass)
//Storyboard Layer 3 (Foreground)
//Storyboard Sound Samples
//Background Colour Transformations
3,100,0,0,0

[TimingPoints]
17266,521.739130434783,4,1,1,80,1,0
23265,-100,4,1,1,75,0,0
23787,-100,4,1,1,80,0,0
24309,-100,4,1,1,85,0,0
24831,-100,4,1,1,90,0,0
25222,-100,4,1,1,95,0,0
25483,-100,4,1,1,100,0,0
33700,-100,4,1,1,80,0,0
82874,-100,4,1,1,0,0,0
83135,-100,4,1,1,80,0,0
115092,-100,4,1,1,60,0,0
115613,-100,4,2,1,80,0,0
117179,-100,4,1,1,100,0,0
123439,-100,4,1,1,50,0,0
123961,-100,4,1,1,40,0,0
124483,-100,4,1,1,30,0,0
125005,-100,4,1,1,20,0,0
125657,-100,4,1,1,30,0,0

[Colours]
Combo1 : 241,133,190
Combo2 : 255,255,255
Combo3 : 95,151,245
Combo4 : 155,240,238

[HitObjects]
144,138,17266,2,0,B|144:250,1,110,4|0
144,248,18048,1,0
368,136,19352,6,0,B|368:248,1,110
368,246,20135,1,0
256,64,21439,5,2
141,303,23526,5,0
213,351,24048,1,0
301,351,24570,1,0
369,300,25092,1,0
369,300,25352,1,0
369,300,25613,6,0,B|398:244|366:193,1,110,4|0
367,195,26396,1,0
143,84,27700,6,0,B|114:140|146:191,1,110
144,188,28483,1,0
256,192,29787,12,2,31874
72,288,33961,5,4
120,214,34483,1,0
193,165,35005,2,0,B|252:144|259:83,2,110
198,252,36570,1,0
198,252,36831,2,0,B|259:263|271:326,1,110
270,324,37613,1,0
400,288,38396,5,0
435,262,38657,2,0,B|474:226|471:160,1,110
458,74,39700,1,0
384,120,40222,2,0,B|307:166|224:118,2,165,0|0|0
440,240,42570,5,0
440,240,42831,2,0,B|467:299|428:346,1,110
365,284,43874,1,0
281,308,44396,2,0,B|272:260|301:227,2,82.5
136,288,45961,6,0,B|136:344,2,55
74,225,47005,2,0,B|18:225,2,55
137,162,48048,1,0
200,99,48570,6,0,B|200:8,2,82.5
263,161,49874,1,2
263,161,50135,1,0
368,80,50918,5,0
368,80,51179,2,0,B|422:49|476:83,2,110
418,153,52744,2,0,B|342:198|262:152,1,165
182,116,54048,2,0,B|139:97|98:118,2,82.5
141,193,55352,5,0
79,255,55874,1,0
142,317,56396,1,0
205,254,56918,2,0,B|317:254,1,110
404,254,57961,6,0,B|444:254,6,27.5,2|0|2|0|2|0|2
344,192,59266,6,0,B|400:160|400:88|344:56,1,165
291,125,60570,1,0
234,58,61092,2,0,B|181:88|181:160|237:192,1,165
182,312,62657,6,0,B|64:312,1,110,0|4
72,224,63700,1,0
160,224,64222,1,0
160,136,64744,1,0
72,136,65266,1,0
72,48,65787,2,0,B|154:14|208:92|292:46,1,220
328,48,67092,5,0
328,88,67352,2,0,B|328:200,1,110,4|0
408,160,68396,2,0,B|408:272,1,110,0|0
408,312,69179,5,0
368,312,69439,2,0,B|256:312,1,110
280,224,70483,2,0,B|168:224,1,110
96,168,71526,6,0,B|75:208|96:248,2,82.5
96,168,72570,2,0,B|142:166|166:128,2,82.5
96,168,73613,2,0,B|72:129|27:128,2,82.5
96,168,74657,1,4
184,256,75439,6,0,B|152:288,2,27.5,0|0|4
320,256,76483,6,0,B|352:288,2,27.5,0|0|4
256,144,77526,6,0,B|256:176,2,27.5
193,81,78309,1,0
255,18,78831,1,0
317,80,79352,1,0
256,192,79874,12,0,83005
24,152,83526,6,0,B|93:158|100:91,1,110,0|4
122,177,84570,1,0
208,208,85092,2,0,B|139:202|132:269,1,110
218,290,86135,2,0,B|214:339|162:348,2,82.5,4|0|0
256,208,87439,5,0
256,208,87700,1,0
312,144,88222,2,0,B|344:92|409:92,1,110
488,128,89265,2,0,B|456:180|391:180,1,110
336,240,90309,2,0,B|248:240,2,82.5,4|0|0
368,272,91352,2,0,B|456:272,2,82.5
284,360,92657,6,0,B|220:360,4,55,0|0|0|0|0
92,236,94744,5,0
92,236,95005,2,0,B|12:316,2,110
92,148,96570,2,0,B|12:68,2,110,4|0|0
168,192,98135,1,0
256,192,98657,2,0,B|311:161|354:221|419:191,1,165
424,64,100222,5,0
336,64,100744,2,0,B|294:82|252:62,2,82.5,0|0|4
424,64,102048,1,0
424,64,102309,1,0
424,152,102831,2,0,B|406:194|426:236,2,82.5,4|0|0
336,152,104135,5,0
336,152,104396,1,0
248,152,104918,2,0,B|128:152,1,110
72,208,105961,2,0,B|184:208,1,110
232,280,107005,2,0,B|168:344,2,82.5,4|0|0
280,280,108048,2,0,B|344:344,2,82.5
256,192,109352,6,0,B|256:136,4,55
432,192,111439,5,0
419,149,111700,2,0,B|400:88|338:71,2,110
352,208,113265,2,0,B|299:236|243:206,1,110,4|0
168,168,114309,2,0,B|115:140|59:170,1,110
32,248,115352,5,6
112,280,115874,1,2
192,248,116396,1,2
272,280,116918,1,2
352,248,117439,6,0,B|464:248,1,110,4|0
462,248,118222,1,0
320,80,119526,6,0,B|208:80,1,110
210,80,120309,1,0
24,192,121613,5,2
280,352,123700,5,0
232,280,124222,1,0
280,208,124744,1,0
232,136,125265,1,0
232,136,125526,1,0
232,136,125787,1,4
