osu file format v7

[General]
AudioFilename: Inside of A Wilderness.mp3
AudioLeadIn: 0
PreviewTime: 83278
Countdown: 0
SampleSet: Normal
StackLeniency: 0.7
Mode: 0
LetterboxInBreaks: 1

[Editor]
DistanceSpacing: 0.800000011920929
BeatDivisor: 6
GridSize: 8

[Metadata]
Title:Inside of A Wilderness
Artist:KOTOKO
Creator:Mystearica
Version:Hard
Source:
Tags:J-Pop MegaManEXE Megaboy

[Difficulty]
HPDrainRate:8
CircleSize:5
OverallDifficulty:6
SliderMultiplier:1.8
SliderTickRate:0.5

[Events]
//Background and Video events
0,0,"bg.jpg"
//Break Periods
2,82161,82476
//Storyboard Layer 0 (Background)
//Storyboard Layer 1 (Fail)
//Storyboard Layer 2 (Pass)
//Storyboard Layer 3 (Foreground)
//Storyboard Sound Samples
//Background Colour Transformations
3,100,0,0,0

[TimingPoints]
17266,521.739130434783,4,1,1,80,1,0
20396,-100,4,2,1,100,0,0
21570,-100,4,1,1,80,0,0
22483,-100,4,1,1,60,0,0
22874,-100,4,1,1,64,0,0
23135,-100,4,1,1,70,0,0
23396,-100,4,1,1,75,0,0
23657,-100,4,1,1,80,0,0
24309,-100,4,1,1,90,0,0
25222,-100,4,1,1,100,0,0
28744,-100,4,2,1,100,0,0
29918,-100,4,1,1,100,0,0
31744,-100,4,2,1,0,0,0
32918,-100,4,1,1,80,0,0
115222,-100,4,1,1,50,0,0
115483,-100,4,2,1,80,0,0
117309,-100,4,1,1,100,0,0
120692,-100,4,2,1,100,0,0
121613,-100,4,2,1,80,0,0
121744,-100,4,1,1,60,0,0
123439,-100,4,1,1,50,0,0
124092,-100,4,1,1,40,0,0
124613,-100,4,1,1,30,0,0
125135,-100,4,1,1,20,0,0
125787,-100,4,1,1,30,0,0

[Colours]
Combo1 : 241,133,190
Combo2 : 255,255,255
Combo3 : 95,151,245
Combo4 : 155,240,238

[HitObjects]
62,238,17266,5,4
163,339,17787,1,0
112,288,18048,1,0
256,288,18570,5,0
256,216,18831,1,0
256,216,18961,2,0,B|231:168|284:135|256:84,1,135
310,179,19744,1,0
202,179,20135,1,0
256,336,20657,6,0,B|256:384,6,45,2|0|2|0|2|0|14
424,256,21831,5,0
392,256,21961,2,0,B|296:256,1,90
160,256,22744,1,0
232,256,23005,1,0
196,193,23266,1,0
123,193,23526,5,0
256,32,24048,1,0
389,193,24570,1,0
256,352,25092,1,0
256,352,25352,1,0
256,352,25483,1,0
256,352,25613,1,4
32,312,26135,5,0
82,261,26396,1,0
183,159,26918,1,0
132,209,27179,1,0
312,192,27700,5,0
424,120,28092,1,0
424,256,28483,1,0
256,80,29005,6,0,B|256:32,6,45,2|0|2|0|2|0|14
120,120,30309,5,0
120,192,30570,1,0
176,328,31092,1,0
176,328,31352,2,0,B|142:269|221:216|175:154,1,180
256,192,33179,12,4,33961
472,232,34352,5,0
392,144,34744,1,0
256,48,35266,1,0
272,128,35526,1,0
256,208,35787,1,0
272,288,36048,1,0
168,344,36439,1,0
88,256,36831,1,0
149,71,37352,5,0
221,71,37613,1,0
293,71,37874,1,0
365,71,38135,1,0
255,194,38526,5,0
215,306,38918,2,0,B|215:210,1,90
296,216,39439,2,0,B|296:312,1,90
255,234,39961,1,0
207,170,40222,1,0
255,58,40613,1,0
303,170,41005,1,0
97,196,41526,5,0
144,112,41787,1,0
84,216,42048,1,0
155,91,42309,1,0
256,40,42700,5,0
368,40,43092,1,0
392,184,43613,1,0
454,219,43874,1,0
418,282,44135,1,0
356,246,44396,1,0
256,288,44787,5,0
160,248,45179,1,0
256,136,45700,2,0,B|256:232,1,90
256,226,46222,1,0
256,226,46483,1,0
312,136,46874,1,0
200,136,47266,1,0
48,56,47787,5,0
16,120,48048,1,0
48,184,48309,1,0
16,248,48570,1,0
96,320,48961,5,0
128,216,49352,1,0
256,280,49874,1,0
256,280,50135,2,0,B|344:340|430:276,1,180
480,240,50918,6,0,B|408:168,1,90
488,160,51439,2,0,B|416:88,1,90
352,96,51961,1,0
280,96,52222,2,0,B|208:24,1,90
216,32,52744,1,0
152,160,53266,1,0
216,192,53526,1,0
360,160,54048,1,0
296,192,54309,1,0
256,248,54570,5,0
256,280,54700,1,0
256,312,54831,1,4
88,272,55092,6,0,B|40:188,1,90
43,194,55613,2,0,B|134:194,1,90
133,194,56135,2,0,B|87:272,1,90
128,336,56657,1,0
168,280,56918,1,0
208,336,57179,1,0
280,336,57439,5,0
312,344,57570,1,0
344,336,57700,1,0
416,336,57961,1,0
488,336,58222,1,0
496,304,58352,1,0
488,272,58483,1,0
480,240,58613,1,0
488,208,58744,1,0
496,176,58874,1,0
488,144,59005,1,4
352,56,59266,6,0,B|373:99|351:146,1,90
280,232,59787,2,0,B|259:189|281:142,1,90
200,56,60309,2,0,B|221:99|199:146,1,90
128,232,60831,2,0,B|107:189|129:142,1,90
56,56,61352,1,0
56,56,61483,1,0
56,56,61613,2,0,B|-3:137|57:225,1,180
128,304,62396,5,0
192,336,62657,1,0
256,304,62918,2,0,B|299:281|346:306,1,90,0|4
480,264,63700,1,0
436,211,63961,1,0
346,94,64483,1,0
390,147,64744,1,0
360,208,65005,5,0
328,208,65135,1,0
296,208,65266,2,0,B|204:208,1,90
200,136,65787,1,0
168,136,65918,2,0,B|72:136,1,90
48,136,66309,1,0
48,64,66570,2,0,B|48:32,3,30
112,64,67092,1,0
144,64,67222,1,0
176,64,67352,1,4
248,64,67613,6,0,B|320:136,1,90
360,176,68135,2,0,B|288:248,1,90
240,280,68657,2,0,B|168:208,1,90
256,192,69179,5,0
256,192,69309,1,0
256,192,69439,2,0,B|184:120,1,90
144,176,69961,2,0,B|72:248,1,90
128,288,70483,2,0,B|200:360,1,90
216,352,70874,2,0,B|248:352,2,30,0|0|4
288,352,71265,1,0
448,280,71526,6,0,B|457:168|352:143,1,180
288,128,72309,1,0
304,200,72570,2,0,B|232:272,1,90
216,288,72961,1,0
184,264,73092,2,0,B|112:192,1,90,0|2
112,192,73439,5,2
104,184,73526,1,2
96,176,73613,2,0,B|133:89|233:65,1,180,2|2
304,64,74396,1,2
320,64,74483,1,2
336,64,74570,1,2
352,64,74657,1,2
320,192,74918,5,0
200,192,75179,1,0
432,336,75439,5,0
400,320,75570,1,0
391,285,75700,2,0,B|463:207|421:114,1,180,4|0
280,64,76483,5,0
312,80,76613,1,0
321,115,76744,2,0,B|249:193|291:286,1,180,0|0
144,336,77526,5,0
176,320,77657,1,0
185,285,77787,2,0,B|113:207|155:114,1,180,0|0
184,56,78570,1,0
216,120,78831,2,0,B|255:207|183:285,1,180,0|0
256,96,79874,5,0
347,162,80135,1,0
312,269,80396,1,0
199,269,80657,1,0
164,162,80918,1,0
256,192,81439,5,0
256,208,81526,1,0
256,224,81613,1,0
256,240,81700,1,0
256,256,81787,1,0
256,272,81874,1,0
256,288,81961,1,4
152,32,83526,6,0,B|152:128,1,90
88,160,84048,1,4
152,248,84439,1,0
216,160,84831,1,4
408,48,85352,5,0
336,48,85613,1,0
376,112,85874,1,0
304,112,86135,1,4
144,112,86526,1,0
224,248,86918,1,4
72,328,87439,5,0
144,352,87700,1,0
216,328,87961,1,0
288,352,88222,1,4
424,272,88613,1,0
288,192,89005,1,4
56,192,89526,5,0
128,176,89787,1,0
176,120,90048,2,0,B|194:76|245:65,1,90,0|4
352,64,90700,1,0
432,136,91092,1,4
480,192,91352,1,0
432,248,91613,1,0
480,304,91874,1,0
448,320,92005,1,0
416,336,92135,1,0
384,352,92265,1,0
352,368,92396,1,4
128,256,92918,6,0,B|224:256,1,90
384,256,93439,2,0,B|288:256,1,90
256,96,93961,1,0
256,336,94483,5,0
224,272,94744,2,0,B|184:184,1,90
256,192,95265,2,0,B|296:104,1,90
256,48,95787,1,0
256,48,95918,1,0
256,48,96048,1,0
333,114,96309,5,0
333,114,96570,2,0,B|293:170|221:170|179:111,1,180
320,208,97613,6,0,B|248:280,1,90
192,208,98135,2,0,B|264:280,1,90
256,360,98657,2,0,B|256:176,1,180
88,72,99700,5,0
64,96,99831,1,0
48,128,99961,1,0
64,160,100092,1,0
88,184,100222,1,0
152,216,100483,1,0
168,248,100613,1,0
152,280,100744,5,0
256,192,101135,1,0
360,280,101526,1,0
480,120,102048,5,0
408,120,102309,1,0
408,120,102439,1,0
408,120,102570,1,0
336,120,102831,1,4
192,192,103222,1,0
48,120,103613,1,4
48,264,104135,5,0
72,288,104265,1,0
96,312,104396,1,0
144,264,104657,2,0,B|216:336,1,90
352,256,105309,1,0
496,176,105700,1,4
352,48,106222,5,0
280,48,106483,1,0
208,48,106744,1,0
208,80,106874,1,0
208,112,107005,1,4
48,112,107396,1,0
48,272,107787,1,0
232,192,108309,5,2
248,192,108396,1,2
264,192,108483,1,2
280,192,108570,1,2
352,192,108831,1,0
424,192,109092,2,0,B|427:301|326:326,1,180
256,328,109874,1,0
183,325,110135,6,0,B|85:301|88:192,1,180
88,48,111179,2,0,B|196:45|221:143,1,180
240,216,111961,1,0
296,264,112222,1,0
328,280,112352,1,0
360,264,112483,2,0,B|404:241|450:267,1,90
400,320,113005,5,0
400,320,113265,1,4
256,320,113787,1,0
112,320,114309,5,0
64,264,114570,1,0
112,208,114831,2,0,B|136:161|110:120,1,90
64,64,115352,1,4
256,32,115744,6,0,B|296:56,1,45,2|2
256,120,116135,2,0,B|216:144,1,45,2|2
256,208,116526,2,0,B|296:232,1,45,2|2
256,296,116918,1,2
256,328,117048,1,2
256,360,117179,1,2
120,328,117439,5,0
256,192,117831,1,0
392,328,118222,1,0
456,136,118744,5,0
456,64,119005,1,0
456,64,119135,1,0
256,32,119526,5,0
256,144,119918,1,0
256,144,120048,2,0,B|256:240,1,90
80,344,120831,5,2
64,312,120961,1,0
48,280,121092,1,2
32,248,121222,1,0
48,216,121352,1,2
64,184,121483,1,0
80,152,121613,1,14
184,56,122135,5,0
208,128,122396,2,0,B|211:214|300:182|316:269,1,180
328,336,123179,1,0
144,192,123700,5,0
184,120,123961,1,0
256,80,124222,1,0
328,120,124483,1,0
368,192,124744,1,0
328,264,125005,1,0
256,304,125265,1,0
184,264,125526,1,0
184,264,125657,1,0
184,264,125787,1,4
