osu file format v9

[General]
AudioFilename: Imaginary Affair.mp3
AudioLeadIn: 0
PreviewTime: 78326
Countdown: 0
SampleSet: Normal
StackLeniency: 0.4
Mode: 0
LetterboxInBreaks: 1

[Editor]
DistanceSpacing: 1.2
BeatDivisor: 4
GridSize: 8

[Metadata]
Title:Imaginary Affair
Artist:KOTOKO
Creator:kanpakyin
Version:Normal
Source:Konata Yori Kanata Made
Tags:I've Sound & FC01

[Difficulty]
HPDrainRate:4
CircleSize:4
OverallDifficulty:3
ApproachRate:3
SliderMultiplier:1.4
SliderTickRate:1

[Events]
//Background and Video events
Video,0,"video.avi"
0,0,"BG.jpg"
//Break Periods
//Storyboard Layer 0 (Background)
//Storyboard Layer 1 (Fail)
//Storyboard Layer 2 (Pass)
//Storyboard Layer 3 (Foreground)
//Storyboard Sound Samples
//Background Colour Transformations
3,100,163,162,255

[TimingPoints]
3144,722.89156626506,4,2,1,40,1,0
14529,-100,4,2,2,60,0,0
14890,-100,4,2,1,50,0,0
15975,-100,4,1,1,50,0,0
16336,-100,4,2,1,50,0,0
19047,-100,4,1,1,50,0,0
19228,-100,4,2,1,50,0,0
21758,-100,4,1,1,50,0,0
22119,-100,4,2,1,50,0,0
24650,-100,4,2,2,50,0,0
25011,-100,4,2,1,50,0,0
27541,-100,4,1,1,50,0,0
27903,-100,4,2,1,50,0,0
30433,-100,4,1,1,50,0,0
30794,-100,4,2,1,50,0,0
31879,-100,4,1,1,50,0,0
32240,-100,4,2,1,50,0,0
33505,-100,4,1,1,50,0,0
33686,-100,4,2,1,50,0,0
34047,-100,4,1,1,50,0,0
34409,-100,4,2,1,50,0,0
34771,-100,4,2,2,50,0,0
35132,-100,4,2,1,50,0,0
39107,-100,4,1,1,50,0,0
39469,-100,4,2,1,50,0,0
40553,-100,4,2,2,30,0,0
40915,-100,4,2,1,50,0,0
41999,-100,4,1,1,50,0,0
42722,-100,4,2,1,50,0,0
44890,-100,4,1,1,50,0,0
45252,-100,4,2,1,50,0,0
46336,-100,4,1,1,50,0,0
46698,-100,4,2,1,50,0,0
47059,-100,4,1,1,50,0,0
47421,-100,4,2,1,50,0,0
47782,-100,4,1,1,50,0,0
48866,-100,4,2,1,50,0,0
51758,-100,4,1,1,35,0,0
52119,-100,4,1,1,40,0,0
52481,-100,4,2,1,50,0,0
53565,-100,4,1,1,50,0,0
53927,-100,4,2,1,50,0,0
55011,-100,4,2,2,30,0,0
55372,-100,4,2,1,50,0,0
56457,-100,4,1,1,50,0,0
56818,-100,4,2,1,50,0,0
57903,-100,4,2,2,50,0,0
58264,-100,4,2,1,50,0,0
60794,-100,4,2,2,50,0,0
61156,-100,4,2,1,50,0,0
62240,-100,4,1,1,50,0,0
62601,-100,4,2,1,50,0,0
65131,-100,4,1,1,50,0,0
66575,-100,4,2,2,50,0,0
66937,-100,4,2,1,50,0,0
68023,-100,4,1,1,50,0,0
68384,-100,4,2,1,50,0,0
70915,-100,4,1,1,50,0,0
71637,-100,4,2,1,50,0,0
73806,-100,4,1,1,50,0,0
74529,-100,4,2,1,50,0,0
78324,-100,4,2,1,55,0,1
79589,-100,4,1,1,55,0,1
79951,-100,4,2,1,55,0,1
82481,-100,4,1,1,55,0,1
83204,-100,4,2,1,55,0,1
85372,-100,4,1,1,55,0,1
85734,-100,4,2,1,55,0,1
86818,-100,4,2,2,55,0,1
87180,-100,4,2,1,55,0,1
88264,-100,4,1,1,55,0,1
88987,-100,4,2,1,55,0,1
89710,-100,4,2,2,55,0,1
90071,-100,4,2,1,55,0,1
91156,-100,4,1,1,55,0,1
91517,-100,4,2,1,55,0,1
91878,-100,4,1,1,55,0,1
92240,-100,4,1,1,40,0,1
92601,-100,4,2,2,55,0,1
92963,-100,4,2,1,55,0,1
96939,-100,4,1,1,55,0,1
97300,-100,4,2,1,55,0,1
99107,-100,4,1,1,55,0,1
100192,-100,4,2,1,55,0,1
101457,-100,4,2,1,50,0,0
104168,-100,4,2,2,50,0,0
104529,-100,4,2,1,50,0,0
105613,-100,4,1,1,50,0,0
106336,-100,4,2,1,50,0,0
108505,-100,4,1,1,50,0,0
108866,-100,4,2,1,50,0,0
111397,-100,4,1,1,50,0,0
112119,-100,4,2,1,50,0,0
114288,-100,4,1,1,50,0,0
115011,-100,4,2,1,50,0,0
118625,-100,4,1,1,50,0,0
118987,-100,4,2,1,50,0,0
121878,-100,4,1,1,50,0,0
122240,-100,4,2,1,50,0,0
122601,-100,4,1,1,50,0,0
123324,-100,4,2,1,50,0,0
123880,800,4,1,1,40,1,0
126380,857.142857142857,4,2,1,5,1,0
128169,967.741935483871,4,2,1,10,1,0

[Colours]
Combo1 : 244,147,136
Combo2 : 210,132,244
SliderBorder : 255,255,255

[HitObjects]
155,200,3143,2,0,B|65:194,2,70.000000298023,4|0|0
232,166,4228,1,2
281,98,4589,2,0,B|319:85|345:71|345:71|371:88|419:99,2,140.000000596046,2|2|4
315,174,6397,1,2
303,257,6758,1,2
228,296,7119,2,0,B|173:297|173:297|154:306|154:306|72:306,2,140.000000596046,2|2|2
311,308,8927,5,0
393,293,9288,2,0,B|421:339,2,35.0000001490115,0|0|2
433,219,10011,1,0
433,219,10372,2,0,B|381:193|381:193|335:209|284:189,1,140.000000596046,2|4
131,188,11818,1,2
256,192,11999,12,4,13264
313,137,14710,6,0,B|382:130|380:166|460:163,2,140.000000596046,4|8|0
240,184,16517,1,2
240,184,16878,2,0,B|199:192|161:219,1,70.000000298023,8|2
109,157,17601,2,0,B|88:188|39:212,2,70.000000298023,4|2|8
180,112,18686,2,0,B|195:63,2,35.0000001490115
194,194,19409,2,0,B|198:236|282:272|336:247,1,140.000000596046,2|0
331,174,20493,5,4
389,234,20854,1,2
416,154,21216,2,0,B|497:144,2,70.000000298023,8|2|0
354,96,22300,2,0,B|278:78,1,70.000000298023,2|8
225,138,23023,2,0,B|139:159,1,70.000000298023,2|4
93,209,23746,2,0,B|53:191,2,35.0000001490115,2|0|8
129,284,24469,1,2
129,284,24830,2,0,B|167:285|195:259|195:259|236:286|273:267,1,140.000000596046,4|8
333,232,25915,1,2
376,160,26276,6,0,B|405:127|398:77,1,70.000000298023,4|0
316,107,26999,2,0,B|285:63|241:55,1,70.000000298023,8|2
220,134,27722,2,0,B|192:111|108:112|74:141,2,140.000000596046,0|8|4
223,218,29529,1,0
223,302,29890,2,0,B|251:325|335:324|369:295,1,140.000000596046,8|0
256,192,30794,12,0,32059
198,191,32421,6,0,B|154:178,2,35.0000001490115,0|2|8
188,107,33143,2,0,B|166:77,2,35,0|2|0
269,129,33866,1,0
352,124,34228,1,0
427,86,34589,2,0,B|451:130|420:178,1,70,0|4
256,192,35312,12,4,37842
256,191,38204,5,2
256,191,38565,2,0,B|172:192|195:221|104:221,2,140.000000596046,8|0|8
256,275,40372,1,2
256,275,40734,2,0,B|324:270|324:270|396:275,2,140.000000596046,4|8|0
190,327,42541,1,0
119,281,42903,6,0,B|48:280|48:326|-19:328,2,140.000000596046,8|4|8
191,238,44710,1,2
165,157,45071,2,0,B|316:156,1,140.000000596046,0|8
305,71,46156,1,2
376,114,46517,5,0
377,198,46878,1,2
307,238,47240,1,0
377,283,47601,1,2
303,322,47963,2,0,B|151:322,1,140.000000596046,0|0
177,239,49047,2,0,B|96:239,1,70.000000298023,2|4
84,157,49770,6,0,B|33:156,2,35,0|0|2
152,108,50493,2,0,B|208:108|208:108|240:94|240:94|295:94,1,140,2|2
286,177,51577,2,0,B|333:201|344:235,1,70.000000298023,8|0
261,256,52300,2,0,B|277:302|265:339,1,70.000000298023,0|2
187,303,53023,2,0,B|151:343|109:345,1,70.000000298023,8|2
111,259,53746,2,0,B|79:214|23:198|-26:207,2,140.000000596046,0|8|4
195,253,55553,6,0,B|188:220|155:194,1,70.000000298023,2|8
219,142,56276,2,0,B|191:114|139:107,1,70.000000298023,2|0
169,27,56999,2,0,B|122:27|79:55,2,70.000000298023,2|8|2
246,59,58083,2,0,B|395:58,2,140.000000596046,4|8|4
271,139,59890,1,2
188,121,60252,6,0,B|98:121,2,70.000000298023,8|2|4
211,201,61336,1,2
211,201,61698,2,0,B|251:237|251:310|198:339,2,140.000000596046,8|0|8
126,202,63505,1,2
42,203,63866,6,0,B|2:167|2:94|55:65,2,140.000000596046,4|8|0
99,140,65674,1,0
179,117,66035,2,0,B|211:98|266:106,1,70.000000298023
228,186,66758,6,0,B|190:199|171:226,1,70.000000298023,4|2
248,258,67481,2,0,B|283:277|300:319,1,70.000000298023,8|0
214,333,68204,2,0,B|372:332,2,140.000000596046,0|8|4
145,284,70011,6,0,B|116:252,1,35.0000001490115,2|0
72,189,70553,2,0,B|92:150,1,35.0000001490115,2|0
157,110,71095,1,0
234,143,71457,1,0
311,109,71818,2,0,B|370:107|370:107|412:121|412:121|463:122,2,140.000000596046,8|4|8
234,143,73625,6,0,B|234:229,1,70.000000298023,2|0
150,219,74348,2,0,B|149:315,1,70.000000298023,0|8
66,305,75071,2,0,B|33:337,2,35.0000001490115,2|2|4
256,192,75613,12,4,78324
255,192,78686,5,2
255,192,79047,2,0,B|174:192|191:170|92:172,2,140.000000596046,8|0|8
339,192,80854,2,0,B|431:192,2,70.000000298023,2|4|2
315,273,81939,6,0,B|243:271|256:300|172:301,1,140.000000596046,8|0
176,216,83023,1,0
176,216,83384,1,8
176,216,83746,2,0,B|118:212|84:187,1,70.000000298023,2|4
109,116,84469,6,0,B|64:113|28:129,2,70.000000298023,2|8|0
189,141,85553,2,0,B|246:141|246:141|284:154|284:154|345:155,1,140.000000596046,0|8
302,235,86637,1,2
384,214,86999,5,4
302,235,87360,2,0,B|250:251|250:251|209:221|151:225,1,140.000000596046,2|0
163,308,88445,2,0,B|101:306|78:332,2,70.000000298023,0|0|8
161,139,89890,6,0,B|120:154|96:173|96:173|73:150|14:141,2,140.000000596046,4|8|0
240,166,91698,1,2
323,158,92059,2,0,B|365:170|417:151,2,70.000000298023,0|0|4
292,236,93144,2,0,B|257:262|215:271,1,70.000000298023,2|0
204,186,93866,2,0,B|134:215|49:178,2,140.000000596046,2|2|2
236,108,95674,6,0,B|239:55,3,35.0000001490115,4|2|0|2
321,79,96577,2,0,B|336:38,1,35.0000001490115,2|2
400,96,97119,2,0,B|411:173|439:197|439:197|418:224|423:317,1,210.000000894069,0|2
340,274,98565,6,0,B|312:315|279:326,1,70.000000298023,4|2
247,248,99288,2,0,B|97:248,1,140.000000596046,0|0
107,332,100372,1,2
37,284,100734,1,4
37,200,101095,1,2
110,158,101457,1,4
256,192,101637,12,4,103625
173,260,104348,6,0,B|120:251|120:251|79:281|10:261,2,140.000000596046,4|8|0
243,306,106156,1,0
326,315,106517,1,8
404,284,106878,2,0,B|438:245|437:207,1,70.000000298023,2|4
338,85,107963,5,8
304,161,108324,1,0
325,242,108686,2,0,B|349:287|391:305,1,70.000000298023,0|2
406,218,109409,1,8
368,143,109770,1,0
293,104,110131,5,4
210,118,110493,2,0,B|167:124|128:148,1,70.000000298023,2|8
196,204,111216,1,2
253,265,111577,1,0
287,188,111939,1,0
366,215,112300,2,0,B|414:226|448:218,1,70.000000298023,8|0
401,143,113023,6,0,B|456:157|513:123|513:60,2,140.000000596046,4|8|0
322,112,114830,1,0
248,70,115192,2,0,B|237:110|198:127,1,70.000000298023,8|2
122,133,115915,2,0,B|117:177|106:210,1,70.000000298023,4|2
177,249,116637,2,0,B|183:310|192:341,1,70.000000298023,8|2
256,192,117360,12,0,118806
149,190,119168,6,0,B|105:197,2,35.0000001490115,2|0|2
206,128,119890,2,0,B|179:90,2,35.0000001490115,0|2|0
273,77,120613,2,0,B|272:28,2,35.0000001490115,2|0|2
351,106,121336,2,0,B|356:204,1,70.000000298023,2|4
305,244,122059,1,0
359,307,122421,1,2
277,325,122782,2,0,B|180:324,1,70.000000298023
150,166,123880,5,0
256,192,124680,12,4,128169
