osu file format v9

[General]
AudioFilename: Imaginary Affair.mp3
AudioLeadIn: 0
PreviewTime: 78326
Countdown: 0
SampleSet: Soft
StackLeniency: 0.4
Mode: 0
LetterboxInBreaks: 1

[Editor]
DistanceSpacing: 1.1
BeatDivisor: 4
GridSize: 8

[Metadata]
Title:Imaginary Affair
Artist:KOTOKO
Creator:kanpakyin
Version:Hard
Source:Konata Yori Kanata Made
Tags:I've Sound & FC01

[Difficulty]
HPDrainRate:6
CircleSize:4
OverallDifficulty:7
ApproachRate:7
SliderMultiplier:1.60000000596046
SliderTickRate:1

[Events]
//Background and Video events
Video,0,"video.avi"
0,0,"BG.jpg"
//Break Periods
//Storyboard Layer 0 (Background)
//Storyboard Layer 1 (Fail)
//Storyboard Layer 2 (Pass)
//Storyboard Layer 3 (Foreground)
//Storyboard Sound Samples
//Background Colour Transformations
3,100,163,162,255

[TimingPoints]
3144,722.89156626506,4,2,1,35,1,0
13264,-100,4,2,1,10,0,0
14529,-100,4,2,2,60,0,0
14890,-100,4,2,1,50,0,0
15975,-100,4,1,1,50,0,0
16336,-100,4,1,1,40,0,0
16878,-100,4,2,1,50,0,0
17782,-100,4,1,1,30,0,0
18143,-100,4,2,1,50,0,0
19047,-100,4,1,1,50,0,0
19228,-100,4,2,1,50,0,0
19951,-100,4,1,1,40,0,0
20674,-100,4,2,1,50,0,0
21758,-100,4,1,1,50,0,0
22481,-100,4,2,1,50,0,0
24107,-100,4,1,1,40,0,0
24469,-100,4,2,1,50,0,0
24650,-100,4,1,1,50,0,0
25011,-100,4,2,1,50,0,0
27541,-100,4,1,1,50,0,0
27903,-100,4,2,1,50,0,0
28987,-100,4,2,2,50,0,0
29348,-100,4,2,1,50,0,0
30613,-200,4,2,1,50,0,0
31156,-200,4,2,2,5,0,0
31517,-200,4,2,1,50,0,0
32059,-100,4,1,1,50,0,0
32240,-100,4,2,1,50,0,0
34770,-100,4,1,1,50,0,0
35131,-100,4,2,1,50,0,0
35674,-100,4,1,1,50,0,0
36577,-100,4,2,1,50,0,0
37662,-100,4,1,1,50,0,0
38023,-100,4,2,1,50,0,0
39288,-100,4,1,1,50,0,0
39469,-100,4,2,1,50,0,0
42180,-100,4,1,1,50,0,0
42360,-100,4,2,1,50,0,0
44890,-100,4,1,1,50,0,0
45252,-100,4,2,1,50,0,0
46336,-100,4,1,1,50,0,0
46698,-100,4,2,1,50,0,0
47782,-100,4,1,1,50,0,0
48143,-100,4,2,1,50,0,0
49047,-100,4,1,1,50,0,0
49409,-100,4,2,1,50,0,0
50854,-100,4,1,1,50,0,0
51035,-100,4,2,1,50,0,0
51758,-100,4,1,1,40,0,0
52481,-100,4,2,1,50,0,0
53565,-100,4,1,1,50,0,0
54288,-100,4,2,1,50,0,0
55192,-100,4,2,2,50,0,0
55372,-100,4,2,1,50,0,0
56457,-100,4,1,1,50,0,0
57360,-100,4,2,1,50,0,0
58083,-100,4,1,1,50,0,0
58806,-100,4,2,1,50,0,0
60975,-100,4,1,1,50,0,0
61156,-100,4,2,1,50,0,0
62421,-100,4,1,1,50,0,0
62963,-100,4,2,1,50,0,0
65312,-100,4,1,1,50,0,0
65854,-100,4,2,1,50,0,0
68204,-100,4,1,1,50,0,0
68384,-100,4,2,1,50,0,0
69469,-100,4,2,2,50,0,0
69830,-100,4,2,2,50,0,0
70915,-100,4,1,1,50,0,0
71637,-100,4,2,1,50,0,0
75252,-100,4,1,1,50,0,0
75613,-100,4,2,1,50,0,0
76336,-100,4,1,1,50,0,0
77601,-100,4,2,1,50,0,0
78324,-100,4,2,2,55,0,1
78505,-100,4,2,1,55,0,1
81216,-100,4,1,1,55,0,1
81397,-100,4,2,1,55,0,1
82481,-100,4,1,1,55,0,1
83204,-100,4,2,1,55,0,1
85553,-100,4,1,1,55,0,1
86095,-100,4,2,1,55,0,1
88625,-100,4,1,1,55,0,1
88987,-100,4,2,1,55,0,1
89710,-100,4,1,1,55,0,1
90071,-100,4,2,1,55,0,1
91156,-100,4,1,1,55,0,1
91517,-100,4,2,1,55,0,1
92782,-100,4,2,2,55,0,1
92963,-100,4,2,1,55,0,1
93866,-100,4,1,1,55,0,1
94228,-100,4,2,1,55,0,1
96939,-100,4,1,1,55,0,1
97662,-100,4,2,1,55,0,1
98384,-100,4,2,2,55,0,1
98746,-100,4,2,1,55,0,1
99469,-100,4,1,1,55,0,1
101457,-100,4,2,1,50,0,0
102722,-100,4,1,1,50,0,0
103083,-100,4,2,1,50,0,0
105613,-100,4,1,1,50,0,0
105975,-100,4,2,1,50,0,0
107782,-100,4,1,1,50,0,0
108143,-100,4,2,1,50,0,0
108505,-100,4,1,1,50,0,0
108866,-100,4,1,1,60,0,0
109228,-100,4,1,1,70,0,0
109589,-100,4,1,1,80,0,0
109951,-100,4,2,1,50,0,0
111397,-100,4,1,1,50,0,0
111758,-100,4,2,1,50,0,0
114288,-100,4,1,1,50,0,0
115011,-100,4,2,1,50,0,0
116637,-100,4,1,1,50,0,0
116818,-100,4,2,1,50,0,0
117360,-200,4,2,1,50,0,0
117903,-200,4,1,1,5,0,0
118264,-200,4,1,1,5,0,0
118364,-200,4,2,1,50,0,0
118806,-100,4,1,1,50,0,0
118987,-100,4,2,1,50,0,0
121698,-100,4,1,1,50,0,0
123324,-100,4,2,1,50,0,0
123880,800,4,1,1,50,1,0
124480,-100,4,2,1,50,0,0
126380,857.142857142857,4,2,1,50,1,0
128169,967.741935483871,4,2,1,10,1,0

[Colours]
Combo1 : 244,147,136
Combo2 : 210,132,244
SliderBorder : 255,255,255

[HitObjects]
96,244,3143,1,0
96,244,3324,1,2
96,244,3505,2,0,B|112:272|189:272|207:238,1,120.000000447034,0|0
256,235,4228,2,0,B|299:224|355:237,2,80.000000298023,0|2|2
218,155,5312,2,0,B|163:148|139:130,1,80.000000298023,0|2
200,66,6035,6,0,B|152:57|129:11,2,80.000000298023,4|0|2
239,46,6939,2,0,B|294:43|347:51,1,80.000000298023,0|2
352,76,7481,1,0
352,236,7842,1,2
190,236,8204,1,2
184,76,8565,1,2
131,146,8927,6,0,B|47:160,1,80.000000298023,4|0
381,146,9650,2,0,B|465:160,1,80.000000298023,2|0
256,240,10372,2,0,B|256:144,1,80.000000298023,2|0
256,115,10915,2,0,B|256:80,2,20.0000000745057,2|2|2
256,35,11457,1,4
256,192,11818,12,0,13264
188,248,14710,6,0,B|143:253|116:275|116:275|89:242|25:252,2,160.000000596046,4|8|0
271,277,16517,1,0
271,277,16698,1,0
271,277,16878,2,0,B|370:316,1,80.000000298023,8|2
191,133,17601,6,0,B|112:104,2,80.000000298023,4|0|8
277,118,18686,1,2
304,111,18866,1,2
331,104,19047,2,0,B|416:85,1,80.000000298023,0|0
395,128,19589,2,0,B|516:100,1,120.000000447034,4|0
345,247,20493,6,0,B|292:238|275:213|275:213|253:239|191:245,1,160.000000596046,0|8
194,155,21577,1,2
194,155,21939,2,0,B|139:151|111:121,2,80.000000298023,0|0|8
195,66,23023,2,0,B|195:244,1,160.000000596046,2|2
196,246,23927,1,2
196,265,24107,1,0
196,285,24288,1,0
195,305,24469,2,0,B|184:348|136:369,2,80.000000298023,2|0|2
282,296,25553,6,0,B|300:335|414:335|431:293,2,160.000000596046,8|4|8
308,211,27360,1,2
332,126,27722,2,0,B|314:87|202:88|183:129,2,160.000000596046,0|8|4
419,131,29529,6,0,B|428:99|437:84,2,40.0000001490115,0|2|2
419,151,30071,1,0
419,170,30252,1,2
419,190,30433,1,2
419,210,30613,2,0,B|393:256|348:253|348:253|377:295|325:320,1,160.000000596046
251,316,32421,6,0,B|203:315,3,40.0000001490115,2|0|2|0
179,316,33143,2,0,B|108:312|68:303,1,80.000000298023,2|2
233,133,33866,5,2
266,161,34047,1,0
308,171,34228,1,2
350,159,34409,1,2
383,130,34589,2,0,B|386:186|399:222,1,80.000000298023
338,276,35312,1,8
338,276,35493,1,8
338,276,35674,2,0,B|361:335|389:361,1,80.000000298023
261,240,36397,2,0,B|202:238|149:188|154:121,1,160.000000596046,0|4
178,307,37842,6,0,B|144:274|86:267,2,80.000000298023,4|2|0
201,344,38746,1,2
267,287,39107,1,0
303,262,39288,2,0,B|369:240|402:243,1,80.000000298023,0|0
424,243,39830,1,2
463,261,40011,2,0,B|498:301|492:358,2,80.000000298023,8|2|4
395,204,41095,5,2
395,204,41276,2,0,B|357:155|291:134|242:141,1,160.000000596046
239,153,42180,1,0
219,158,42360,1,2
199,161,42541,1,2
179,155,42722,1,0
162,144,42903,2,0,B|119:122|81:122,2,80.000000298023,8|2|4
111,207,43987,5,2
115,226,44168,1,2
120,245,44348,2,0,B|139:328,2,80.000000298023,8|2|0
265,249,45433,1,2
260,229,45613,1,0
255,209,45794,2,0,B|235:128,2,80.000000298023,8|2|0
342,219,46878,1,2
169,221,47240,2,0,B|159:278|98:311|44:306,1,160.000000596046,8|0
5,302,48143,6,0,B|-22:271|-11:240,3,40.0000001490115,2|0|2|8
7,227,48866,1,2
24,186,49047,1,0
35,143,49228,1,0
27,99,49409,6,0,B|81:110|132:104,1,80.000000298023,4|0
149,116,49951,1,2
190,102,50131,2,0,B|242:92|248:80,1,40.0000001490115,8|2
359,99,50674,2,0,B|324:129|300:139,1,40.0000001490115,2|0
361,199,51216,1,2
361,199,51397,1,2
361,199,51577,2,0,B|275:246,1,80.000000298023,8|0
268,254,52119,1,0
244,269,52300,6,0,B|213:305|127:297|127:297|99:326,1,160.000000596046,4|8
96,295,53204,1,0
89,267,53384,2,0,B|2:268,1,80.000000298023,2|0
53,191,54107,2,0,B|104:181|128:136,1,80.000000298023,0|8
199,112,54830,5,2
199,112,55011,1,2
199,112,55192,2,0,B|28:112,2,160.000000596046,4|8|0
229,194,56999,1,0
229,194,57180,1,0
229,194,57360,1,8
290,130,57722,1,2
316,213,58083,5,0
336,212,58264,1,0
355,213,58445,1,0
375,212,58625,1,0
395,212,58806,2,0,B|434:206|460:183,4,40.0000001490115,8|2|2|0|4
257,290,60252,5,10
257,290,60433,2,0,B|192:279|156:297,1,80.000000298023,2|0
177,289,60975,2,0,B|133:304|72:281,2,80.000000298023,4|2|8
235,223,62059,1,2
248,207,62240,1,2
266,198,62421,2,0,B|298:174|346:172,1,80.000000298023
336,259,63143,6,4,B|334:211|334:211|346:146|346:146|345:90,1,160.000000596046,8|4
268,143,64228,2,0,B|223:106|173:101,1,80.000000298023,2|8
175,143,64770,2,0,B|123:151|92:174,1,80.000000298023,2|0
123,205,65312,2,0,B|98:237|93:273|112:312,1,80.000000298023,0|0
187,259,66035,6,0,B|185:311|256:368|327:366,2,160.000000596046,8|4|8
264,216,67842,1,2
264,216,68023,1,2
264,216,68204,2,0,B|307:194|358:193,1,80.000000298023,0|2
183,200,68927,2,0,B|198:160|239:140,1,80.000000298023,8|0
124,257,69650,6,0,B|93:212|102:163,1,80.000000298023,4|2
74,218,70192,2,0,B|51:160|58:115,1,80.000000298023,2|0
30,175,70734,2,0,B|8:112|8:73,2,80.000000298023,2|0|0
49,214,71637,1,2
65,254,71818,1,0
64,297,71999,1,2
56,340,72180,2,0,B|112:325|145:329,1,80.000000298023,2|4
165,359,72722,2,0,B|194:319,1,40.0000001490115,2|2
256,192,73264,12,0,75433
175,170,75794,5,8
127,244,76156,2,0,B|173:250|207:263,1,80.000000298023,8|0
230,297,76698,2,0,B|221:325,2,20.0000000745057
269,279,77059,1,0
312,274,77240,1,0
354,283,77421,2,0,B|390:300|419:297,2,40.0000001490115,0|8|8
373,152,78324,6,0,B|421:139|449:88,2,80.000000298023,4|2|8
361,64,79409,2,0,B|361:236,1,160.000000596046,2|2
272,217,80493,1,8
272,217,80674,2,0,B|279:273|272:306,1,80.000000298023,2|0
229,296,81216,2,0,B|205:336|153:344,1,80.000000298023,0|2
135,256,81939,2,0,B|86:265|46:232,2,80.000000298023,8|2|0
178,246,82842,1,0
212,218,83023,2,0,B|247:187|297:178,1,80.000000298023,0|2
150,169,83927,5,2
150,169,84107,2,0,B|160:130|156:85,1,80.000000298023,4|2
137,49,84650,1,2
221,235,85011,2,0,B|224:300|233:333,1,80.000000298023,2|0
272,305,85553,2,0,B|287:339|297:348,1,40.0000001490115
331,356,85915,1,0
373,364,86095,1,2
415,352,86276,6,0,B|464:329|521:333,1,80.000000298023,8|2
304,225,86999,2,0,B|262:227|226:217,1,80.000000298023,4|0
77,84,87722,2,0,B|120:80|168:61,1,80.000000298023,8|0
196,77,88264,2,0,B|270:68|329:75,1,120.000000447034,2|0
308,161,89168,5,8
308,161,89348,2,0,B|359:162|359:162|392:169|392:169|445:172,1,120.000000447034,2|0
326,237,90252,2,0,B|223:237,1,80.000000298023,2|10
224,321,90975,1,2
163,257,91336,1,0
136,340,91698,2,0,B|26:340,2,80.000000298023,0|8|2
179,333,92601,1,0
213,306,92782,6,0,B|250:255|246:184|197:143,1,160.000000596046,4|8
211,157,93686,2,0,B|178:115|128:107,2,80.000000298023,2|0|2
248,133,94589,2,0,B|290:160|341:164,1,80.000000298023,2|8
160,215,95312,5,2
160,215,95493,1,2
160,215,95674,2,0,B|90:235|62:235,1,80.000000298023,4|2
336,273,96397,2,0,B|401:301|423:305,1,80.000000298023,8|0
190,125,97119,2,0,B|135:84|134:62,1,80.000000298023
143,306,97842,2,0,B|94:358|75:361,2,80.000000298023,8|2|4
227,281,98927,5,2
227,281,99107,2,0,B|264:271|264:271|323:290|364:271,1,120.000000447034,2|0
365,266,99830,1,0
383,250,100011,1,0
390,227,100192,1,0
388,203,100372,1,0
380,180,100553,1,0
366,159,100734,1,0
346,145,100915,1,0
329,127,101095,1,0
324,103,101276,1,0
328,79,101457,6,0,B|275:126|232:126,1,80.000000298023,4|2
237,36,102180,2,0,B|193:55|174:80|174:80|148:54|101:41,1,160.000000596046,8|0
88,128,103264,1,2
88,128,103445,1,2
88,128,103625,2,0,B|87:244,1,80.000000298023,8|0
175,199,104348,6,0,B|175:368,2,160.000000596046,4|8|0
241,140,106156,2,0,B|281:110,1,40.0000001490115,2|2
352,153,106698,2,0,B|312:186,1,40.0000001490115,0|2
377,246,107240,5,4
290,230,107601,1,2
274,316,107963,1,0
359,337,108324,1,2
329,254,108686,5,0
371,99,109047,1,0
205,70,109409,1,0
173,223,109770,1,0
206,303,110131,5,4
256,231,110493,1,2
256,231,110674,1,2
256,231,110854,2,0,B|256:174|256:174|268:135|268:135|268:49,2,160.000000596046,8|0|8
341,209,112662,5,2
341,209,112842,1,0
341,209,113023,2,0,B|342:300,1,80.000000298023,4|2
180,119,113746,2,0,B|180:33,2,80.000000298023,8|2|0
133,194,114830,5,0
133,194,115011,1,0
133,194,115192,2,0,B|92:216|47:214,2,80.000000298023,8|2|4
184,265,116276,1,2
224,248,116457,1,2
253,214,116637,1,0
272,174,116818,1,2
278,130,116999,1,2
272,86,117180,1,2
249,48,117360,6,0,B|216:25|121:23|79:51,1,160.000000596046,4|0
49,119,119168,6,0,B|15:92,2,40.0000001490115,2|2|0
50,139,119710,1,2
50,158,119890,1,2
50,178,120071,1,0
51,197,120252,1,2
51,216,120433,2,0,B|16:246,1,40.0000001490115,2|0
64,243,120794,2,0,B|52:287,1,40.0000001490115,0|2
91,259,121156,2,0,B|106:299,2,40.0000001490115,2|0|2
133,246,121698,5,0
172,227,121878,1,0
215,222,122059,1,0
257,233,122240,1,0
296,253,122421,2,0,B|343:264|399:244,2,80.000000298023
255,81,123880,5,0
255,81,124080,1,0
255,81,124280,2,0,B|150:81,1,80.000000298023,0|4
256,192,124880,12,4,128169
