osu file format v9

[General]
AudioFilename: Imaginary Affair.mp3
AudioLeadIn: 0
PreviewTime: 78326
Countdown: 0
SampleSet: Soft
StackLeniency: 0.7
Mode: 0
LetterboxInBreaks: 1

[Editor]
DistanceSpacing: 0.8
BeatDivisor: 4
GridSize: 8

[Metadata]
Title:Imaginary Affair
Artist:KOTOKO
Creator:kanpakyin
Version:Easy
Source:Konata Yori Kanata Made
Tags:I've Sound & FC01

[Difficulty]
HPDrainRate:3
CircleSize:4
OverallDifficulty:2
ApproachRate:3
SliderMultiplier:1.2
SliderTickRate:1

[Events]
//Background and Video events
Video,0,"video.avi"
0,0,"BG.jpg"
//Break Periods
//Storyboard Layer 0 (Background)
//Storyboard Layer 1 (Fail)
//Storyboard Layer 2 (Pass)
//Storyboard Layer 3 (Foreground)
//Storyboard Sound Samples
//Background Colour Transformations
3,100,163,162,255

[TimingPoints]
3144,722.89156626506,4,2,1,35,1,0
7300,-100,4,1,1,5,0,0
7662,-100,4,2,1,35,0,0
8746,-100,4,1,1,5,0,0
9107,-100,4,2,1,35,0,0
14529,-100,4,2,2,60,0,0
14890,-100,4,2,1,50,0,0
34770,-100,4,1,1,50,0,0
35131,-100,4,2,1,50,0,0
50674,-100,4,1,1,50,0,0
51035,-100,4,2,1,50,0,0
57903,-100,4,1,1,50,0,0
58264,-100,4,2,1,50,0,0
60794,-100,4,2,0,50,0,0
61156,-100,4,2,1,50,0,0
65131,-100,4,1,1,50,0,0
65493,-100,4,2,1,50,0,0
72360,-100,4,1,1,50,0,0
72722,-100,4,2,1,50,0,0
75252,-100,4,2,2,50,0,0
75613,-100,4,2,1,50,0,0
76698,-100,4,1,1,40,0,0
77059,-100,4,2,1,50,0,0
77421,-100,4,1,1,50,0,0
77782,-100,4,2,1,50,0,0
78324,-100,4,2,1,55,0,1
88264,-100,4,1,1,55,0,1
88625,-100,4,2,1,55,0,1
89710,-100,4,2,2,55,0,1
90071,-100,4,2,1,55,0,1
95493,-100,4,2,2,55,0,1
95854,-100,4,2,1,55,0,1
98384,-100,4,1,1,55,0,1
100192,-100,4,2,1,55,0,1
100553,-100,4,1,1,55,0,1
101457,-100,4,2,2,50,0,0
101637,-100,4,2,1,50,0,0
111397,-100,4,2,2,50,0,0
111758,-100,4,2,1,50,0,0
118625,-100,4,2,2,50,0,0
118987,-100,4,2,1,50,0,0
121517,-100,4,1,1,50,0,0
122963,-100,4,2,1,50,0,0
123880,800,4,1,1,35,1,0
126380,857.142857142857,4,1,1,35,1,0
128169,967.741935483871,4,2,1,10,1,0

[Colours]
Combo1 : 244,147,136
Combo2 : 210,132,244
SliderBorder : 255,255,255

[HitObjects]
172,107,3143,2,0,B|29:107,2,120.000000596046,4|0|4
242,171,5312,1,0
338,171,6035,1,4
289,253,6758,2,0,B|165:246|179:305|47:296,2,240.000001192092,0|2|0
385,256,10372,2,0,B|454:256,2,60.000000298023,2|0|4
256,192,11818,12,4,13264
199,136,14710,6,0,B|163:133|144:113|144:113|122:127|78:125,2,120.000000596046,4|8|2
294,148,16878,2,0,B|315:120|376:103|427:110,2,120.000000596046,8|4|8
240,227,19047,1,2
209,317,19770,1,8
209,317,20493,6,0,B|151:308|152:328|69:314,2,120.000000596046,2|8|0
305,321,22662,2,0,B|327:349|332:376,2,60.000000298023,8|2|2
246,244,24107,5,8
307,170,24830,1,2
212,151,25553,2,0,B|170:137|170:137|138:156|80:141,2,120.000000596046,8|4|8
289,94,27722,2,0,B|320:152|402:158,1,120,2|8
349,242,29168,5,4
268,293,29890,2,0,B|234:303|212:328,2,60.000000298023,8|2|2
256,192,30794,12,4,32059
208,152,32782,6,0,B|160:131|134:134,2,60.000000298023,8|2|0
133,212,34228,2,0,B|93:195|56:193,2,60.000000298023,8|2|0
194,286,35674,2,0,B|285:274|328:282,1,120.000000596046,2|2
388,219,37119,1,8
344,133,37842,6,0,B|373:106|373:106|408:124|472:90,2,120.000000596046,4|8|2
248,139,40011,1,8
248,139,40734,2,0,B|206:158|206:225|255:241,1,120.000000596046,2|8
330,192,42180,6,0,B|459:192,2,120,2|8|2
279,273,44348,2,0,B|197:274,2,60,8|2|0
375,276,45794,2,0,B|427:278|462:325|454:369,1,120.000000596046,8|4
356,351,47240,2,0,B|216:349,1,120.000000596046,8|2
154,298,48686,6,0,B|111:306|88:328,2,60.000000298023,8|2|2
221,230,50131,2,0,B|191:202|131:190|87:200,1,120,8|0
97,150,51216,2,0,B|132:119|143:86,1,60,2|8
231,112,52300,2,0,B|291:126|374:104,1,120.000000596046,2|8
367,198,53746,6,0,B|421:180|490:186,2,120.000000596046,0|8|2
273,221,55915,1,8
179,242,56637,1,2
179,242,56999,1,2
179,242,57360,1,8
204,334,58083,5,0
298,315,58806,1,8
298,315,59529,2,0,B|267:182,1,120.000000596046,4|8
365,183,60975,5,4
299,113,61698,1,8
391,88,62421,1,2
391,88,62782,1,2
391,88,63143,2,0,B|510:87,2,120.000000596046,8|4|8
295,78,65312,2,0,B|205:100|156:93,1,120.000000596046,0|8
112,166,66758,5,4
200,202,67481,1,8
118,253,68204,1,2
204,295,68927,2,0,B|342:294,1,120.000000596046,8|4
392,226,70372,6,0,B|424:258|431:290,2,60.000000298023,8|2|0
326,156,71818,2,0,B|295:123|263:119,1,60.000000298023,8|2
256,165,72541,1,0
231,206,72903,2,0,B|189:193|155:199,1,60.000000298023,0|8
144,289,73987,2,0,B|85:266|20:289,2,120.000000596046,4|8|4
256,192,75613,12,0,76878
203,139,77601,6,0,B|149:131|127:120,1,60.000000298023,0|0
105,154,78324,2,0,B|53:139|42:113,2,60.000000298023,4|2|8
184,208,79770,1,2
194,303,80493,1,8
274,249,81216,6,0,B|325:249|325:249|355:259|355:259|410:259,1,120.000000596046,2|8
377,164,82662,2,0,B|515:164,2,120.000000596046,0|8|2
282,146,84830,1,8
188,165,85553,1,2
93,145,86276,2,0,B|87:200|72:226,2,60,8|2|4
161,212,87722,2,0,B|162:257|153:285,2,60,8|2|0
226,141,89168,5,10
226,141,89890,2,0,B|270:189|344:191,1,120.000000596046,4|8
344,94,91336,2,0,B|384:100|416:85,2,60.000000298023,2|2|8
297,178,92782,2,0,B|312:211|348:220|348:220|341:248|374:287,2,120.000000596046,4|8|2
219,120,94951,1,8
126,93,95674,5,4
48,149,96397,2,0,B|41:188|66:213|66:213|53:260|64:284,1,120.000000596046,8|2
148,299,97842,1,8
148,299,98565,2,0,B|169:264|218:245|273:249,1,120.000000596046,0|0
346,261,100011,2,0,B|383:282|393:322,2,60.000000298023,0|2|0
268,203,101457,6,0,B|314:198|336:130|304:90,1,120.000000596046,4|8
219,125,102903,1,2
219,125,103625,2,0,B|174:125|174:125|140:136|140:136|82:133,2,120,8|4|8
237,219,105794,2,0,B|287:207|287:207|336:223|376:213,2,120,2|8|4
165,283,107963,5,2
71,262,108686,1,2
29,175,109409,1,2
77,92,110131,6,0,B|128:125|217:109,1,120.000000596046,4|8
250,189,111577,2,0,B|306:160|391:176,2,120.000000596046,4|8|4
182,257,113746,2,0,B|135:260|110:273,2,60.000000298023,0|0|2
273,226,115192,1,8
365,250,115915,2,0,B|389:282|452:282|471:249,1,120.000000596046,4|4
256,192,117360,12,4,118806
190,175,119529,6,0,B|167:149|94:147|69:186,2,120.000000596046,8|2|8
241,256,121698,2,0,B|311:259|296:283|367:285,2,120.000000596046,0|0|2
171,190,123880,2,0,B|97:201,1,60.000000298023,4|0
256,192,124680,12,4,128169
