osu file format v14

[General]
AudioFilename: 02. INFINITE SKY1 Chorus ver..mp3
AudioLeadIn: 0
PreviewTime: 60554
Countdown: 0
SampleSet: Normal
StackLeniency: 0.7
Mode: 1
LetterboxInBreaks: 0
WidescreenStoryboard: 0

[Editor]
DistanceSpacing: 1.3
BeatDivisor: 4
GridSize: 4
TimelineZoom: 1.050002

[Metadata]
Title:INFINITE SKY
TitleUnicode:INFINITE SKY
Artist:KOTOKO
ArtistUnicode:KOTOKO
Creator:BlackHairEND
Version:Oni
Source:蒼の彼方のフォーリズム
Tags:sprite eroge visual novel second opening ao no kanata no four rhythm Beyond the sky into the firmament preference JUDYDANNY
BeatmapID:651280
BeatmapSetID:288823

[Difficulty]
HPDrainRate:5
CircleSize:5
OverallDifficulty:5
ApproachRate:5
SliderMultiplier:1.4
SliderTickRate:1

[Events]
//Background and Video events
0,0,"Tobisawa Misaki BG.jpg",0,0
//Break Periods
//Storyboard Layer 0 (Background)
//Storyboard Layer 1 (Fail)
//Storyboard Layer 2 (Pass)
//Storyboard Layer 3 (Foreground)
//Storyboard Sound Samples

[TimingPoints]
2528,315.789473684211,4,1,0,60,1,0
60633,-100,4,1,0,70,0,1
84791,-100,4,1,0,60,0,0

[HitObjects]
256,192,2528,5,0,0:0:0:0:
292,228,2685,1,0,0:0:0:0:
368,180,2843,1,0,0:0:0:0:
368,192,3001,1,0,0:0:0:0:
368,192,3159,1,2,0:0:0:0:
104,168,3475,1,2,0:0:0:0:
280,204,3791,1,2,0:0:0:0:
264,204,4106,1,0,0:0:0:0:
264,204,4264,1,2,0:0:0:0:
304,132,4580,1,2,0:0:0:0:
312,140,4738,1,2,0:0:0:0:
312,140,4896,1,0,0:0:0:0:
120,140,5054,1,2,0:0:0:0:
216,152,5212,1,0,0:0:0:0:
168,184,5370,1,0,0:0:0:0:
104,72,5528,1,2,0:0:0:0:
244,192,5843,1,2,0:0:0:0:
244,192,6001,1,0,0:0:0:0:
244,192,6159,1,0,0:0:0:0:
348,212,6317,1,2,0:0:0:0:
296,76,6633,1,2,0:0:0:0:
348,212,6791,1,0,0:0:0:0:
152,208,6949,1,2,0:0:0:0:
96,108,7106,1,0,0:0:0:0:
136,184,7422,1,2,0:0:0:0:
264,152,7580,1,0,0:0:0:0:
260,140,7738,1,2,0:0:0:0:
264,140,7896,1,0,0:0:0:0:
264,140,8054,1,0,0:0:0:0:
264,140,8212,1,2,0:0:0:0:
172,104,8527,1,2,0:0:0:0:
172,104,8843,1,2,0:0:0:0:
208,192,9159,1,0,0:0:0:0:
208,192,9317,1,2,0:0:0:0:
208,192,9633,1,0,0:0:0:0:
208,192,9791,1,2,0:0:0:0:
204,188,9948,1,2,0:0:0:0:
308,184,10106,1,0,0:0:0:0:
308,184,10580,1,2,0:0:0:0:
308,184,10738,1,2,0:0:0:0:
132,160,11370,1,0,0:0:0:0:
308,184,11844,1,2,0:0:0:0:
120,132,12001,1,2,0:0:0:0:
400,180,12633,1,0,0:0:0:0:
352,312,13106,1,2,0:0:0:0:
356,312,13263,1,2,0:0:0:0:
220,112,14212,1,6,0:0:0:0:
216,168,14370,1,4,0:0:0:0:
264,176,14528,1,6,0:0:0:0:
264,176,14685,1,4,0:0:0:0:
160,180,15001,1,6,0:0:0:0:
344,268,15317,1,0,0:0:0:0:
336,260,15475,1,2,0:0:0:0:
232,128,15633,1,2,0:0:0:0:
264,132,15791,1,0,0:0:0:0:
264,132,15949,1,0,0:0:0:0:
264,132,16106,1,2,0:0:0:0:
148,184,16264,1,2,0:0:0:0:
256,208,16580,1,0,0:0:0:0:
256,208,16738,1,2,0:0:0:0:
256,208,16896,1,2,0:0:0:0:
100,156,17054,1,0,0:0:0:0:
176,168,17212,1,0,0:0:0:0:
176,168,17370,1,2,0:0:0:0:
176,168,17528,1,2,0:0:0:0:
336,260,17843,1,0,0:0:0:0:
232,128,18001,1,2,0:0:0:0:
264,132,18159,1,2,0:0:0:0:
264,132,18317,1,0,0:0:0:0:
264,132,18474,1,0,0:0:0:0:
148,184,18632,1,2,0:0:0:0:
216,204,18790,1,2,0:0:0:0:
256,208,19106,1,0,0:0:0:0:
256,208,19264,1,2,0:0:0:0:
100,156,19422,1,2,0:0:0:0:
176,168,19580,1,0,0:0:0:0:
176,168,19738,1,0,0:0:0:0:
176,168,19896,1,2,0:0:0:0:
152,148,20054,1,2,0:0:0:0:
220,148,20212,1,0,0:0:0:0:
412,332,20528,1,2,0:0:0:0:
392,328,20685,1,0,0:0:0:0:
388,328,20843,1,2,0:0:0:0:
388,328,21001,1,0,0:0:0:0:
240,160,21159,1,2,0:0:0:0:
308,212,21317,1,2,0:0:0:0:
312,216,21475,1,0,0:0:0:0:
216,208,21791,1,0,0:0:0:0:
216,208,21949,1,2,0:0:0:0:
156,136,22106,1,0,0:0:0:0:
288,216,22264,1,2,0:0:0:0:
288,216,22422,1,2,0:0:0:0:
228,112,22580,1,2,0:0:0:0:
132,220,22738,1,0,0:0:0:0:
412,332,23054,1,2,0:0:0:0:
392,328,23211,1,0,0:0:0:0:
388,328,23369,1,2,0:0:0:0:
388,328,23527,1,0,0:0:0:0:
240,160,23685,1,2,0:0:0:0:
308,212,23843,1,2,0:0:0:0:
312,216,24001,1,0,0:0:0:0:
216,208,24317,1,0,0:0:0:0:
216,208,24475,1,2,0:0:0:0:
156,136,24632,1,0,0:0:0:0:
288,216,24790,1,2,0:0:0:0:
288,216,24948,1,2,0:0:0:0:
228,112,25106,1,2,0:0:0:0:
132,220,25264,1,0,0:0:0:0:
336,188,25580,1,2,0:0:0:0:
260,244,25738,1,0,0:0:0:0:
260,244,25896,1,0,0:0:0:0:
416,248,26212,1,2,0:0:0:0:
124,156,26370,1,2,0:0:0:0:
220,132,26449,1,2,0:0:0:0:
112,168,26528,1,0,0:0:0:0:
336,188,26843,1,2,0:0:0:0:
124,156,27001,1,2,0:0:0:0:
220,132,27080,1,2,0:0:0:0:
104,148,27159,1,0,0:0:0:0:
336,188,27475,1,2,0:0:0:0:
124,156,27633,1,2,0:0:0:0:
220,132,27712,1,2,0:0:0:0:
240,232,27791,1,0,0:0:0:0:
248,236,27948,1,0,0:0:0:0:
176,216,28106,1,2,0:0:0:0:
180,216,28264,1,2,0:0:0:0:
180,216,28422,1,0,0:0:0:0:
280,196,28580,1,0,0:0:0:0:
292,196,28738,1,2,0:0:0:0:
292,196,28896,1,2,0:0:0:0:
144,152,29054,1,0,0:0:0:0:
224,136,29212,1,0,0:0:0:0:
228,152,29291,1,0,0:0:0:0:
224,148,29370,1,2,0:0:0:0:
240,160,29528,1,0,0:0:0:0:
240,160,29685,1,2,0:0:0:0:
216,232,29843,1,0,0:0:0:0:
248,232,29922,1,0,0:0:0:0:
240,160,30001,1,2,0:0:0:0:
248,232,30080,1,2,0:0:0:0:
248,232,30159,1,0,0:0:0:0:
240,160,30317,1,2,0:0:0:0:
312,236,30633,1,0,0:0:0:0:
120,136,30791,1,2,0:0:0:0:
372,228,30949,1,0,0:0:0:0:
380,236,31028,1,0,0:0:0:0:
176,200,31106,1,0,0:0:0:0:
244,168,31264,1,2,0:0:0:0:
280,172,31580,1,0,0:0:0:0:
280,172,31738,1,2,0:0:0:0:
376,216,31817,1,2,0:0:0:0:
376,216,31896,1,0,0:0:0:0:
216,164,32054,1,0,0:0:0:0:
216,164,32212,1,2,0:0:0:0:
288,192,32528,1,0,0:0:0:0:
312,208,32606,1,0,0:0:0:0:
312,208,32685,1,0,0:0:0:0:
252,188,32843,1,2,0:0:0:0:
168,192,33159,1,0,0:0:0:0:
156,120,33317,1,2,0:0:0:0:
336,136,33396,1,2,0:0:0:0:
336,136,33475,1,2,0:0:0:0:
152,200,33633,1,0,0:0:0:0:
268,244,33791,1,2,0:0:0:0:
264,240,34106,1,0,0:0:0:0:
256,232,34264,1,2,0:0:0:0:
92,184,34422,1,0,0:0:0:0:
348,208,34580,1,2,0:0:0:0:
272,280,34659,1,2,0:0:0:0:
188,136,34738,1,0,0:0:0:0:
192,136,34896,1,0,0:0:0:0:
280,120,35054,1,2,0:0:0:0:
196,228,35370,1,2,0:0:0:0:
376,316,35528,1,0,0:0:0:0:
376,316,35606,1,0,0:0:0:0:
296,152,35685,1,0,0:0:0:0:
340,176,35843,1,2,0:0:0:0:
128,168,36159,1,0,0:0:0:0:
312,228,36317,1,2,0:0:0:0:
376,316,36475,1,2,0:0:0:0:
376,316,36554,1,2,0:0:0:0:
324,236,36633,1,0,0:0:0:0:
92,152,36791,1,2,0:0:0:0:
212,168,37106,1,0,0:0:0:0:
224,220,37264,1,2,0:0:0:0:
132,244,37343,1,2,0:0:0:0:
112,236,37422,1,0,0:0:0:0:
236,228,37580,1,2,0:0:0:0:
88,164,37738,1,0,0:0:0:0:
148,180,37896,1,6,0:0:0:0:
388,292,38212,1,0,0:0:0:0:
388,292,38528,1,2,0:0:0:0:
388,292,38843,1,0,0:0:0:0:
272,236,38922,1,0,0:0:0:0:
272,236,39001,1,0,0:0:0:0:
264,232,39159,1,2,0:0:0:0:
408,168,39317,1,0,0:0:0:0:
144,200,39475,1,2,0:0:0:0:
360,148,39633,1,2,0:0:0:0:
160,136,39791,1,0,0:0:0:0:
356,152,39949,1,2,0:0:0:0:
320,204,40028,1,2,0:0:0:0:
88,196,40106,1,0,0:0:0:0:
356,152,40264,1,2,0:0:0:0:
212,236,40422,1,0,0:0:0:0:
272,192,40738,1,6,0:0:0:0:
232,232,41054,1,0,0:0:0:0:
232,232,41212,1,2,0:0:0:0:
232,232,41370,1,0,0:0:0:0:
308,208,41449,1,0,0:0:0:0:
236,232,41528,1,2,0:0:0:0:
304,208,41843,1,0,0:0:0:0:
172,184,42001,1,2,0:0:0:0:
172,184,42159,1,0,0:0:0:0:
172,184,42238,1,0,0:0:0:0:
172,184,42317,1,2,0:0:0:0:
156,136,42475,1,0,0:0:0:0:
176,132,42791,1,6,0:0:0:0:
180,132,43106,1,2,0:0:0:0:
272,184,43264,1,0,0:0:0:0:
272,184,43422,1,2,0:0:0:0:
272,176,43580,1,0,0:0:0:0:
272,176,43659,1,0,0:0:0:0:
272,176,43738,1,2,0:0:0:0:
164,212,43896,1,0,0:0:0:0:
272,232,44054,1,0,0:0:0:0:
180,180,44212,1,2,0:0:0:0:
340,180,44528,1,0,0:0:0:0:
340,180,44843,1,2,0:0:0:0:
340,180,44922,1,2,0:0:0:0:
340,180,45001,1,0,0:0:0:0:
120,164,45159,1,2,0:0:0:0:
216,180,45317,1,0,0:0:0:0:
124,116,45475,1,2,0:0:0:0:
200,208,45791,1,6,0:0:0:0:
256,236,46106,1,2,0:0:0:0:
108,176,46264,1,0,0:0:0:0:
248,160,46422,1,0,0:0:0:0:
272,184,46501,1,0,0:0:0:0:
272,184,46580,1,2,0:0:0:0:
88,128,46896,1,2,0:0:0:0:
176,132,47054,1,0,0:0:0:0:
176,256,47212,1,0,0:0:0:0:
88,192,47291,1,0,0:0:0:0:
156,204,47370,1,2,0:0:0:0:
248,228,47528,1,0,0:0:0:0:
308,248,47685,1,2,0:0:0:0:
292,196,47843,1,0,0:0:0:0:
280,168,48159,1,2,0:0:0:0:
156,120,48317,1,0,0:0:0:0:
384,196,48475,1,2,0:0:0:0:
384,196,48791,1,0,0:0:0:0:
88,136,48870,1,0,0:0:0:0:
384,196,48949,1,2,0:0:0:0:
220,212,49106,1,0,0:0:0:0:
220,212,49264,1,2,0:0:0:0:
232,216,49580,1,2,0:0:0:0:
176,156,49896,1,2,0:0:0:0:
300,176,50054,1,0,0:0:0:0:
92,156,50212,1,0,0:0:0:0:
148,160,50291,1,0,0:0:0:0:
156,168,50370,1,0,0:0:0:0:
264,272,50528,1,0,0:0:0:0:
276,272,50685,1,0,0:0:0:0:
280,268,50843,1,2,0:0:0:0:
280,268,51001,1,2,0:0:0:0:
284,268,51159,1,0,0:0:0:0:
172,160,51317,1,0,0:0:0:0:
220,176,51475,1,2,0:0:0:0:
264,272,51791,1,2,0:0:0:0:
276,272,51948,1,2,0:0:0:0:
280,268,52106,1,0,0:0:0:0:
280,268,52264,1,0,0:0:0:0:
284,268,52422,1,2,0:0:0:0:
172,160,52580,1,2,0:0:0:0:
220,176,52738,1,2,0:0:0:0:
236,156,53054,1,0,0:0:0:0:
252,164,53212,1,0,0:0:0:0:
252,164,53370,1,2,0:0:0:0:
252,164,53528,1,2,0:0:0:0:
252,164,53685,1,0,0:0:0:0:
256,164,53843,1,2,0:0:0:0:
256,164,54001,1,2,0:0:0:0:
72,192,54317,1,2,0:0:0:0:
188,216,54396,1,2,0:0:0:0:
188,216,54475,1,0,0:0:0:0:
196,216,54632,1,0,0:0:0:0:
72,192,54791,1,2,0:0:0:0:
188,216,54870,1,2,0:0:0:0:
188,216,54949,1,0,0:0:0:0:
196,216,55106,1,0,0:0:0:0:
72,192,55264,1,2,0:0:0:0:
188,216,55343,1,2,0:0:0:0:
188,216,55422,1,0,0:0:0:0:
164,92,55501,1,0,0:0:0:0:
196,216,55580,1,2,0:0:0:0:
368,244,55896,1,0,0:0:0:0:
368,244,56054,1,2,0:0:0:0:
400,200,56370,1,0,0:0:0:0:
400,208,56528,1,2,0:0:0:0:
400,208,56843,1,0,0:0:0:0:
400,208,57001,1,2,0:0:0:0:
400,208,57317,1,0,0:0:0:0:
400,208,57475,1,2,0:0:0:0:
364,244,57633,1,0,0:0:0:0:
152,160,57791,1,2,0:0:0:0:
176,160,57870,1,2,0:0:0:0:
176,160,57949,1,0,0:0:0:0:
156,72,58106,1,2,0:0:0:0:
280,192,58264,1,0,0:0:0:0:
136,192,58343,1,0,0:0:0:0:
280,192,58422,1,0,0:0:0:0:
280,192,58580,1,2,0:0:0:0:
280,192,58738,1,0,0:0:0:0:
280,192,58896,1,0,0:0:0:0:
280,192,59054,1,2,0:0:0:0:
168,160,59212,1,0,0:0:0:0:
336,212,59370,1,2,0:0:0:0:
356,224,59528,1,0,0:0:0:0:
360,228,59606,1,0,0:0:0:0:
360,228,59685,1,2,0:0:0:0:
360,228,59843,1,0,0:0:0:0:
336,212,60001,1,2,0:0:0:0:
352,224,60080,1,2,0:0:0:0:
356,224,60159,1,0,0:0:0:0:
360,228,60316,1,2,0:0:0:0:
360,228,60395,1,2,0:0:0:0:
360,228,60474,1,2,0:0:0:0:
156,152,60633,1,4,0:0:0:0:
56,144,60949,1,2,0:0:0:0:
164,136,61106,1,0,0:0:0:0:
200,208,61264,1,2,0:0:0:0:
208,208,61343,1,2,0:0:0:0:
212,208,61422,1,0,0:0:0:0:
32,176,61580,1,2,0:0:0:0:
128,168,61738,1,0,0:0:0:0:
272,264,61896,1,0,0:0:0:0:
392,300,61975,1,0,0:0:0:0:
288,264,62054,1,0,0:0:0:0:
288,264,62212,1,2,0:0:0:0:
288,264,62370,1,2,0:0:0:0:
160,188,62449,1,2,0:0:0:0:
160,188,62528,1,0,0:0:0:0:
160,188,62606,1,2,0:0:0:0:
400,212,62685,1,0,0:0:0:0:
196,156,62843,1,2,0:0:0:0:
92,176,63001,1,2,0:0:0:0:
156,192,63159,1,0,0:0:0:0:
288,176,63317,1,0,0:0:0:0:
328,168,63396,1,0,0:0:0:0:
168,164,63475,1,0,0:0:0:0:
288,184,63633,1,2,0:0:0:0:
288,184,63791,1,2,0:0:0:0:
208,176,63949,1,2,0:0:0:0:
308,172,64028,1,2,0:0:0:0:
112,128,64106,1,2,0:0:0:0:
176,108,64264,1,0,0:0:0:0:
148,172,64422,1,0,0:0:0:0:
140,196,64501,1,0,0:0:0:0:
292,220,64580,1,0,0:0:0:0:
304,176,64738,1,2,0:0:0:0:
344,184,64896,1,0,0:0:0:0:
204,200,64975,1,0,0:0:0:0:
52,164,65054,1,0,0:0:0:0:
256,120,65212,1,0,0:0:0:0:
164,184,65291,1,0,0:0:0:0:
256,120,65370,1,2,0:0:0:0:
184,144,65685,1,0,0:0:0:0:
244,168,65843,1,0,0:0:0:0:
244,168,66001,1,2,0:0:0:0:
376,140,66080,1,2,0:0:0:0:
208,232,66159,1,2,0:0:0:0:
264,248,66317,1,2,0:0:0:0:
172,188,66475,1,0,0:0:0:0:
172,188,66633,1,2,0:0:0:0:
88,120,66791,1,2,0:0:0:0:
256,228,66949,1,0,0:0:0:0:
304,232,67106,1,0,0:0:0:0:
304,232,67264,1,2,0:0:0:0:
252,132,67343,1,2,0:0:0:0:
344,164,67422,1,2,0:0:0:0:
328,168,67580,1,0,0:0:0:0:
328,168,67738,1,0,0:0:0:0:
220,184,67896,1,2,0:0:0:0:
204,184,68212,1,2,0:0:0:0:
204,184,68528,1,2,0:0:0:0:
212,176,68685,1,0,0:0:0:0:
232,252,68843,1,2,0:0:0:0:
232,256,69001,1,0,0:0:0:0:
384,268,69080,1,0,0:0:0:0:
232,256,69159,1,2,0:0:0:0:
232,256,69317,1,0,0:0:0:0:
152,160,69475,1,0,0:0:0:0:
396,248,69554,1,0,0:0:0:0:
228,188,69633,1,0,0:0:0:0:
232,188,69791,1,2,0:0:0:0:
48,144,69949,1,0,0:0:0:0:
312,204,70106,1,0,0:0:0:0:
312,204,70264,1,0,0:0:0:0:
164,192,70343,1,0,0:0:0:0:
312,204,70422,1,2,0:0:0:0:
112,88,70501,1,2,0:0:0:0:
268,136,70580,1,0,0:0:0:0:
204,180,70738,1,6,0:0:0:0:
472,260,70896,1,0,0:0:0:0:
136,156,71054,1,2,0:0:0:0:
252,224,71212,1,0,0:0:0:0:
432,320,71291,1,0,0:0:0:0:
180,128,71370,1,2,0:0:0:0:
196,132,71528,1,0,0:0:0:0:
64,192,71685,1,2,0:0:0:0:
228,208,71843,1,0,0:0:0:0:
228,208,72001,1,2,0:0:0:0:
416,332,72080,1,2,0:0:0:0:
288,208,72159,1,0,0:0:0:0:
288,208,72317,1,2,0:0:0:0:
288,208,72475,1,0,0:0:0:0:
288,208,72791,1,0,0:0:0:0:
392,204,72948,1,2,0:0:0:0:
392,204,73106,1,0,0:0:0:0:
136,112,73264,1,2,0:0:0:0:
368,192,73343,1,2,0:0:0:0:
168,184,73422,1,2,0:0:0:0:
212,212,73580,1,2,0:0:0:0:
256,204,73738,1,0,0:0:0:0:
256,124,73817,1,0,0:0:0:0:
256,204,73896,1,2,0:0:0:0:
256,204,74054,1,0,0:0:0:0:
256,204,74212,1,2,0:0:0:0:
200,172,74370,1,0,0:0:0:0:
224,180,74528,1,2,0:0:0:0:
236,188,74685,1,0,0:0:0:0:
176,168,74764,1,0,0:0:0:0:
240,192,74843,1,2,0:0:0:0:
80,160,75001,1,2,0:0:0:0:
296,196,75317,1,0,0:0:0:0:
296,196,75475,1,2,0:0:0:0:
296,196,75633,1,0,0:0:0:0:
292,192,75791,1,6,0:0:0:0:
176,160,76264,1,6,0:0:0:0:
176,160,76738,1,6,0:0:0:0:
360,212,77370,1,2,0:0:0:0:
76,180,77527,1,2,0:0:0:0:
304,176,77606,1,2,0:0:0:0:
188,192,77685,1,0,0:0:0:0:
200,236,77843,1,2,0:0:0:0:
200,144,78317,1,4,0:0:0:0:
264,144,78791,1,4,0:0:0:0:
264,144,79264,1,6,0:0:0:0:
360,212,79896,1,0,0:0:0:0:
360,212,80055,1,0,0:0:0:0:
76,180,80134,1,0,0:0:0:0:
188,192,80212,1,2,0:0:0:0:
304,176,80370,1,0,0:0:0:0:
240,144,80843,1,4,0:0:0:0:
240,144,81317,1,6,0:0:0:0:
240,144,81791,1,6,0:0:0:0:
240,144,82264,1,6,0:0:0:0:
240,144,82738,1,4,0:0:0:0:
200,120,83054,1,6,0:0:0:0:
240,144,83370,1,4,0:0:0:0:
204,224,83528,1,0,0:0:0:0:
204,224,83606,1,0,0:0:0:0:
208,224,83685,1,0,0:0:0:0:
220,224,83764,1,0,0:0:0:0:
220,224,83843,1,2,0:0:0:0:
72,160,84001,1,0,0:0:0:0:
312,200,84080,1,0,0:0:0:0:
136,176,84159,1,2,0:0:0:0:
148,176,84238,1,2,0:0:0:0:
148,176,84317,1,0,0:0:0:0:
148,176,84475,1,2,0:0:0:0:
148,176,84633,1,4,0:0:0:0:
112,124,84791,1,4,0:0:0:0:
256,192,85896,1,0,0:0:0:0:
292,228,86053,1,0,0:0:0:0:
368,180,86211,1,0,0:0:0:0:
368,192,86369,1,0,0:0:0:0:
368,192,86527,1,2,0:0:0:0:
104,168,86843,1,2,0:0:0:0:
280,204,87159,1,2,0:0:0:0:
264,204,87474,1,0,0:0:0:0:
264,204,87632,1,2,0:0:0:0:
304,132,87948,1,2,0:0:0:0:
312,140,88106,1,2,0:0:0:0:
312,140,88264,1,0,0:0:0:0:
120,140,88422,1,2,0:0:0:0:
216,152,88580,1,0,0:0:0:0:
168,184,88738,1,0,0:0:0:0:
104,72,88896,1,2,0:0:0:0:
244,192,89211,1,2,0:0:0:0:
244,192,89369,1,0,0:0:0:0:
244,192,89527,1,0,0:0:0:0:
348,212,89685,1,2,0:0:0:0:
348,212,90001,1,2,0:0:0:0:
348,212,90159,1,0,0:0:0:0:
92,168,90317,1,2,0:0:0:0:
96,108,90474,1,0,0:0:0:0:
160,188,90790,1,2,0:0:0:0:
264,152,90949,1,0,0:0:0:0:
260,140,91106,1,2,0:0:0:0:
264,140,91264,1,0,0:0:0:0:
264,140,91422,1,0,0:0:0:0:
264,140,91580,1,2,0:0:0:0:
172,104,91895,1,2,0:0:0:0:
172,104,92211,1,2,0:0:0:0:
208,192,92527,1,0,0:0:0:0:
208,192,92685,1,2,0:0:0:0:
208,192,93001,1,0,0:0:0:0:
208,192,93159,1,2,0:0:0:0:
204,188,93316,1,2,0:0:0:0:
308,184,93474,1,0,0:0:0:0:
308,184,93948,1,2,0:0:0:0:
308,184,94106,1,2,0:0:0:0:
132,160,94738,1,0,0:0:0:0:
308,184,95212,1,2,0:0:0:0:
120,132,95369,1,2,0:0:0:0:
240,192,95685,1,0,0:0:0:0:
280,208,95764,1,0,0:0:0:0:
228,232,95843,1,0,0:0:0:0:
228,232,95922,1,0,0:0:0:0:
228,232,96001,1,2,0:0:0:0:
212,164,96317,1,6,0:0:0:0:
352,312,96474,1,4,0:0:0:0:
132,120,96633,1,6,0:0:0:0:
224,168,96791,1,4,0:0:0:0:
48,184,97106,1,6,0:0:0:0:
