osu file format v14

[General]
AudioFilename: 02. INFINITE SKY1 Chorus ver..mp3
AudioLeadIn: 0
PreviewTime: 60554
Countdown: 0
SampleSet: Normal
StackLeniency: 0.7
Mode: 1
LetterboxInBreaks: 0
WidescreenStoryboard: 0

[Editor]
DistanceSpacing: 1.3
BeatDivisor: 4
GridSize: 4
TimelineZoom: 1.3

[Metadata]
Title:INFINITE SKY
TitleUnicode:INFINITE SKY
Artist:KOTOKO
ArtistUnicode:KOTOKO
Creator:BlackHairEND
Version:Kantan
Source:蒼の彼方のフォーリズム
Tags:sprite eroge visual novel second opening ao no kanata no four rhythm Beyond the sky into the firmament preference JUDYDANNY
BeatmapID:662213
BeatmapSetID:288823

[Difficulty]
HPDrainRate:4
CircleSize:4
OverallDifficulty:3
ApproachRate:5
SliderMultiplier:1.2
SliderTickRate:1

[Events]
//Background and Video events
0,0,"Tobisawa Misaki BG.jpg",0,0
//Break Periods
//Storyboard Layer 0 (Background)
//Storyboard Layer 1 (Fail)
//Storyboard Layer 2 (Pass)
//Storyboard Layer 3 (Foreground)
//Storyboard Sound Samples

[TimingPoints]
2528,315.789473684211,4,1,0,70,1,0
60633,-100,4,1,0,90,0,1
84791,-100,4,1,0,70,0,0

[HitObjects]
256,192,2528,5,0,0:0:0:0:
112,176,5054,1,2,0:0:0:0:
348,212,6317,1,2,0:0:0:0:
152,188,6949,1,0,0:0:0:0:
264,152,7580,1,2,0:0:0:0:
264,184,8843,1,0,0:0:0:0:
308,184,10106,1,2,0:0:0:0:
128,144,11370,1,2,0:0:0:0:
256,192,12633,12,0,13896,0:0:0:0:
264,176,15001,5,6,0:0:0:0:
100,156,16422,1,0,0:0:0:0:
264,132,17685,1,0,0:0:0:0:
100,156,18949,1,2,0:0:0:0:
160,128,19580,1,0,0:0:0:0:
136,168,20212,1,0,0:0:0:0:
160,128,21475,1,0,0:0:0:0:
132,220,22738,1,2,0:0:0:0:
312,216,24001,1,0,0:0:0:0:
156,136,24632,1,2,0:0:0:0:
288,216,25264,1,0,0:0:0:0:
124,156,26528,1,2,0:0:0:0:
240,160,27791,1,2,0:0:0:0:
404,304,29054,1,0,0:0:0:0:
96,160,29685,1,2,0:0:0:0:
336,188,30317,1,4,0:0:0:0:
80,184,31580,1,0,0:0:0:0:
252,188,32212,1,0,0:0:0:0:
216,164,32843,1,2,0:0:0:0:
264,240,34106,1,0,0:0:0:0:
188,136,34738,1,2,0:0:0:0:
196,228,35370,1,0,0:0:0:0:
324,236,36633,1,2,0:0:0:0:
148,180,37896,1,4,0:0:0:0:
264,232,39159,1,2,0:0:0:0:
212,236,39791,1,2,0:0:0:0:
232,232,40422,1,0,0:0:0:0:
236,232,41528,1,6,0:0:0:0:
176,132,42791,1,0,0:0:0:0:
264,232,44212,1,2,0:0:0:0:
212,236,44844,1,2,0:0:0:0:
232,232,45475,1,0,0:0:0:0:
236,232,46581,1,6,0:0:0:0:
188,152,47843,1,0,0:0:0:0:
220,212,49264,1,0,0:0:0:0:
176,156,49896,1,0,0:0:0:0:
264,272,50528,1,0,0:0:0:0:
264,272,51791,1,2,0:0:0:0:
236,156,53054,1,0,0:0:0:0:
72,192,54317,1,2,0:0:0:0:
196,216,55580,1,6,0:0:0:0:
400,208,56528,1,6,0:0:0:0:
400,208,57475,1,6,0:0:0:0:
256,192,58106,12,0,60001,0:0:0:0:
156,152,60633,5,6,0:0:0:0:
200,208,61264,1,2,0:0:0:0:
224,192,61896,1,0,0:0:0:0:
320,192,62370,1,0,0:0:0:0:
156,192,63159,1,2,0:0:0:0:
168,164,63791,1,0,0:0:0:0:
292,220,64422,1,2,0:0:0:0:
292,220,64896,1,2,0:0:0:0:
184,144,65685,1,0,0:0:0:0:
172,188,66949,1,2,0:0:0:0:
192,192,68212,1,0,0:0:0:0:
152,160,68843,1,2,0:0:0:0:
232,252,69475,1,0,0:0:0:0:
204,180,70738,1,6,0:0:0:0:
180,128,71370,1,2,0:0:0:0:
228,208,72001,1,0,0:0:0:0:
396,260,72475,1,0,0:0:0:0:
296,208,73264,1,2,0:0:0:0:
256,204,73896,1,0,0:0:0:0:
224,180,74528,1,2,0:0:0:0:
80,160,75001,1,2,0:0:0:0:
292,192,75791,1,6,0:0:0:0:
176,160,76738,1,6,0:0:0:0:
200,144,78317,1,4,0:0:0:0:
264,144,79264,1,6,0:0:0:0:
240,144,80843,1,4,0:0:0:0:
240,144,81791,1,6,0:0:0:0:
168,156,82738,1,6,0:0:0:0:
240,144,83370,1,4,0:0:0:0:
148,176,84633,1,4,0:0:0:0:
256,192,85896,1,0,0:0:0:0:
224,160,88422,1,2,0:0:0:0:
348,212,89685,1,2,0:0:0:0:
264,152,90948,1,0,0:0:0:0:
172,196,92212,1,0,0:0:0:0:
308,184,93474,1,2,0:0:0:0:
132,160,94738,1,0,0:0:0:0:
120,132,95369,1,2,0:0:0:0:
352,312,96317,1,6,0:0:0:0:
48,184,97106,1,4,0:0:0:0:
