osu file format v14

[General]
AudioFilename: 02. INFINITE SKY1 Chorus ver..mp3
AudioLeadIn: 0
PreviewTime: 60554
Countdown: 0
SampleSet: Normal
StackLeniency: 0.7
Mode: 1
LetterboxInBreaks: 0
WidescreenStoryboard: 0

[Editor]
DistanceSpacing: 1.3
BeatDivisor: 2
GridSize: 4
TimelineZoom: 1

[Metadata]
Title:INFINITE SKY
TitleUnicode:INFINITE SKY
Artist:KOTOKO
ArtistUnicode:KOTOKO
Creator:BlackHairEND
Version:Futsuu
Source:蒼の彼方のフォーリズム
Tags:sprite eroge visual novel second opening ao no kanata no four rhythm Beyond the sky into the firmament preference JUDYDANNY
BeatmapID:662204
BeatmapSetID:288823

[Difficulty]
HPDrainRate:4
CircleSize:4
OverallDifficulty:4
ApproachRate:5
SliderMultiplier:1.4
SliderTickRate:1

[Events]
//Background and Video events
0,0,"Tobisawa Misaki BG.jpg",0,0
//Break Periods
//Storyboard Layer 0 (Background)
//Storyboard Layer 1 (Fail)
//Storyboard Layer 2 (Pass)
//Storyboard Layer 3 (Foreground)
//Storyboard Sound Samples

[TimingPoints]
2528,315.789473684211,4,1,0,60,1,0
60633,-100,4,1,0,70,0,1
84791,-100,4,1,0,60,0,0

[HitObjects]
256,192,2528,5,0,0:0:0:0:
160,180,3159,1,0,0:0:0:0:
280,204,3791,1,2,0:0:0:0:
264,204,4264,1,0,0:0:0:0:
120,140,5054,1,2,0:0:0:0:
244,192,6001,1,0,0:0:0:0:
348,212,6317,1,2,0:0:0:0:
152,208,6949,1,0,0:0:0:0:
208,192,7580,1,2,0:0:0:0:
264,140,8212,1,2,0:0:0:0:
172,104,8843,1,2,0:0:0:0:
264,152,9317,1,0,0:0:0:0:
308,184,10106,1,0,0:0:0:0:
308,184,10738,1,2,0:0:0:0:
96,176,11370,1,0,0:0:0:0:
120,132,12001,1,2,0:0:0:0:
148,156,12633,1,0,0:0:0:0:
356,312,13264,1,2,0:0:0:0:
124,188,14212,1,6,0:0:0:0:
232,204,14528,1,4,0:0:0:0:
264,176,15001,1,6,0:0:0:0:
264,132,15791,1,2,0:0:0:0:
264,132,16106,1,2,0:0:0:0:
120,204,16422,1,0,0:0:0:0:
100,156,17054,1,2,0:0:0:0:
176,168,17685,1,0,0:0:0:0:
264,132,18317,1,2,0:0:0:0:
264,132,18633,1,2,0:0:0:0:
248,120,18949,1,0,0:0:0:0:
100,156,19580,1,2,0:0:0:0:
136,168,20212,1,0,0:0:0:0:
160,96,20843,1,0,0:0:0:0:
240,160,21159,1,2,0:0:0:0:
312,216,21475,1,0,0:0:0:0:
16,168,21949,1,0,0:0:0:0:
328,160,22738,1,0,0:0:0:0:
356,192,23370,1,0,0:0:0:0:
240,160,23685,1,2,0:0:0:0:
312,216,24001,1,0,0:0:0:0:
460,320,24633,1,0,0:0:0:0:
304,108,24949,1,2,0:0:0:0:
288,216,25264,1,0,0:0:0:0:
196,112,25580,1,0,0:0:0:0:
124,156,26212,1,2,0:0:0:0:
336,188,26843,1,2,0:0:0:0:
336,188,27475,1,2,0:0:0:0:
404,304,29054,1,2,0:0:0:0:
240,160,29685,1,0,0:0:0:0:
240,160,30317,1,2,0:0:0:0:
120,136,30633,1,0,0:0:0:0:
240,196,31264,1,2,0:0:0:0:
80,184,31896,1,0,0:0:0:0:
216,164,32212,1,2,0:0:0:0:
288,192,32528,1,0,0:0:0:0:
252,188,32843,1,2,0:0:0:0:
212,188,33475,1,0,0:0:0:0:
252,148,33791,1,2,0:0:0:0:
100,180,34422,1,0,0:0:0:0:
188,136,34738,1,0,0:0:0:0:
316,248,35054,1,2,0:0:0:0:
196,228,35370,1,0,0:0:0:0:
464,132,36001,1,2,0:0:0:0:
280,100,36317,1,0,0:0:0:0:
48,168,36949,1,0,0:0:0:0:
344,160,37264,1,2,0:0:0:0:
352,208,37580,1,0,0:0:0:0:
304,104,37896,1,6,0:0:0:0:
96,164,38843,1,0,0:0:0:0:
176,176,39159,1,2,0:0:0:0:
208,160,39475,1,0,0:0:0:0:
136,160,39791,1,0,0:0:0:0:
404,184,40106,1,2,0:0:0:0:
256,192,40738,1,6,0:0:0:0:
256,192,41054,1,0,0:0:0:0:
420,284,41212,1,0,0:0:0:0:
256,192,41528,1,2,0:0:0:0:
192,168,42159,1,0,0:0:0:0:
256,192,42475,1,2,0:0:0:0:
256,192,42791,1,0,0:0:0:0:
256,192,43580,1,0,0:0:0:0:
180,180,43896,1,2,0:0:0:0:
320,264,44212,1,0,0:0:0:0:
340,180,44843,1,0,0:0:0:0:
424,256,45159,1,0,0:0:0:0:
124,116,45791,1,6,0:0:0:0:
256,236,46106,1,0,0:0:0:0:
152,220,46264,1,0,0:0:0:0:
272,184,46580,1,2,0:0:0:0:
52,184,47212,1,0,0:0:0:0:
156,204,47528,1,0,0:0:0:0:
308,248,47843,1,2,0:0:0:0:
128,112,48633,1,2,0:0:0:0:
220,212,49264,1,2,0:0:0:0:
176,156,49896,1,0,0:0:0:0:
92,156,50212,1,2,0:0:0:0:
264,272,50528,1,0,0:0:0:0:
284,268,51159,1,0,0:0:0:0:
264,272,51791,1,2,0:0:0:0:
284,268,52422,1,2,0:0:0:0:
220,176,52738,1,2,0:0:0:0:
236,156,53054,1,0,0:0:0:0:
72,192,53685,1,0,0:0:0:0:
252,164,54317,1,2,0:0:0:0:
212,184,54791,1,2,0:0:0:0:
72,192,55264,1,0,0:0:0:0:
196,216,55580,1,6,0:0:0:0:
368,244,56054,1,6,0:0:0:0:
400,208,56528,1,6,0:0:0:0:
400,208,57001,1,4,0:0:0:0:
400,208,57475,1,6,0:0:0:0:
152,160,57791,1,2,0:0:0:0:
256,192,58106,12,0,59370,0:0:0:0:
336,212,60001,5,2,0:0:0:0:
360,228,60317,1,0,0:0:0:0:
156,152,60633,1,6,0:0:0:0:
200,208,61264,1,2,0:0:0:0:
56,152,61580,1,2,0:0:0:0:
272,264,61896,1,0,0:0:0:0:
288,264,62212,1,2,0:0:0:0:
280,224,62370,1,0,0:0:0:0:
156,192,62843,1,2,0:0:0:0:
152,152,63159,1,0,0:0:0:0:
168,164,63791,1,0,0:0:0:0:
232,152,64106,1,2,0:0:0:0:
292,220,64422,1,2,0:0:0:0:
96,180,64738,1,0,0:0:0:0:
292,220,64896,1,2,0:0:0:0:
184,144,65685,1,0,0:0:0:0:
264,248,66317,1,2,0:0:0:0:
80,128,66633,1,2,0:0:0:0:
256,228,66949,1,0,0:0:0:0:
328,168,67580,1,2,0:0:0:0:
220,184,67896,1,0,0:0:0:0:
204,184,68212,1,0,0:0:0:0:
232,252,68843,1,2,0:0:0:0:
152,160,69475,1,2,0:0:0:0:
36,176,69791,1,2,0:0:0:0:
48,144,69949,1,0,0:0:0:0:
204,180,70738,1,6,0:0:0:0:
256,192,71054,1,2,0:0:0:0:
256,192,71370,1,0,0:0:0:0:
256,192,72001,1,2,0:0:0:0:
212,204,72317,1,2,0:0:0:0:
256,192,72475,1,0,0:0:0:0:
256,192,72949,1,2,0:0:0:0:
296,208,73264,1,0,0:0:0:0:
256,204,73896,1,2,0:0:0:0:
224,180,74528,1,0,0:0:0:0:
180,196,74843,1,0,0:0:0:0:
80,160,75001,1,2,0:0:0:0:
292,192,75791,1,6,0:0:0:0:
176,160,76264,1,6,0:0:0:0:
176,160,76738,1,6,0:0:0:0:
200,144,78317,1,4,0:0:0:0:
264,144,78791,1,4,0:0:0:0:
264,144,79264,1,6,0:0:0:0:
240,144,80843,1,4,0:0:0:0:
240,144,81317,1,6,0:0:0:0:
240,144,81791,1,6,0:0:0:0:
240,144,82264,1,6,0:0:0:0:
240,144,82738,1,4,0:0:0:0:
240,144,83370,1,4,0:0:0:0:
224,176,84001,1,0,0:0:0:0:
196,160,84317,1,2,0:0:0:0:
148,176,84633,1,4,0:0:0:0:
80,188,84791,1,4,0:0:0:0:
256,192,85896,1,0,0:0:0:0:
144,176,86528,1,0,0:0:0:0:
280,204,87159,1,2,0:0:0:0:
264,204,87633,1,0,0:0:0:0:
120,140,88422,1,2,0:0:0:0:
244,192,89370,1,0,0:0:0:0:
348,212,89685,1,2,0:0:0:0:
152,208,90317,1,0,0:0:0:0:
264,152,90791,1,0,0:0:0:0:
264,140,91580,1,2,0:0:0:0:
172,104,92212,1,2,0:0:0:0:
208,192,92685,1,2,0:0:0:0:
308,184,93475,1,0,0:0:0:0:
212,196,94106,1,2,0:0:0:0:
132,160,94738,1,0,0:0:0:0:
280,216,95212,1,2,0:0:0:0:
120,132,95370,1,2,0:0:0:0:
352,312,96317,1,6,0:0:0:0:
132,120,96633,1,6,0:0:0:0:
48,184,97106,1,4,0:0:0:0:
