osu file format v7

[General]
AudioFilename: Kotoko_-_Genzai_no_Requiem.mp3
AudioLeadIn: 0
PreviewTime: 74364
Countdown: 0
SampleSet: Soft
StackLeniency: 0.6
Mode: 0
LetterboxInBreaks: 0

[Editor]
DistanceSpacing: 0.800000011920929
BeatDivisor: 4
GridSize: 8

[Metadata]
Title:Genzai no Requiem
Artist:KOTOKO
Creator:Odaril
Version:Normal
Source:Prism Ark
Tags:

[Difficulty]
HPDrainRate:4
CircleSize:4
OverallDifficulty:5
SliderMultiplier:1.4
SliderTickRate:2

[Events]
//Background and Video events
0,0,"Background.png"
//Break Periods
2,72437,73609
2,105866,118180
2,146152,147323
//Storyboard Layer 0 (Background)
//Storyboard Layer 1 (Fail)
//Storyboard Layer 2 (Pass)
//Storyboard Layer 3 (Foreground)
//Storyboard Sound Samples
//Background Colour Transformations
3,100,163,162,255

[TimingPoints]
7952,428.571428571429,4,2,1,100,1,0
18127,-100,4,2,0,100,0,0
24555,-100,4,1,0,100,0,0
31521,-100,4,2,1,100,0,0
45235,-100,4,1,0,100,0,0
58950,-100,4,2,1,100,0,0
74807,-100,4,1,0,100,0,1
102235,-100,4,1,0,100,0,0
148521,-100,4,1,0,100,0,1
179378,-100,4,1,0,100,0,0

[Colours]
Combo1 : 194,152,198
Combo2 : 132,175,255
Combo3 : 129,102,255
Combo4 : 121,75,129

[HitObjects]
136,64,7951,2,0,B|8:64,2,105,0|0|2
248,64,9023,2,0,B|320:64,2,70
248,120,9666,6,0,B|128:120,2,105,0|0|2
360,120,10737,2,0,B|440:120,2,70
360,176,11380,1,0
192,176,12023,1,2
192,176,12237,1,2
96,40,13523,5,2
208,48,13951,1,2
320,72,14380,1,2
416,128,14809,6,0,B|480:112|488:48,2,105,0|2|0
336,208,15880,2,0,B|320:248|264:240,3,70,2|0|0|2
200,162,16951,2,0,B|160:170|120:202|104:250|104:282,2,140,0|2|0
256,192,18237,12,0,21452
256,192,21666,12,0,24237
64,192,25094,5,4
288,192,25952,1,12
400,192,26380,2,0,B|400:112,2,70,0|0|8
144,64,28094,6,0,B|176:24|224:16,2,70
16,248,29380,2,8,B|48:330|136:336,1,140
176,336,30023,2,0,B|224:328|240:288,1,70,0|8
366,113,31094,1,0
106,116,31952,6,8,B|154:84|186:60|258:52|354:92|378:124,1,280,12|0
432,200,33237,1,8
432,312,33666,2,8,B|352:344,2,70,8|2|8
432,312,34309,2,8,B|360:272,1,70,0|8
80,248,35380,6,0,B|144:248|200:232|256:192|288:144|304:104,1,280,8|8
303,107,36666,2,0,B|303:75|271:35,2,70,8|0|8
96,296,38166,5,0
136,256,38380,1,0
176,216,38594,1,0
216,176,38809,1,8
424,88,39666,1,8
456,192,40094,1,0
344,192,40523,2,8,B|256:192,1,70,8|0
216,192,40952,2,0,B|216:272,1,70,8|0
217,262,41380,1,8
16,160,42237,5,8
240,192,43094,1,12
352,192,43523,2,0,B|424:192,2,70,8|0|8
184,192,44594,1,8
184,192,44809,1,8
392,96,45666,5,4
280,96,46094,1,8
392,96,46523,1,0
336,96,46737,1,8
280,96,46951,1,0
160,200,47380,5,4
272,200,47809,1,8
160,200,48237,1,0
216,200,48451,1,8
272,200,48666,1,0
224,304,49094,5,0
336,304,49523,1,8
224,304,49951,1,0
280,304,50166,1,8
336,304,50380,1,0
240,248,50809,5,0
318,169,51237,1,8
240,248,51666,1,0
282,210,51880,1,8
318,169,52094,1,0
408,232,52523,6,0,B|456:192|440:120,1,105
400,64,53166,2,0,B|368:24|312:24,1,70,0|8
232,32,53809,1,0
136,88,54237,6,0,B|88:128|104:216,1,105,0|0
120,264,54880,2,0,B|136:296|200:288,1,70,8|0
352,160,55951,6,0,B|424:152|448:104,2,105,0|0|8
296,160,56809,2,0,B|240:152|192:104,1,105
128,160,57451,2,8,B|72:104,1,70
248,336,59380,5,8
168,336,59701,1,8
88,336,60023,1,8
88,224,60451,2,2,L|160:224,2,70
88,168,61094,5,8
88,80,61416,1,8
168,80,61737,1,8
88,168,62166,6,0,L|168:168,2,70
88,224,62809,2,0,B|88:336,2,105,2|8|10
88,112,63880,6,8,B|168:112|176:112,1,70
216,112,64309,2,0,B|296:112,1,70,0|8
368,112,64844,1,8
456,112,65166,2,0,B|512:24,1,70,0|8
112,64,66237,6,0,L|224:64,1,105,8|0
320,64,66880,1,2
320,136,67094,2,0,L|208:136,1,105,8|0
112,136,67737,1,2
112,208,67951,2,0,L|224:208,1,105,8|0
320,208,68594,1,2
320,208,68809,1,10
128,256,69666,6,0,L|16:256,2,105,0|8|2
224,256,70737,2,0,L|304:256,1,70,2|8
352,256,71166,1,8
352,200,71380,1,8
184,200,72023,1,8
184,200,72237,1,8
32,304,74809,5,0
55,223,75130,1,0
104,152,75451,2,8,B|184:128|249:158,1,140
280,192,76094,1,0
312,232,76309,1,8
328,280,76523,1,0
328,352,76844,2,0,B|264:352|216:288,1,105,0|8
184,224,77594,2,0,B|152:176|152:128,3,70,8|0|8|0
304,152,78880,2,8,B|304:72,1,70
96,128,80380,6,8,B|112:80|168:56|224:80,2,140
96,240,81666,2,0,B|112:304|160:352,2,105,0|0|8
96,128,82737,2,0,B|112:96|160:96,3,70,8|0|0|8
264,96,83809,2,0,B|328:112|360:160|360:192,1,140,0|8
304,280,84666,2,0,B|272:328|224:296|208:264|240:232,1,140,0|8
355,116,85737,1,0
355,117,85951,1,0
192,128,87237,5,4
320,128,87666,1,4
320,256,88094,1,4
192,256,88523,5,4
192,256,88844,2,0,B|192:128,1,105,0|8
280,136,89594,2,0,L|328:208,3,70,8|0|8|0
360,256,90559,2,0,B|232:256,1,105,0|8
184,192,91309,1,8
200,144,91523,1,0
232,104,91737,1,8
272,80,91951,2,0,B|336:64|416:144|408:240,1,210,0|8
407,211,92809,1,8
112,192,94094,5,4
184,96,94523,1,4
296,96,94951,1,4
224,192,95380,5,0
296,192,95701,1,0
368,192,96023,1,8
376,96,96451,5,8
328,96,96666,1,0
280,96,96880,1,0
232,96,97094,1,8
168,192,97523,5,0
256,256,97951,1,8
344,192,98380,1,4
256,192,98809,12,4,102023
256,192,102130,12,0,105666
344,128,119380,6,8,B|368:80|432:64,2,105,8|0|8
320,240,120451,2,0,B|280:264|224:256,1,70,0|8
216,216,120880,2,0,B|176:184|136:192,1,70,0|8
72,160,121416,1,8
24,232,121737,2,0,B|8:304,1,70,0|8
232,304,122809,5,0
200,200,123237,1,8
200,101,123666,1,0
234,135,123880,1,0
268,169,124094,1,8
302,203,124309,1,0
352,208,124523,2,8,B|352:96,1,105
352,32,125166,2,0,B|272:64,1,70,0|8
128,64,126237,6,0,B|192:64|224:96|240:128,1,105
128,112,126880,2,0,B|176:112|192:144,1,70,8|0
109,218,127523,1,0
384,64,127951,6,0,B|320:64|288:96|272:128,1,105
384,112,128594,2,0,B|336:112|320:144,1,70,8|0
402,218,129237,1,0
256,264,129666,6,0,B|144:264,1,105
80,264,130309,2,0,B|80:184,1,70,8|0
152,192,130844,2,0,B|264:192,1,105,0|8
304,192,131380,1,8
408,192,133094,6,8,B|408:112|320:112,2,105
400,304,134166,1,8
352,280,134380,1,0
312,240,134594,1,0
288,192,134809,2,8,B|288:112|376:112,2,105,0|8|8
400,184,135880,6,0,B|400:264,1,70
400,312,136309,1,0
344,312,136523,6,8,B|344:192,2,105
232,312,137594,2,8,B|232:232,1,70
232,184,138023,1,0
232,128,138237,6,8,B|352:128,1,105
336,128,138880,2,0,B|279:56,1,70,0|8
328,312,139951,6,0,B|400:312|408:256,2,105
288,272,140809,2,0,B|360:272|368:216,2,105
304,216,141666,2,0,B|224:128,2,105
304,216,142523,1,0
168,64,143380,5,0
256,64,143701,1,0
344,64,144023,1,0
312,168,144451,5,0
256,168,144666,1,0
200,168,144880,1,8
200,224,145094,5,8
368,224,145737,1,0
368,224,145952,1,0
464,208,148523,6,0,B|448:272|384:272,2,105,0|0|8
432,112,149594,2,8,B|432:64|384:64,1,70,8|0
344,64,150023,2,0,B|248:64,1,70,8|0
200,72,150559,1,0
152,128,150880,1,8
128,224,151309,2,0,B|208:224,3,70,8|0|8|0
344,224,152594,2,8,B|424:224,1,70
256,64,154094,5,0
200,161,154523,1,0
312,161,154952,1,0
256,256,155380,6,0,B|256:368,2,105,0|0|8
368,256,156452,1,8
368,200,156666,1,0
368,144,156880,1,0
368,88,157094,6,0,B|224:88,1,140,8|0
112,88,157952,2,0,B|112:248,1,140,8|0
191,307,158809,6,0,B|415:307,1,210,8|0
401,308,159666,1,0
256,80,160952,5,4
144,80,161380,1,4
144,192,161809,1,4
144,192,162237,6,0,B|272:192,2,105,0|0|8
144,80,163309,1,8
200,80,163523,1,8
144,80,163737,1,8
144,136,163952,6,0,B|272:136,2,105,0|0|8
144,248,165023,1,8
80,248,165237,1,8
144,248,165452,1,8
208,248,165666,5,0
376,248,166309,1,8
376,248,166523,1,8
96,64,167809,5,4
192,120,168237,1,4
288,168,168666,1,0
224,240,169094,5,0
296,224,169416,2,8,B|296:320|232:320,1,105
144,296,170166,2,8,B|80:232,1,70,8|0
96,192,170594,2,0,B|112:104,1,70,0|8
192,48,171237,1,0
304,72,171666,1,8
272,176,172094,1,0
256,192,172523,12,4,175737
256,192,175844,12,4,179380
