osu file format v7

[General]
AudioFilename: Kotoko_-_Genzai_no_Requiem.mp3
AudioLeadIn: 0
PreviewTime: 74364
Countdown: 0
SampleSet: Normal
StackLeniency: 0.6
Mode: 0
LetterboxInBreaks: 0

[Editor]
DistanceSpacing: 0.600000023841858
BeatDivisor: 4
GridSize: 8

[Metadata]
Title:Genzai no Requiem
Artist:KOTOKO
Creator:Odaril
Version:Easy
Source:Prism Ark
Tags:

[Difficulty]
HPDrainRate:3
CircleSize:3
OverallDifficulty:4
SliderMultiplier:1.2
SliderTickRate:2

[Events]
//Background and Video events
0,0,"Background.png"
//Break Periods
2,25294,30632
2,72437,73489
2,105866,118060
2,146151,147203
//Storyboard Layer 0 (Background)
//Storyboard Layer 1 (Fail)
//Storyboard Layer 2 (Pass)
//Storyboard Layer 3 (Foreground)
//Storyboard Sound Samples
//Background Colour Transformations
3,100,163,162,255

[TimingPoints]
7952,428.571428571429,4,2,1,100,1,0
25517,-100,4,1,1,100,0,0
31521,-100,4,2,1,100,0,0
45235,-100,4,1,1,100,0,0
52089,-100,4,2,1,100,0,0
74373,-100,4,1,1,100,0,0
74807,-100,4,1,1,100,0,1
102235,-100,4,1,1,100,0,0
148521,-100,4,1,1,100,0,1
179378,-100,4,1,1,100,0,0

[Colours]
Combo1 : 194,152,198
Combo2 : 132,175,255
Combo3 : 129,102,255
Combo4 : 121,75,129

[HitObjects]
48,64,7951,2,0,B|48:136|88:264|184:320|224:328|280:328|328:320|376:304|400:288,2,480
160,64,12023,1,0
160,64,12237,1,0
432,80,13523,5,0
392,144,13951,1,0
344,200,14380,1,0
296,256,14809,5,0
264,296,15130,2,0,B|224:336|160:336,1,90
134,255,15880,1,0
134,255,16094,1,0
176,184,16523,1,0
256,56,17380,1,0
256,192,18237,12,4,25094
160,120,31952,6,0,B|296:120,3,120,4|8|0|8
280,192,33666,2,0,B|160:192,3,120,0|8|0|8
160,264,35380,2,0,B|296:264,3,120,0|8|0|8
352,264,37094,1,0
232,184,37952,5,0
120,96,38809,6,0,B|256:96,3,120,0|8|0|8
240,168,40523,2,0,B|120:168,3,120,0|8|0|8
120,240,42237,2,0,B|256:240,3,120,0|8|0|8
312,240,43952,1,8
168,256,44809,5,8
136,112,45666,6,0,B|256:112,1,120,0|8
328,112,46523,2,0,B|408:112,2,60,0|8|0
328,184,47380,6,0,B|184:184,1,120,0|8
136,184,48237,2,0,B|72:184,2,60,0|8|0
136,256,49094,6,0,B|280:256,1,120,0|8
328,256,49951,2,0,B|400:256,2,60,0|8|0
328,184,50809,5,0
256,184,51237,1,0
184,184,51666,1,4
64,184,52523,6,0,B|64:56,1,120
136,64,53380,2,0,B|136:192,1,120,0|8
208,184,54237,6,0,B|208:56,1,120
280,64,55094,2,0,B|280:208,1,120,0|8
352,184,55951,6,0,B|352:56,1,120
424,64,56809,2,0,B|424:208,1,120,0|8
424,256,57666,1,8
160,192,59380,5,4
256,192,59809,1,0
352,192,60237,2,8,B|416:192,2,60
352,96,61094,5,4
256,96,61523,1,0
160,96,61951,2,8,B|96:96,2,60
160,192,62809,5,4
256,192,63237,1,0
352,192,63666,2,8,B|416:192,2,60
256,192,64523,5,8
256,192,64951,1,8
256,192,65380,1,4
200,88,66237,6,0,B|344:88,3,120,0|0|8|0
320,160,67951,2,0,B|176:160,3,120,0|0|8|0
200,232,69666,2,0,B|336:232,3,120,0|0|8|0
392,256,71380,2,0,B|456:232|472:144|448:72|368:48,1,240
96,104,74809,6,0,B|216:104,1,120,0|8
288,104,75666,2,0,B|368:104,2,60,0|8|0
288,176,76523,6,0,B|152:176,1,120,0|8
96,176,77380,2,0,B|32:176,2,60,0|8|0
96,248,78237,6,0,B|224:248,1,120,0|8
288,248,79094,2,0,B|360:248,2,60,0|8|0
336,112,80380,6,0,B|472:112,2,120
264,112,81666,6,0,B|128:112,1,120,0|8
80,112,82523,2,0,B|-16:112,2,60,0|8|0
80,184,83380,6,0,B|232:184,1,120,0|8
272,184,84237,2,0,B|336:184,2,60,0|8|0
272,112,85094,6,0,B|120:104|120:256,1,240
328,192,87237,5,0
256,192,87666,1,0
256,120,88094,1,0
328,120,88523,1,4
152,72,89594,6,0,L|212:72,3,60,0|0|0|4
396,72,91309,2,0,L|300:72,3,60,0|0|0|4
288,168,92594,2,0,B|224:168,1,60
160,280,94094,6,0,B|96:249|80:168,2,120
216,232,95380,2,0,B|312:232,2,90
216,160,96451,2,0,B|296:160,3,60
280,88,97523,2,0,B|152:88,1,120
160,160,98380,2,0,B|296:160,1,120,0|4
256,192,98916,12,4,105666
168,40,119380,6,0,B|168:192,1,120,0|8
168,232,120237,2,0,B|168:328,2,60,0|8|0
240,232,121094,6,0,B|240:104,1,120,0|8
240,40,121951,2,0,B|304:40,2,60,0|8|0
240,112,122809,6,0,B|240:192|288:224,1,120,0|8
336,264,123666,2,0,B|376:288|400:288,2,60,0|8|0
336,192,124523,6,0,B|432:104,2,120,0|0|4
256,72,126237,6,0,B|112:72,1,120
136,144,127094,2,0,B|136:272,1,120,8|0
136,336,127951,6,0,B|272:336,1,120
256,264,128809,2,0,B|256:128,1,120,8|0
256,72,129666,6,0,B|384:72,1,120
448,72,130523,2,0,B|448:216,1,120,8|0
448,264,131380,1,8
248,56,133094,6,0,B|248:192,1,120
176,176,133951,2,0,B|176:32,1,120,0|8
104,56,134809,6,0,B|104:184,1,120
104,248,135666,2,0,B|240:248,1,120,0|8
296,248,136523,2,8,B|400:248,2,90
296,136,137809,1,0
296,72,138237,2,8,B|400:72,1,90
440,72,138880,2,0,B|440:144,1,60,0|8
312,72,139951,6,0,B|168:72,1,120
120,72,140809,2,0,B|120:200,1,120
192,192,141666,6,0,B|320:192,1,120
384,192,142523,2,0,B|384:320,1,120
312,312,143380,6,0,B|176:312,1,120
120,312,144237,2,0,B|120:184,1,120
120,120,145094,5,0
240,120,145737,2,0,B|240:200,1,60
352,120,148523,6,0,B|352:48|272:48,1,120,0|8
200,48,149380,2,0,B|136:48,2,60,0|8|0
275,48,150237,6,0,B|352:48|352:120,1,120,0|8
352,192,151094,2,0,B|352:264,2,60,0|8|0
352,120,151952,6,0,B|296:0|136:32,1,240
392,88,154094,5,8
320,88,154523,1,8
248,88,154952,1,8
176,88,155380,6,0,B|80:88,2,90,0|0|8
176,160,156452,1,8
176,192,156666,1,0
176,264,157094,1,8
248,264,157523,2,0,B|384:264,1,120,0|8
440,264,158380,1,0
440,192,158809,2,0,B|374:76|232:48,1,240,8|0
296,88,160952,5,8
224,88,161380,1,8
224,160,161809,1,8
296,160,162237,1,4
296,344,163309,6,0,B|296:272,3,60,0|0|0|4
128,344,165023,2,0,B|128:264,3,60
128,184,166309,2,8,B|128:112,1,60
336,80,167809,5,8
408,80,168237,1,8
480,80,168666,1,8
480,152,169094,6,0,B|480:256,2,90,0|8|8
408,152,170166,1,8
376,152,170380,1,0
304,152,170809,1,8
232,152,171237,2,0,B|232:224|152:224,1,120,0|8
80,224,172094,1,0
256,192,172523,12,0,179380
