osu file format v13

[General]
AudioFilename: Floating up.mp3
AudioLeadIn: 0
PreviewTime: 65064
Countdown: 0
SampleSet: Soft
StackLeniency: 0.7
Mode: 0
LetterboxInBreaks: 0
WidescreenStoryboard: 0

[Editor]
Bookmarks: 3330,18228,50881,63534,78228,93126,94452,106187,115167
DistanceSpacing: 1
BeatDivisor: 4
GridSize: 4
TimelineZoom: 2.1

[Metadata]
Title:Floating up
TitleUnicode:Floating up
Artist:KOTOKO
ArtistUnicode:KOTOKO
Creator:CakiP
Version:Easy
Source:カルマルカ*サークル
Tags:karumaruka*Circle Opening saga planets eroge gamu milu neta
BeatmapID:439621
BeatmapSetID:123301

[Difficulty]
HPDrainRate:1
CircleSize:3
OverallDifficulty:1
ApproachRate:2
SliderMultiplier:0.999999999999999
SliderTickRate:1

[Events]
//Background and Video events
0,0,"Shin kawaii.png",0,0
Video,-200,"Floating up.avi"
//Break Periods
//Storyboard Layer 0 (Background)
//Storyboard Layer 1 (Fail)
//Storyboard Layer 2 (Pass)
//Storyboard Layer 3 (Foreground)
//Storyboard Sound Samples
//Background Colour Transformations
3,100,163,162,255

[TimingPoints]
65,408.163265306122,4,2,3,50,1,0
9860,-100,4,2,3,60,0,0
23330,-100,4,2,1,40,0,0
49044,-100,4,2,3,50,0,0
58228,-100,4,2,3,40,0,0
65371,-100,4,2,1,60,0,1
93126,-100,4,2,3,50,0,1
106187,-100,4,2,1,40,0,0

[Colours]
Combo1 : 255,255,255
Combo2 : 247,0,123
Combo3 : 255,255,111
Combo4 : 170,170,255
Combo5 : 255,158,62

[HitObjects]
316,68,3330,5,4,1:2:0:0:
373,150,3738,2,0,P|388:196|384:249,1,99.9999999999999,0|0,1:0|1:0,0:0:0:0:
338,335,4554,1,0,1:0:0:0:
238,341,4962,2,0,P|161:324|109:220,1,200,0|0,1:0|1:0,0:0:0:0:
124,123,6187,1,0,1:0:0:0:
210,72,6595,6,0,B|270:49|270:49|311:48,2,99.9999999999999,4|0|0,1:2|1:0|1:0,0:0:0:0:
124,124,7820,1,0,1:0:0:0:
124,224,8228,2,0,P|148:267|190:297,1,99.9999999999999,0|0,1:0|1:0,0:0:0:0:
278,338,9044,2,0,B|345:331|377:278|377:278|368:197,1,200,0|4,1:0|1:0,0:0:0:0:
352,99,10269,5,0,1:0:0:0:
279,167,10677,2,0,P|190:200|91:163,1,200,0|0,1:0|1:0,0:0:0:0:
36,84,11901,1,0,1:0:0:0:
126,41,12309,2,0,P|178:34|227:40,1,99.9999999999999,0|0,1:0|1:0,0:0:0:0:
321,64,13126,5,0,1:0:0:0:
363,154,13534,2,0,L|368:256,1,99.9999999999999,0|0,1:0|1:0,0:0:0:0:
348,352,14350,1,0,1:0:0:0:
248,364,14758,2,0,P|200:366|151:348,1,99.9999999999999,0|0,1:0|1:0,0:0:0:0:
69,290,15575,2,0,P|29:208|62:108,1,200,0|4,1:0|1:0,0:0:0:0:
138,46,16799,5,0,1:0:0:0:
163,142,17207,2,0,P|189:183|233:207,1,99.9999999999999,0|0,1:0|1:0,0:0:0:0:
332,223,18024,1,0,1:0:0:0:
414,166,18432,2,0,B|440:122|440:122|440:70,2,99.9999999999999,0|0|0,1:0|1:0|1:0,0:0:0:0:
332,224,19656,2,0,P|236:240|159:179,1,200,0|0,1:0|1:0,0:0:0:0:
163,80,20881,1,0,1:0:0:0:
159,182,21289,6,0,L|155:286,2,99.9999999999999,0|0|0,1:0|1:0|1:0,0:0:0:0:
187,87,22513,2,0,P|224:58|277:44,1,99.9999999999999,0|4,1:0|1:2,0:0:0:0:
364,87,23330,6,0,P|423:88|465:77,2,99.9999999999999,0|0|0,1:0|1:0|1:0,0:0:0:0:
264,82,24554,2,0,P|166:96|119:116,2,150,0|2|0,1:0|0:0|1:0,0:0:0:0:
362,101,26187,1,0,1:0:0:0:
412,187,26595,6,0,P|415:236|407:286,1,99.9999999999999,0|0,1:0|1:0,0:0:0:0:
327,346,27411,2,0,P|278:355|227:343,2,99.9999999999999,0|0|0,1:0|1:0|1:0,0:0:0:0:
402,295,28636,2,0,P|436:238|408:112,1,200,0|4,1:0|1:2,0:0:0:0:
329,53,29860,6,0,L|230:66,1,99.9999999999999,0|0,1:0|1:0,0:0:0:0:
143,116,30677,1,0,1:0:0:0:
173,211,31085,2,0,P|264:255|313:250,2,150,0|2|0,1:0|0:0|1:0,0:0:0:0:
143,115,32718,6,0,P|99:141|75:183,1,99.9999999999999,0|0,1:0|1:0,0:0:0:0:
85,281,33534,2,0,P|129:337|204:344,1,150,0|4,1:0|1:2,0:0:0:0:
296,308,34554,2,0,L|347:221,1,99.9999999999999,8|0,3:0|1:0,0:0:0:0:
363,123,35371,2,0,L|336:76,1,50,0|0,1:0|1:0,0:0:0:0:
262,14,35983,1,4,1:2:0:0:
178,69,36391,6,0,P|134:82|82:77,2,99.9999999999999,0|0|0,1:0|1:0|1:0,0:0:0:0:
272,100,37616,2,0,P|334:174|388:182,2,150,0|2|0,1:0|0:0|1:0,0:0:0:0:
198,32,39248,1,0,1:0:0:0:
144,116,39656,6,0,P|132:162|102:209,1,99.9999999999999,0|0,1:0|1:0,0:0:0:0:
58,295,40473,2,0,P|99:321|154:331,1,99.9999999999999,0|0,1:0|1:0,0:0:0:0:
248,335,41289,1,0,1:0:0:0:
347,336,41697,2,0,P|402:304|412:179,1,200,0|4,1:0|1:2,0:0:0:0:
337,111,42922,6,0,L|235:91,2,99.9999999999999,0|0|0,1:0|1:0|1:0,0:0:0:0:
411,178,44146,2,0,P|331:233|282:227,2,150,0|2|0,1:0|0:0|1:0,0:0:0:0:
418,78,45779,6,0,P|389:50|327:42,1,99.9999999999999,4|0,1:2|1:0,0:0:0:0:
233,59,46595,2,0,L|226:110,1,50,0|0,1:0|0:0,0:0:0:0:
213,207,47207,1,4,0:2:0:0:
269,289,47616,2,0,B|322:284|322:284|364:253,1,99.9999999999999,8|0,3:0|1:0,0:0:0:0:
416,173,48432,2,0,L|422:123,1,50,8|0,3:0|1:0,0:0:0:0:
407,24,49044,6,0,P|365:51|316:65,1,99.9999999999999,4|0,1:2|1:0,0:0:0:0:
217,58,49860,2,0,L|161:142,1,99.9999999999999,0|0,1:0|1:0,0:0:0:0:
144,240,50677,2,0,P|177:278|221:298,2,99.9999999999999,0|0|0,1:0|1:0|1:0,0:0:0:0:
133,140,51901,5,0,1:0:0:0:
230,118,52309,2,0,P|277:100|312:64,2,99.9999999999999,0|0|0,1:0|1:0|1:0,0:0:0:0:
132,141,53534,1,0,1:0:0:0:
71,220,53942,2,0,P|72:271|83:322,1,99.9999999999999,0|0,1:0|1:0,0:0:0:0:
170,366,54758,2,0,P|220:367|272:361,1,99.9999999999999,0|0,1:0|1:0,0:0:0:0:
364,330,55575,6,0,P|416:265|422:151,1,200,4|0,1:2|1:0,0:0:0:0:
392,56,56799,2,0,L|341:62,1,50,0|4,1:0|0:0,0:0:0:0:
243,74,57411,2,0,P|232:125|234:176,1,99.9999999999999,2|2,0:0|0:0,0:0:0:0:
238,272,58228,6,0,L|340:291,1,99.9999999999999,8|2,0:3|0:0,0:0:0:0:
418,233,59044,2,0,L|463:138,1,99.9999999999999,2|4,0:0|0:0,0:0:0:0:
397,65,59860,2,0,L|296:53,1,99.9999999999999,8|4,0:3|0:0,0:0:0:0:
203,85,60677,2,0,P|192:133|163:176,2,99.9999999999999,2|4|2,0:0|0:0|0:0,0:0:0:0:
256,192,61697,12,0,62922,0:0:0:0:
125,125,63534,6,0,P|121:197|201:293,1,200,2|4,0:0|0:0,0:0:0:0:
296,312,64758,2,0,L|347:290,1,50,2|0,0:0|1:0,0:0:0:0:
427,240,65371,6,0,P|431:190|427:140,1,99.9999999999999,4|0,0:1|1:0,0:0:0:0:
341,89,66187,2,0,P|336:138|340:188,1,99.9999999999999,0|0,0:0|1:0,0:0:0:0:
352,287,67003,2,0,P|273:289|229:235,2,150,0|2|0,0:0|0:0|1:0,0:0:0:0:
431,225,68636,1,0,0:0:0:0:
483,140,69044,6,0,P|508:98|511:48,2,99.9999999999999,0|0|0,1:0|0:0|1:0,0:0:0:0:
431,226,70269,2,0,L|330:223,1,99.9999999999999,0|0,0:0|1:0,0:0:0:0:
231,216,71085,2,0,P|200:177|186:129,1,99.9999999999999,0|0,0:0|1:0,0:0:0:0:
234,41,71901,6,0,P|281:18|329:10,2,99.9999999999999,4|0|0,0:0|1:0|0:0,0:0:0:0:
186,129,73126,1,0,1:0:0:0:
175,228,73534,2,0,P|220:312|270:331,2,150,0|2|0,0:0|0:0|1:0,0:0:0:0:
186,128,75167,1,0,0:0:0:0:
279,92,75575,6,0,B|334:79|334:79|376:92,2,99.9999999999999,0|0|0,1:0|0:0|1:0,0:0:0:0:
185,127,76799,2,0,P|149:173|110:189,1,99.9999999999999,0|0,0:0|1:0,0:0:0:0:
21,232,77616,2,0,P|53:271|103:289,1,99.9999999999999,0|0,0:0|1:0,0:0:0:0:
193,319,78432,6,0,P|247:327|297:322,1,99.9999999999999,4|0,0:0|1:0,0:0:0:0:
347,240,79248,2,0,P|293:232|243:237,1,99.9999999999999,0|0,0:0|1:0,0:0:0:0:
148,247,80064,2,0,P|128:153|151:103,2,150,0|2|0,0:0|0:0|1:0,0:0:0:0:
211,324,81697,1,0,0:0:0:0:
310,333,82105,6,0,B|357:302|357:302|382:261,2,99.9999999999999,0|0|0,1:0|0:0|1:0,0:0:0:0:
210,324,83330,2,0,P|122:288|106:190,1,200,0|0,0:0|0:0,0:0:0:0:
143,100,84554,1,0,1:0:0:0:
234,58,84962,6,0,P|291:49|339:51,2,99.9999999999999,4|0|0,0:0|1:0|0:0,0:0:0:0:
143,100,86187,1,0,1:0:0:0:
106,193,86595,2,0,P|102:246|107:298,1,99.9999999999999,0|0,0:0|1:0,0:0:0:0:
179,360,87411,2,0,L|284:365,1,99.9999999999999,0|0,0:0|1:0,0:0:0:0:
376,343,88228,1,4,0:0:0:0:
408,248,88636,6,0,L|436:147,2,99.9999999999999,0|0|0,1:0|0:0|1:0,0:0:0:0:
376,343,89860,2,0,P|287:337|220:250,2,200,0|0|4,0:0|0:0|0:0,0:0:0:0:
410,248,91901,2,0,L|417:143,1,99.9999999999999,0|0,1:0|0:0,0:0:0:0:
409,48,92718,1,0,1:0:0:0:
322,97,93126,6,0,P|277:101|221:97,1,99.9999999999999,4|0,1:0|1:0,0:0:0:0:
129,60,93942,2,0,P|87:147|136:231,1,200,0|0,1:0|1:0,0:0:0:0:
221,280,95167,1,0,1:0:0:0:
319,297,95575,2,0,B|372:288|412:258,1,99.9999999999999,0|0,1:0|1:0,0:0:0:0:
460,172,96391,6,0,P|469:116|468:70,2,99.9999999999999,0|0|0,1:0|1:0|1:0,0:0:0:0:
410,259,97616,1,0,1:0:0:0:
319,301,98024,2,0,L|215:296,1,99.9999999999999,0|0,1:0|1:0,0:0:0:0:
124,263,98840,6,0,P|87:172|129:84,1,200,0|4,1:0|1:0,0:0:0:0:
224,53,100065,1,0,1:0:0:0:
323,63,100473,2,0,P|373:86|404:123,1,99.9999999999999,0|0,1:0|1:0,0:0:0:0:
441,211,101289,2,0,L|461:329,2,99.9999999999999,0|0|0,1:0|1:0|1:0,0:0:0:0:
401,119,102513,1,0,1:0:0:0:
312,166,102922,6,0,P|269:172|212:164,1,99.9999999999999,0|0,1:0|1:0,1:0:0:0:
130,108,103738,2,0,L|71:189,1,99.9999999999999,0|0,1:0|1:0,0:0:0:0:
45,285,104554,2,0,P|71:327|115:351,1,99.9999999999999,0|0,1:0|1:0,0:0:0:0:
214,361,105371,6,0,P|300:354|366:269,1,200,0|2,1:0|0:0,0:0:0:0:
369,168,106595,1,2,0:0:0:0:
319,81,107003,2,0,L|217:83,1,99.9999999999999,2|2,0:0|0:0,0:0:0:0:
120,102,107820,1,2,0:0:0:0:
52,175,108228,2,0,B|34:229|34:229|41:278,2,99.9999999999999,2|2|2,0:0|0:0|0:0,0:0:0:0:
119,101,109452,6,0,L|218:97,1,99.9999999999999,2|2,0:0|0:0,0:0:0:0:
318,85,110269,2,0,P|414:71|448:32,2,150,2|2|2,0:0|0:0|0:0,0:0:0:0:
218,96,111901,2,0,P|174:169|189:281,1,200,2|2,0:0|0:0,0:0:0:0:
260,348,113126,5,2,0:0:0:0:
359,352,113534,2,0,P|411:341|452:313,2,99.9999999999999,2|2|2,0:0|0:0|0:0,0:0:0:0:
259,348,114758,1,2,0:0:0:0:
187,277,115167,2,0,P|172:230|175:179,1,99.9999999999999,2|2,0:0|0:0,0:0:0:0:
234,100,115983,6,0,L|317:37,2,99.9999999999999,2|2|2,0:0|0:0|0:0,0:0:0:0:
176,181,117207,2,0,L|162:228,1,50,2|4,0:0|0:0,0:0:0:0:
