osu file format v9

[General]
AudioFilename: Face of Fact.mp3
AudioLeadIn: 2018
PreviewTime: 74304
Countdown: 0
SampleSet: Soft
StackLeniency: 0.7
Mode: 0
LetterboxInBreaks: 1

[Editor]
Bookmarks: 15859,21193,22546,30082,44193,51193,109415,117193
DistanceSpacing: 1
BeatDivisor: 1
GridSize: 4

[Metadata]
Title:Face of Fact
Artist:KOTOKO
Creator:Tomicorelend
Version:Insane
Source:Baldr Force
Tags:Baldr BaldrForce GIGA game gal Tomicorelend

[Difficulty]
HPDrainRate:7
CircleSize:4
OverallDifficulty:7
ApproachRate:8
SliderMultiplier:1.8
SliderTickRate:1

[Events]
//Background and Video events
Video,0,"Opening2.flv"
0,0,"Bg4.jpg"
//Break Periods
2,16084,20467
2,106750,116467
//Storyboard Layer 0 (Background)
//Storyboard Layer 1 (Fail)
//Storyboard Layer 2 (Pass)
//Storyboard Layer 3 (Foreground)
//Storyboard Sound Samples
//Background Colour Transformations
3,100,163,162,255

[TimingPoints]
-116,444.444444444444,4,2,1,15,1,0
4661,-100,4,2,1,20,0,0
8217,-100,4,2,1,25,0,0
12657,-100,4,2,1,30,0,0
15772,-100,4,2,1,60,0,0
20768,-100,4,2,1,37,0,0
22546,-100,4,2,1,37,0,0
28102,-100,4,2,1,37,0,0
29995,-100,4,2,1,45,0,0
44193,-100,4,2,1,35,0,0
58435,-100,4,2,1,40,0,0
61991,-100,4,2,1,37,0,0
65546,-100,4,2,1,45,0,0
74193,-100,4,2,1,45,0,0
81550,-100,4,2,1,45,0,1
95657,-100,4,2,1,45,0,1
99328,-100,4,2,1,50,0,1
103102,-100,4,2,1,45,0,0
108991,-100,4,2,1,5,0,0
116748,-100,4,2,0,25,0,0
146102,-100,4,2,1,5,0,0

[Colours]
Combo1 : 255,150,0
Combo2 : 255,23,255
Combo3 : 0,0,189
Combo4 : 255,0,0

[HitObjects]
72,128,1217,1,0
156,164,1439,1,0
224,104,1661,2,0,B|180:60|128:80,2,90,0|0|0
420,48,2550,1,0
336,80,2772,1,0
404,136,2995,2,0,B|428:180|400:224,1,90
376,308,3439,5,0
292,268,3661,1,0
324,184,3883,1,0
272,108,4106,1,0
184,120,4328,1,0
152,204,4550,1,0
204,276,4772,6,0,B|160:304|108:280|108:280,1,90
36,244,5217,1,0
36,244,5328,1,0
36,244,5439,1,0
60,160,5661,2,0,B|44:104|96:40|176:76|176:76,1,180,0|2
340,44,6550,5,0
320,132,6772,1,0
404,104,6995,1,2
436,120,7106,1,0
464,144,7217,1,0
468,232,7439,1,0
468,232,7661,1,0
460,320,7884,1,2
424,332,7995,1,0
388,336,8106,1,0
308,292,8328,5,0
332,212,8550,1,0
300,128,8772,2,0,B|280:80|248:60|200:56|156:104,1,180,2|0
32,232,9661,1,2
84,308,9884,1,0
84,216,10106,1,0
32,288,10328,1,0
120,264,10550,1,2
292,136,10995,5,0
368,84,11217,1,0
440,136,11439,1,2
440,136,11550,1,0
440,136,11661,1,0
368,192,11884,1,0
292,240,12106,1,0
216,192,12328,1,2
80,56,12772,5,4
456,192,13217,1,4
80,328,13661,1,4
296,152,14106,6,0,B|368:80|368:80,1,90,2|0
216,152,14550,2,0,B|144:80|144:80,1,90,2|0
216,240,14995,2,0,B|144:304|144:304,1,90,2|0
296,240,15439,2,0,B|364:312|364:312,1,90,2|0
256,192,15884,5,4
296,111,21217,5,6
256,282,21440,1,0
215,111,21661,1,2
327,249,21884,1,0
167,173,22106,1,6
345,172,22329,1,0
186,248,22550,1,2
208,240,22661,1,0
228,232,22772,1,0
204,316,22995,5,2
124,248,23217,1,0
124,144,23439,1,8
200,72,23661,1,0
304,72,23883,1,2
384,144,24106,1,0
384,248,24328,1,8
304,316,24550,1,0
216,324,24772,5,0
152,260,24995,1,0
268,152,25217,1,0
244,239,25439,1,0
92,192,25662,1,0
179,168,25883,1,0
216,324,26106,1,0
152,260,26328,1,0
104,120,26550,6,0,B|148:120|184:104|188:92,1,90,2|4
248,44,26995,2,0,B|276:48|312:56|324:84,1,90,8|4
308,164,27439,2,0,B|368:188|392:140|392:140,2,90,2|4|8
308,164,27995,1,0
308,164,28106,1,0
124,224,28328,5,2
124,224,28550,1,2
124,224,28772,2,6,B|147:272|116:324,1,90,6|0
396,164,29217,1,2
396,164,29439,1,2
396,163,29661,2,2,B|376:116|400:75,1,90,6|0
188,36,30106,6,0,B|220:96|184:124|184:124,1,90,0|0
108,108,30550,2,0,B|88:164|136:192|136:192,1,90,8|0
216,212,30995,1,0
216,212,31106,1,0
216,212,31217,2,0,B|200:248|184:268|144:268|144:268,1,90,0|12
216,332,31661,1,0
356,284,31883,6,0,B|328:244|360:200,1,90
436,240,32328,2,0,B|464:200|432:156,1,90,8|0
356,144,32772,1,0
356,144,32883,1,0
356,144,32995,2,0,B|352:92|420:92,1,90,0|12
256,192,33439,5,12
216,48,33661,1,6
128,60,33883,6,0,B|96:88|96:148|96:148,2,90,0|8|0
176,136,34550,1,2
176,136,34661,1,0
116,204,34883,1,0
120,296,35106,1,0
120,296,35217,1,0
120,296,35328,1,0
120,296,35439,6,0,B|172:296|212:320,1,90,2|0
328,300,35883,1,12
384,228,36106,1,4
368,112,36328,1,2
336,92,36439,1,0
296,112,36550,1,0
256,192,36772,1,12
172,72,36995,1,4
204,156,37217,6,0,B|208:232|124:232,1,90,2|0
72,220,37661,2,0,B|72:156|136:156,1,90
144,244,38106,1,2
168,272,38217,1,0
244,320,38439,1,0
216,240,38661,1,0
248,220,38772,1,0
284,236,38883,1,0
312,260,38995,6,0,B|348:292|408:260|408:260,1,90,2|0
420,220,39439,2,0,B|384:192|328:208|328:208,1,90
264,152,39883,1,0
244,144,39995,1,0
224,136,40106,1,0
204,128,40217,1,0
68,48,40439,1,0
68,48,40550,1,0
68,48,40661,1,0
68,48,40772,6,0,B|108:28|152:64|152:64,1,90,2|0
224,84,41217,2,0,B|260:108|284:108|308:84|308:84,1,90
384,100,41661,1,2
384,100,41772,1,0
384,100,41883,2,0,B|384:156|336:156|336:156,1,45,0|4
184,192,42217,6,0,B|136:160|96:184,1,90
100,180,42550,1,2
100,180,42661,1,0
100,180,42772,1,0
96,272,42995,1,12
256,320,43217,1,4
316,252,43439,1,2
344,228,43550,1,0
376,248,43661,1,0
448,192,43883,2,0,B|476:236|440:284|440:284,1,90,0|4
400,196,44328,6,0,B|316:156,1,90,2|0
288,240,44772,2,0,B|200:280,1,90,0|0
176,192,45217,1,2
104,248,45439,2,0,B|36:220|28:176,1,90,0|0
104,140,45883,1,0
156,64,46106,5,2
232,112,46328,1,0
312,72,46550,2,0,B|332:56|352:44|380:56|392:72,1,90,0|0
444,144,46995,1,2
444,144,47106,1,0
352,156,47328,2,0,B|372:192|360:228|340:256|316:260,1,90
344,240,47661,1,0
268,288,47883,6,0,B|304:324|344:344|392:324|420:280,1,180,2|0
476,208,48550,1,0
388,208,48772,1,2
296,204,48995,1,0
256,216,49106,1,0
216,204,49217,1,0
128,184,49439,1,0
70,100,49661,5,0
232,48,49883,1,0
128,184,50106,1,0
132,14,50328,1,0
232,153,50550,1,0
160,100,50772,1,0
232,48,50995,2,0,B|260:36|284:52,2,45
304,256,51439,6,0,B|352:280|388:248|388:248,1,90,2|0
432,328,51883,2,0,B|384:304|348:336|348:336,1,90
256,336,52328,1,2
256,336,52439,1,0
168,324,52661,2,0,B|232:200,1,135
260,128,53217,6,0,B|308:104|344:136|344:136,1,90,2|0
300,216,53661,2,0,B|336:248|384:224,1,90
456,168,54106,2,0,B|456:167|488:131|464:83,1,90,2|0
384,40,54550,1,0
296,40,54772,1,0
208,52,54995,6,0,B|208:108|144:88|144:88,1,90,2|0
64,128,55439,2,0,B|64:184|128:164|128:164,1,90
116,252,55883,1,2
184,312,56106,1,0
252,252,56328,1,0
316,188,56550,1,0
228,192,56772,6,0,B|200:232|152:232,1,90,2|0
76,192,57217,2,0,B|104:232|152:232,1,90,0|0
152,144,57661,2,0,B|152:52|152:52,1,90,2|0
288,108,58106,5,0
428,108,58328,1,4
448,232,58550,5,6
384,296,58772,1,0
304,336,58995,1,0
304,336,59106,1,0
224,300,59328,2,0,B|236:252|292:252|292:252,2,90,4|4|2
224,300,59883,5,8
132,304,60106,1,0
84,228,60328,1,0
84,140,60550,1,0
128,60,60772,1,8
156,36,60883,1,2
192,28,60995,1,8
216,44,61106,2,0,B|248:84|248:128|192:160,1,135,2|4
232,240,61661,5,12
296,208,61883,1,12
336,132,62106,6,0,B|408:64|408:64,2,90,2|0|8
400,192,62772,1,0
344,260,62995,2,0,B|416:336|416:336,2,90,2|0|8
400,192,63661,1,0
400,192,63883,6,0,B|304:192|304:192,1,90,2|0
236,192,64328,1,8
192,112,64550,1,0
148,192,64772,2,0,B|100:280|100:280,2,90,2|0|8
192,112,65439,1,0
140,36,65661,6,0,B|108:76|108:88|136:112|136:112,1,90,6|0
148,192,66106,1,0
148,192,66217,1,4
60,196,66439,2,0,B|60:236|80:256|108:268,2,90,4|4|2
60,196,66995,1,8
148,192,67217,1,0
196,268,67439,5,0
152,348,67661,1,0
240,348,67883,1,10
276,348,67995,1,2
364,348,68217,2,0,B|364:284|304:280|304:280,2,90,0|0|2
364,348,68772,1,8
452,336,68995,1,0
420,252,69217,6,0,B|456:244|456:192|416:188,1,90
420,188,69550,1,2
420,188,69661,1,8
332,192,69883,1,0
240,196,70106,2,0,B|176:160|240:132|240:132,1,90
240,132,70439,1,2
240,132,70550,1,8
284,52,70772,1,0
376,52,70995,1,0
256,192,71106,12,0,72550
148,188,72772,5,2
160,152,72883,1,8
184,120,72995,1,2
216,108,73106,1,8
252,100,73217,1,2
364,196,73439,5,2
352,232,73550,1,8
328,264,73661,1,2
296,276,73772,1,8
260,284,73883,1,2
256,192,74106,5,12
256,192,74328,1,12
320,68,74550,5,2
408,60,74772,1,0
452,140,74995,1,0
416,220,75217,1,0
368,144,75439,1,10
368,144,75550,1,0
280,144,75772,1,0
280,144,75883,1,8
324,224,76106,1,0
324,224,76217,1,0
324,224,76328,6,0,B|236:232|236:232,1,90,2|0
208,236,76661,1,0
184,240,76772,1,0
100,192,76995,1,0
96,280,77217,2,0,B|48:328|104:376|104:376,2,90,2|0|0
96,280,77883,1,0
100,192,78106,6,0,B|125:245|170:257|170:257,2,90,2|0|0
116,104,78772,1,0
192,180,78995,1,2
256,72,79217,1,0
316,204,79439,1,0
380,56,79661,1,0
440,224,79883,5,2
420,212,79995,1,0
352,152,80217,1,0
372,144,80328,1,0
440,84,80550,1,0
352,72,80772,2,0,B|312:100|268:64|268:64,3,90,2|0|0|0
192,60,81661,5,2
172,92,81772,1,8
152,124,81883,1,2
132,156,81995,1,8
112,188,82106,1,2
164,260,82328,2,0,B|132:292,1,45,2|8
204,348,82661,2,0,B|240:308,1,45,2|8
300,344,82995,1,4
256,192,83217,1,4
320,324,83439,5,2
340,292,83550,1,8
360,260,83661,1,2
380,228,83772,1,8
400,196,83883,1,2
376,108,84106,2,0,B|336:152,1,45,2|8
316,56,84439,2,0,B|276:96,1,45,2|8
212,40,84772,1,4
256,192,84995,1,4
312,264,85217,6,0,B|352:304|392:260|392:260,1,90,2|0
468,252,85661,1,0
404,188,85883,1,0
312,188,86106,1,2
280,168,86217,1,0
236,248,86439,1,0
208,272,86550,1,0
120,292,86772,1,0
56,228,86995,2,0,B|40:184|60:132|60:132,2,90,2|0|0
120,292,87661,1,0
120,204,87883,5,2
136,168,87995,1,8
160,140,88106,1,2
188,116,88217,1,8
224,104,88328,1,2
260,96,88439,1,8
296,100,88550,1,2
264,184,88772,5,2
280,272,88995,1,0
196,244,89217,1,0
176,152,89439,1,0
184,64,89661,2,0,B|244:64|260:100|260:100,1,90,2|0
324,164,90106,1,0
348,268,90328,1,0
348,268,90439,1,0
348,268,90550,6,0,B|392:304|432:268|432:268,1,90,2|0
432,224,90883,2,0,B|388:188|348:224,1,90
352,224,91217,1,0
264,252,91439,1,2
196,192,91661,1,0
272,80,91883,1,0
284,116,91995,1,0
276,152,92106,1,0
164,72,92328,6,0,B|144:52|100:52|80:72,1,90,2|0
84,116,92661,2,0,B|104:136|148:136|168:116,1,90
200,136,92995,1,0
328,136,93217,1,2
224,208,93439,1,0
264,88,93661,1,0
296,208,93883,1,0
264,292,94106,6,0,B|224:332|184:296,2,90,2|0|0
264,292,94772,1,0
320,328,94995,5,2
344,300,95106,1,8
360,268,95217,1,2
376,236,95328,1,8
392,204,95439,1,2
396,168,95550,1,8
392,132,95661,1,2
200,56,95883,5,2
172,80,95995,1,8
152,108,96106,1,2
136,140,96217,1,8
128,176,96328,1,2
104,264,96550,2,0,B|52:284,1,45,2|8
144,320,96883,2,0,B|188:340,1,45,2|8
276,348,97217,1,4
364,344,97439,1,4
432,232,97661,5,2
452,200,97772,1,8
460,164,97883,1,2
456,128,97995,1,8
440,96,98106,1,2
352,112,98328,2,0,B|368:164,1,45,2|8
276,144,98661,2,0,B|216:160,1,45,2|8
188,232,98995,1,4
256,292,99217,1,4
344,288,99439,6,0,B|376:280|400:268|412:232,2,90,2|0|0
256,292,100106,1,0
188,232,100328,2,0,B|152:224|140:196|140:164,2,90,2|0|0
256,172,100995,1,0
344,172,101217,5,2
344,136,101328,1,0
432,128,101550,1,0
432,92,101661,1,0
352,48,101883,1,0
260,48,102106,2,0,B|196:56|188:100|188:100,1,90
200,184,102550,2,0,B|172:244|128:240|128:240,1,90
56,192,102995,1,2
256,192,103106,12,0,106550
100,80,117217,5,0
188,80,117439,1,0
276,80,117661,2,0,B|372:80,1,90,2|0
404,160,118106,1,0
336,216,118328,1,0
268,272,118550,2,0,B|192:336,1,90,2|0
136,268,118995,2,0,B|80:268|80:212,2,90,0|0|2
136,268,119661,1,0
184,192,119883,6,0,B|96:152,1,90,0|0
184,192,120328,2,0,B|184:104,1,90,2|0
184,192,120772,2,0,B|268:160,1,90,0|0
312,80,121217,1,10
400,92,121439,1,8
460,248,121883,5,0
400,316,122106,1,2
312,328,122328,1,0
220,332,122550,2,0,B|176:368|136:332,2,90,0|0|2
220,332,123217,1,0
268,256,123439,2,0,B|301:218|265:174,2,90,0|0|2
128,144,124328,6,0,B|176:112|208:148,2,90,0|0|2
128,144,124995,1,0
128,240,125217,2,0,B|176:272|208:236,2,90,0|0|2
128,240,125883,1,0
128,144,126106,6,0,B|144:88|192:92,1,90,0|0
264,40,126550,1,2
332,100,126772,1,0
400,160,126995,2,0,B|400:208|372:248,1,90
308,304,127439,2,0,B|267:345|218:309,1,90,2|0
152,264,127883,2,0,B|116:228|124:180,1,90
180,112,128328,5,10
244,48,128550,1,8
336,80,128995,5,0
400,136,129217,1,2
332,196,129439,2,0,B|348:248|336:284,1,90
336,284,129883,1,0
244,248,130106,2,0,B|256:296|224:332,1,90,2|0
224,332,130550,1,0
156,272,130772,2,0,B|108:296|68:276,1,90,0|2
68,276,131217,1,0
160,156,131439,6,0,B|200:176|248:156,2,90,0|0|2
160,156,132106,1,0
160,68,132328,2,0,B|120:48|72:68,2,90,0|0|2
160,68,132995,1,0
248,68,133217,6,0,B|248:248,1,180,0|2
244,336,133883,2,0,B|188:332|180:284,2,90
328,308,134550,2,0,B|416:284,1,90,2|0
464,208,134995,1,0
380,172,135217,1,0
456,120,135439,1,2
376,80,135661,1,0
260,216,136106,5,0
232,300,136328,1,2
144,320,136550,1,0
56,324,136772,2,0,B|12:292|44:244,1,90
104,180,137217,2,0,B|148:148|116:100,1,90,2|0
292,60,137883,5,8
380,60,138106,1,10
256,192,138550,6,0,B|200:164|144:188|132:244|152:276,1,180,0|2
224,328,139217,1,0
348,192,139661,1,8
436,192,139883,1,10
256,192,140328,6,0,B|200:220|144:196|132:140|152:108,1,180,0|2
228,60,140995,1,0
348,192,141439,1,8
436,192,141661,1,10
256,192,142106,5,0
180,144,142328,1,0
96,112,142550,2,0,B|72:160|96:200,1,90,2|0
132,280,142995,1,0
208,324,143217,1,0
296,328,143439,2,0,B|352:340|376:304,1,90,2|0
416,224,143883,5,0
416,132,144106,1,0
352,68,144328,1,2
264,68,144550,1,0
272,156,144772,2,0,B|264:188|248:208|200:204,1,90
120,192,145217,1,2
120,192,145439,1,0
256,192,145661,12,0,149217
