osu file format v7

[General]
AudioFilename: 01 - daily-daily Dream.mp3
AudioLeadIn: 0
PreviewTime: 73587
Countdown: 0
SampleSet: Normal
StackLeniency: 0.8
Mode: 0
LetterboxInBreaks: 1

[Editor]
DistanceSpacing: 1
BeatDivisor: 4
GridSize: 8

[Metadata]
Title:Daily-daily Dream
Artist:KOTOKO
Creator:Kotomi-chan
Version:New Butler
Source:Hayate no Gotoku!
Tags:combat butler yongtw123

[Difficulty]
HPDrainRate:2
CircleSize:3
OverallDifficulty:3
SliderMultiplier:1
SliderTickRate:1

[Events]
//Background and Video events
0,0,"BG.jpg"
//Break Periods
2,25907,27091
2,28731,29914
2,31554,32738
2,102143,108973
2,121907,125914
2,155790,165444
//Storyboard Layer 0 (Background)
//Storyboard Layer 1 (Fail)
//Storyboard Layer 2 (Pass)
//Storyboard Layer 3 (Foreground)
//Storyboard Sound Samples
//Background Colour Transformations
3,100,163,162,255

[TimingPoints]
5943,352.941176470588,4,1,0,52,1,0
73693,-100,4,1,0,38,0,1
96281,-100,4,1,0,38,0,1
101928,-100,4,1,0,38,0,0
172517,-100,4,1,0,38,0,1
181693,-100,4,1,0,38,0,0

[Colours]
Combo1 : 28,192,255
Combo2 : 247,240,111

[HitObjects]
256,184,11590,1,4
256,184,13001,1,0
256,184,14413,1,4
256,184,15825,6,0,B|48:184,2,200
432,184,17943,1,0
256,184,18648,1,0
256,184,19354,5,0
80,184,20060,1,0
256,184,20766,1,0
256,184,21472,6,0,B|256:304,2,100
256,104,22531,1,0
336,104,22884,6,0,B|440:104,1,100
440,184,23590,2,0,B|440:304,1,100
360,280,24295,2,0,B|248:280,2,100
360,280,25354,1,0
360,280,25707,1,4
256,192,28531,5,4
256,184,31354,5,4
352,312,34178,6,0,B|144:312,1,200
152,208,35590,2,0,B|360:208,1,200
352,104,37001,2,0,B|144:104,1,200
352,104,39119,5,2
352,104,39472,1,2
352,104,39825,5,4
152,104,40531,1,0
152,296,41237,1,0
352,296,41943,1,0
352,200,42295,1,0
352,104,42648,5,4
152,104,43354,1,0
352,104,44060,1,0
352,304,44766,2,0,B|240:304,1,100,0|0
248,200,45472,6,0,B|96:200,2,150,4|0|0
248,96,46884,2,0,B|96:96,2,150
248,192,48295,6,0,B|144:192,2,100
248,296,49354,2,0,B|136:296,2,100
328,240,50413,1,2
328,240,50766,1,2
408,176,51119,6,2,B|408:328,1,150,4|2
256,328,52178,6,0,L|144:328,4,100
256,224,53943,6,2,B|432:224,1,150
416,72,55001,5,0
320,72,55354,1,0
224,72,55707,1,0
128,72,56060,1,0
128,176,56413,1,0
224,176,56766,6,0,B|224:328,2,150,4|0|0
224,72,58178,1,0
328,72,58531,2,0,B|328:176,2,100,0|0|0
432,72,59590,5,4
432,224,60119,1,0
432,224,60295,2,0,B|432:160|344:160,1,100,2|0
264,160,61001,5,2
64,160,61707,1,2
264,160,62413,5,6
360,160,62766,2,0,B|424:160,1,50,0|4
416,312,63472,5,0
320,312,63825,1,0
216,312,64178,1,0
320,312,64531,1,0
216,312,64884,1,0
216,208,65237,6,0,B|216:56,1,150,4|0
368,64,66295,6,0,B|368:176,4,100
264,64,68060,5,0
264,160,68413,1,0
264,272,68766,1,0
264,272,68943,1,0
368,272,69295,2,0,B|416:304|464:272,2,100
368,272,70178,1,0
264,272,70531,1,0
264,272,70884,5,2
136,192,71413,1,2
256,104,71943,1,2
352,136,72295,1,4
352,136,72648,5,0
352,136,73001,1,0
352,136,73354,1,0
280,72,73707,5,4
208,112,74060,2,0,B|128:208|224:288,1,200,0|0
304,232,75119,6,0,B|352:280|448:280,1,150
456,104,76354,5,0
408,104,76531,2,0,B|416:192|288:192,1,150,0|0
160,192,77590,5,0
160,192,77943,2,2,B|40:192,2,100
256,192,79001,1,2
360,192,79354,6,0,B|424:264|360:344,1,150,4|0
200,320,80413,6,0,B|120:256|192:136,1,200
216,96,81295,1,0
336,48,82178,6,0,B|456:48,2,100
288,48,83060,1,0
192,48,83413,5,0
128,48,83590,2,0,B|8:48,4,100,0|2|0|2|0
232,48,85354,5,2
336,48,85707,1,0
432,48,86060,1,2
432,144,86413,2,0,B|432:264|296:264,2,200
328,144,88178,5,2
232,144,88531,1,0
128,144,88884,1,2
128,40,89237,1,2
280,40,89766,2,0,B|360:72|360:176,1,150,0|0
368,256,90648,5,2
368,256,91001,1,0
368,256,91354,1,2
240,256,91707,5,0
240,152,92060,2,0,B|360:152,2,100,2|0|2
136,152,93119,5,0
136,256,93472,1,2
240,256,93825,1,0
256,192,94178,12,4,96295
368,144,96825,6,0,B|256:144,1,100,2|0
160,248,97707,5,0
160,248,97884,1,0
256,248,98237,2,0,B|368:248,1,100,2|0
392,216,98766,6,0,B|464:216,2,50
360,184,99295,2,0,B|240:184,1,100,0|4
256,192,99825,12,4,101943
56,64,110413,5,2
56,168,110766,1,0
56,264,111119,1,2
256,264,111825,5,2
456,264,112531,1,2
456,264,113237,5,2
360,264,113590,1,0
256,264,113943,1,2
256,264,114648,5,2
56,264,115354,1,2
160,168,116060,5,2
56,168,116413,1,0
56,264,116766,1,2
160,264,117119,1,0
56,264,117472,5,2
56,160,117825,1,0
160,160,118178,1,2
160,264,118531,1,0
256,264,118884,5,2
256,64,119590,1,2
256,264,120295,5,2
360,264,120648,1,0
464,264,121001,1,2
360,264,121354,1,0
256,264,121707,1,4
192,232,127354,5,0
192,232,128060,1,0
392,232,128766,5,0
392,232,129472,1,0
392,232,130178,5,0
392,128,130531,1,2
288,128,130884,5,0
240,128,131060,1,2
144,128,131413,1,0
112,168,131590,1,2
120,264,131943,1,0
160,296,132119,1,2
264,296,132472,1,0
312,280,132648,1,2
400,232,133001,6,0,B|400:128,1,100,4|0
400,80,133531,1,2
248,80,134060,6,0,B|128:80,4,100,0|2|0|2|0
352,80,135825,6,0,B|352:184,1,100,0|2
352,232,136354,2,0,L|192:232,1,150
200,128,137237,6,0,L|88:128,3,100,2|0|2|0
200,128,138648,5,0
200,232,139001,1,2
200,128,139354,1,0
200,232,139707,1,2
296,232,140060,2,0,B|296:128,2,100,0|2|0
216,176,141119,1,2
144,128,141472,6,2,B|64:128|64:240,1,150
112,232,142178,2,0,B|232:232,6,100,0|2|0|2|0|2|4
112,128,144648,5,2
160,128,144825,2,0,L|312:128,1,150,2|0
384,144,147119,2,0,B|384:208|384:320,1,150,2|0
192,136,149943,5,0
192,136,150648,1,0
304,248,151354,5,0
304,248,152060,1,0
224,248,152413,5,2
224,248,152766,5,2
224,96,153295,1,2
224,248,153825,5,2
120,248,154178,1,6
120,144,154531,5,0
120,144,154884,1,0
120,144,155237,1,0
120,144,155590,1,4
256,272,166884,5,0
256,144,167237,1,2
256,272,167590,1,0
256,144,167943,1,2
256,272,168295,1,4
128,272,168648,5,0
128,144,169001,1,0
256,144,169354,1,0
384,144,169707,5,2
256,144,170060,1,0
128,144,170413,1,6
128,272,170766,1,0
256,272,171119,1,2
256,272,171295,2,0,B|328:272|376:272,1,100,2|4
440,272,172531,5,2
336,272,172884,1,0
336,168,173237,1,2
336,272,173590,1,0
336,168,173943,1,2
240,168,174295,5,0
136,168,174648,1,2
192,256,175001,1,0
136,168,175354,1,2
72,96,175707,1,0
256,192,176060,12,4,178178
104,128,178884,6,0,B|104:248,1,100,2|0
208,232,179590,2,0,B|208:336,2,100,2|0|2
312,128,180648,2,0,B|312:176|312:232,2,100,0|2|0
256,192,181707,12,4,183825
