osu file format v7

[General]
AudioFilename: 01 - daily-daily Dream.mp3
AudioLeadIn: 0
PreviewTime: 73587
Countdown: 0
SampleSet: Normal
StackLeniency: 0.7
Mode: 0
LetterboxInBreaks: 1

[Editor]
DistanceSpacing: 1.5
BeatDivisor: 4
GridSize: 8

[Metadata]
Title:Daily-daily Dream
Artist:KOTOKO
Creator:Kotomi-chan
Version:Combat Butler
Source:Hayate no Gotoku!
Tags:combat butler yongtw123

[Difficulty]
HPDrainRate:7
CircleSize:5
OverallDifficulty:7
SliderMultiplier:1
SliderTickRate:1

[Events]
//Background and Video events
0,0,"BG.jpg"
//Break Periods
2,23084,27631
2,102143,109513
2,184025,185748
//Storyboard Layer 0 (Background)
//Storyboard Layer 1 (Fail)
//Storyboard Layer 2 (Pass)
//Storyboard Layer 3 (Foreground)
//Storyboard Sound Samples
//Background Colour Transformations
3,100,163,162,255

[TimingPoints]
5943,352.941176470588,4,1,1,52,1,0
73693,-100,4,1,1,40,0,1
96281,-100,4,1,1,40,0,1
101928,-100,4,1,1,40,0,0
110237,-100,4,1,1,37,0,0
121619,-100,4,1,1,40,0,0
126987,-100,4,1,1,40,0,0
154340,-100,4,2,1,40,0,0
166870,-100,4,1,1,40,0,0
172693,-100,4,1,1,40,0,1
183811,-100,4,1,1,40,0,0
206501,-100,4,1,1,0,0,0

[Colours]
Combo1 : 28,192,255
Combo2 : 247,240,111

[HitObjects]
256,48,16001,1,0
184,56,16178,1,0
128,104,16354,1,0
104,176,16531,1,0
128,248,16707,1,0
184,296,16884,1,0
256,312,17060,1,0
328,312,17237,6,0,B|392:312,2,50
256,312,17766,2,0,B|136:312,1,100
88,272,18295,1,2
160,240,18472,1,0
160,240,18648,6,0,B|160:176,2,50
232,240,19178,1,2
160,240,19354,1,0
88,240,19531,1,0
160,240,19707,1,2
232,240,19884,1,2
304,240,20060,6,0,B|368:240,2,50
304,168,20590,2,0,B|304:80|200:80,1,150,2|0
128,80,21295,5,0
80,136,21472,1,2
112,200,21648,1,0
160,256,21825,5,0
232,256,22001,2,0,B|344:256,1,100,2|0
408,256,22531,5,2
408,184,22707,1,0
408,256,22884,1,4
96,160,28531,6,0,B|96:72|208:72,1,150
344,72,29413,1,0
344,72,29590,1,2
344,144,29766,1,0
344,216,29943,6,0,B|344:320|232:320,1,150
104,312,30825,1,0
104,240,31001,1,2
104,312,31178,1,0
176,312,31354,6,0,B|176:136,1,150
328,160,32237,1,0
328,160,32413,1,2
328,160,32590,1,0
328,160,32766,5,0
176,160,33119,1,2
328,160,33472,1,0
176,160,33825,1,2
328,160,34178,5,0
400,160,34354,1,2
400,160,34531,1,0
400,160,34707,2,0,B|400:280|304:280,1,150,0|2
272,232,35413,1,0
216,280,35590,6,0,B|136:248|136:136,1,150
136,88,36295,1,0
208,88,36472,1,0
280,88,36648,1,2
432,88,37001,5,4
128,88,37707,1,0
280,344,38413,5,0
280,272,38590,1,0
352,304,38766,1,8
344,232,38943,1,0
416,256,39119,1,0
408,184,39295,1,0
480,208,39472,1,8
472,136,39648,1,0
408,96,39825,6,0,B|408:32,2,50,0|0|8
336,96,40354,2,0,B|336:32,2,50
336,168,40884,1,8
336,240,41060,2,0,B|336:320|272:320,2,100,0|0|0
336,168,41943,1,0
224,64,42295,1,4
72,128,42648,6,0,B|72:192,1,50
136,224,43001,2,0,B|136:296,2,50,8|0|0
176,160,43531,2,0,B|176:88,2,50,0|8|0
248,160,44060,2,0,B|320:160,1,50,0|0
336,224,44413,1,8
408,192,44590,1,0
480,224,44766,2,0,B|480:328,1,100,0|8
328,320,45472,6,0,B|224:320,1,100,0|8
184,256,46001,2,0,B|296:256,1,100,0|0
296,184,46531,2,0,B|184:184,1,100,8|0
128,184,47060,2,0,B|128:112,1,50,0|8
128,56,47413,1,0
200,56,47590,2,0,B|312:56,1,100,0|8
360,80,48119,1,0
360,152,48295,6,0,B|432:152,2,50,0|0|8
360,224,48825,2,0,B|360:288,2,50,0|0|0
360,152,49354,2,0,B|248:152,1,100,8|0
224,88,49884,2,2,B|336:88,1,100,2|2
400,88,50413,1,2
400,240,50766,1,2
248,240,51119,6,2,B|136:240,1,100
72,240,51648,1,6
256,192,51825,12,4,53590
256,120,53943,6,2,B|256:224,1,100
256,296,54472,1,6
256,192,54648,12,4,56413
144,56,56766,6,0,B|80:48,2,50,0|0|8
216,64,57295,2,0,B|192:112,2,50,0|0|0
288,56,57825,1,8
288,56,58001,2,0,B|368:128,2,100,0|0|0
248,120,58884,2,0,B|248:224,1,100,0|8
320,224,59413,1,0
392,224,59590,6,0,B|392:296|328:296,1,100,2|0
320,224,60119,1,0
272,280,60295,2,0,B|199:282|199:202,1,100,2|2
192,152,60825,5,0
144,80,61001,1,2
192,152,61178,1,0
144,80,61354,1,2
104,152,61531,1,0
144,80,61707,1,2
104,152,61884,1,0
56,80,62060,1,2
104,152,62237,1,0
32,152,62413,6,0,B|32:256,1,100,2|0
104,256,62943,2,2,B|272:256,1,150
328,256,63648,5,0
400,256,63825,1,0
328,256,64001,1,0
240,256,64178,1,0
160,256,64354,1,0
240,256,64531,1,2
240,168,64707,1,0
192,88,64884,1,2
192,88,65060,1,0
120,136,65237,6,0,B|120:256,1,100,2|0
184,280,65766,2,2,B|184:160,1,100
184,104,66295,6,0,B|184:40,2,50,0|0|2
264,104,66825,1,2
320,152,67001,1,0
336,224,67178,1,2
280,272,67354,1,2
208,256,67531,1,2
176,184,67707,1,2
192,112,67884,1,0
192,40,68060,5,0
120,32,68237,1,0
72,88,68413,1,8
104,160,68590,1,0
192,160,68766,1,0
192,160,68943,2,0,B|240:192|288:160,2,100,0|0|8
136,112,69825,1,8
200,88,70001,1,0
200,88,70178,2,0,B|320:88,1,100,0|8
464,192,70884,5,2
256,344,71237,5,0
256,344,71413,1,2
40,192,71766,5,0
40,192,71943,1,2
256,192,72295,5,6
256,192,72648,1,0
256,192,73001,1,0
256,192,73354,1,0
256,40,73707,5,2
304,104,73884,1,0
376,128,74060,1,0
376,128,74237,2,0,B|432:152|432:224,1,100,0|2
360,200,74766,1,2
320,264,74943,1,2
392,296,75119,2,0,B|368:336|304:336,1,100
232,336,75648,2,0,B|160:336|120:304,1,100
72,280,76178,5,2
136,240,76354,1,2
136,240,76531,2,0,B|136:160|136:136,1,100
64,136,77060,2,0,B|80:68|184:52,1,150,0|0
256,56,77766,1,0
328,56,77943,2,2,B|448:56,2,100
256,56,78825,1,0
176,56,79001,1,2
120,104,79178,1,0
80,168,79354,6,0,B|24:216|72:272,1,100,4|0
128,224,79884,1,0
208,224,80060,1,2
128,224,80237,1,2
208,224,80413,1,2
256,280,80590,5,0
296,224,80766,2,0,B|416:224,1,100,0|0
400,296,81295,1,0
456,248,81472,1,2
456,168,81648,1,2
456,248,81825,1,2
456,168,82001,1,2
456,96,82178,6,0,B|336:96,2,100,0|2|0
456,160,83060,2,0,B|344:160,1,100,0|2
288,160,83590,2,0,B|224:160|224:96,2,100,0|2|0
288,280,84648,1,2
288,160,85001,5,4
136,160,85354,1,2
136,312,85707,1,0
288,312,86060,1,2
288,160,86413,5,2
360,152,86590,1,2
336,224,86766,1,2
264,224,86943,1,2
216,168,87119,1,0
240,96,87295,1,2
176,48,87472,1,2
104,80,87648,1,2
104,144,87825,6,0,B|106:264,1,100,2|0
184,232,88354,1,0
256,208,88531,2,0,B|256:312,1,100,2|0
328,312,89060,1,0
400,296,89237,2,2,B|400:264|360:240,1,50,2|0
312,208,89590,1,0
256,264,89766,2,0,B|208:248|168:200|152:144,1,150,2|0
144,80,90472,1,0
72,80,90648,6,0,B|72:184,1,100,2|0
72,256,91178,1,2
144,256,91354,2,0,B|144:328,1,50,0|2
216,304,91707,1,0
288,304,91884,1,0
216,304,92060,1,2
288,304,92237,2,0,B|392:304,2,100,0|2|0
216,304,93119,5,0
160,256,93295,1,2
216,208,93472,1,0
160,160,93648,2,0,B|56:160,2,100,0|2|0
216,112,94531,1,0
216,40,94707,6,0,B|104:40,1,100,2|0
120,112,95237,1,0
120,184,95413,2,0,B|120:296,1,100,2|0
192,280,95943,1,0
264,280,96119,1,0
336,280,96295,6,0,B|336:176,1,100,2|0
336,104,96825,2,0,B|224:104,1,100,2|0
160,104,97354,1,0
160,32,97531,1,0
160,104,97707,2,0,B|160:224,1,100,2|0
232,200,98237,2,0,B|352:200,1,100,2|0
408,200,98766,5,0
368,136,98943,1,0
368,136,99119,1,2
328,200,99295,2,0,B|208:200,1,100,2|4
256,192,99825,12,4,101943
192,96,110413,6,0,B|120:96,2,50,2|0|0
264,96,110943,2,0,B|376:96,1,100,2|0
440,96,111472,1,0
440,168,111648,2,0,B|336:168,1,100,2|0
264,168,112178,1,0
192,168,112354,2,0,B|88:168,1,100,2|0
96,96,112884,6,0,B|24:96,1,50,0|0
96,96,113237,2,0,B|168:96,2,50,2|0|0
96,168,113766,2,0,B|208:168,1,100,2|0
272,168,114295,1,0
272,240,114472,2,0,B|272:304,2,50,2|0|0
272,168,115001,1,0
272,96,115178,2,0,B|272:56,2,25,2|0|2
336,128,115531,1,0
272,168,115707,2,0,B|200:168,1,50,2|0
144,168,116060,6,0,B|144:96,2,50,2|0|0
200,216,116590,2,0,B|256:216,2,50,2|0|2
152,272,117119,1,0
96,216,117295,2,0,B|40:216,2,50,2|2|0
144,160,117825,1,2
144,88,118001,1,2
200,48,118178,5,2
200,48,118266,1,0
200,48,118354,1,0
272,48,118531,1,2
272,48,118619,1,0
272,48,118707,1,0
320,112,118884,6,0,B|320:168,2,50,2|0|0
248,160,119413,2,0,B|248:88,2,50,2|0|2
184,200,119943,1,0
248,240,120119,2,0,B|360:240,1,100,2|0
344,168,120648,1,0
408,120,120825,2,0,B|408:48,2,50,2|0|0
464,168,121354,1,2
408,216,121531,1,2
352,264,121707,6,0,B|232:264,2,100,2|0|0
408,216,122590,1,0
344,184,122766,1,2
344,184,122943,1,0
272,184,123119,6,0,B|168:184,2,100,0|0|0
296,112,124001,1,0
352,64,124178,1,2
296,112,124354,1,0
240,64,124531,6,0,B|168:64,1,50,0|2
152,128,124884,1,0
112,192,125060,2,0,B|112:256,1,50,2|0
120,320,125413,2,0,B|176:344,1,50,2|0
240,328,125766,1,2
224,256,125943,2,0,B|320:216,2,100,0|2|0
176,200,126825,1,0
120,256,127001,1,2
120,256,127178,5,0
80,192,127354,1,0
120,128,127531,1,0
192,112,127707,1,8
264,120,127884,2,0,B|328:120,2,50
192,112,128413,5,8
264,120,128590,1,0
192,112,128766,1,0
120,120,128943,2,0,B|48:120,2,50,0|8|0
176,176,129472,2,0,B|240:176,2,50,0|0|8
120,224,130001,2,0,B|56:224,2,50
208,224,130531,5,2
40,224,130884,5,0
80,152,131060,1,2
192,64,131413,5,0
280,64,131590,1,2
392,128,131943,5,0
424,224,132119,1,2
376,304,132295,1,0
376,304,132472,5,2
288,352,132648,1,2
208,304,132825,1,2
144,232,133001,6,0,B|24:232,1,100,2|0
48,160,133531,1,6
256,192,133707,12,4,135472
112,120,135825,6,0,B|112:224,1,100,2|0
112,296,136354,1,6
256,192,136531,12,4,138295
344,96,138648,5,0
288,48,138825,1,0
344,96,139001,1,8
416,96,139178,1,0
416,96,139354,2,0,B|416:24,2,50,0|0|8
416,168,139884,2,0,B|416:272,2,100
344,168,140766,2,0,B|224:168,1,100,0|8
168,168,141295,1,0
96,168,141472,6,2,B|96:264|192:264,1,150
264,264,142178,2,2,B|368:264|368:176,1,150
368,112,142884,5,2
440,112,143060,1,2
368,112,143237,1,2
440,112,143413,1,0
440,184,143590,1,0
416,256,143766,1,2
360,304,143943,1,2
288,280,144119,1,2
232,232,144295,6,0,B|232:128,1,100,2|0
232,56,144825,1,6
256,192,145001,12,4,146766
256,144,147119,6,0,B|256:88,2,50
256,216,147648,1,4
256,192,147825,12,0,149590
192,160,149943,6,0,B|128:160,2,50,0|0|8
320,160,150472,2,0,B|384:160,2,50
256,172,151001,5,8
256,240,151178,2,0,B|256:312,2,50
256,172,151707,1,8
256,104,151884,2,0,B|256:40,2,50,2|0|2
256,176,152413,1,10
256,344,152766,5,2
384,80,153119,5,0
456,48,153295,1,2
120,88,153648,5,0
48,40,153825,1,2
256,88,154178,5,6
256,192,154354,12,4,155590
128,120,155943,5,0
200,120,156119,2,0,B|280:88|368:128,1,150,2|0
304,184,156825,1,0
232,208,157001,2,0,B|240:264|320:272,1,100,6|0
368,232,157531,2,0,B|392:296|328:336,1,100,2|0
288,280,158060,1,0
216,280,158237,1,0
152,320,158413,6,0,B|88:328|64:248,1,100,6|0
56,200,158943,1,2
56,200,159119,2,2,B|56:144|112:112,1,100,0|2
248,80,159825,2,4,B|368:80,1,100,0|4
496,80,160531,1,0
344,80,160884,1,4
192,80,161237,6,0,B|192:184,1,100,2|0
192,256,161766,2,0,B|312:256|312:120,1,200,4|0
312,56,162648,2,0,B|192:56,1,100,4|0
208,128,163178,2,0,B|64:128|64:296,1,250,4|4
216,288,164413,1,2
320,184,164766,1,0
248,184,164943,1,4
216,56,165295,1,4
256,192,165472,12,0,166884
368,88,167237,5,2
368,272,167590,1,0
144,272,167943,1,2
144,88,168295,1,4
256,192,168384,12,6,169707
256,64,170060,5,0
120,184,170413,1,6
256,320,170766,1,0
400,184,171119,1,2
376,112,171295,5,2
304,80,171472,1,0
256,136,171648,1,2
208,192,171825,1,2
152,248,172001,1,0
96,192,172178,1,2
48,128,172354,1,2
104,80,172531,5,2
176,40,172707,2,0,B|176:152,2,100,2|2|2
248,80,173590,2,0,B|248:16,2,50,0|2|0
248,152,174119,2,0,B|248:272,2,100,2|2|2
248,80,175001,5,0
312,112,175178,1,2
352,176,175354,1,0
360,248,175531,2,0,B|240:248,1,100,2|4
184,248,176060,5,2
112,248,176237,1,2
56,200,176413,1,0
48,128,176590,1,2
96,64,176766,1,0
176,56,176943,1,2
240,112,177119,1,0
248,192,177295,2,0,B|248:264,1,50,2|0
320,240,177648,5,2
248,242,177825,1,2
320,240,178001,1,2
248,242,178178,5,4
176,240,178354,2,0,B|176:360,2,100,0|2|0
184,168,179237,1,2
280,128,179413,1,0
376,144,179590,1,2
432,224,179766,2,0,B|432:328,2,100,0|2|0
392,152,180648,5,2
304,112,180825,1,0
216,96,181001,1,2
120,104,181178,2,0,B|56:112|16:152,1,100,2|6
256,192,181707,12,4,183825
96,112,186648,6,0,L|136:80|184:112,2,100
96,224,187707,1,2
248,224,188060,2,0,L|288:256|336:216,2,100
96,224,189119,1,2
168,96,189472,5,0
320,96,189825,1,2
320,248,190178,1,0
168,248,190531,1,2
168,208,190619,1,0
168,168,190707,1,0
168,96,190884,5,0
256,216,191237,1,2
344,96,191590,1,0
432,216,191943,1,2
392,216,192031,1,0
352,216,192119,1,0
352,288,192295,5,0
200,288,192648,1,2
128,288,192825,1,0
200,288,193001,1,2
128,288,193178,1,0
56,288,193354,1,2
56,288,193443,1,0
56,288,193531,1,0
56,216,193707,5,0
56,144,193884,1,0
56,80,194060,1,2
120,104,194237,1,0
184,80,194413,1,2
248,112,194590,1,0
304,80,194766,1,2
304,80,194854,1,0
304,80,194943,1,0
368,120,195119,5,0
416,208,195295,1,2
384,304,195472,1,0
288,336,195648,1,2
192,312,195825,1,0
136,232,196001,1,2
152,136,196178,1,2
152,136,196354,1,6
152,136,196531,1,2
216,96,196707,5,0
288,88,196884,1,2
360,96,197060,1,0
344,160,197237,1,2
408,232,197413,1,0
344,160,197590,1,2
272,232,197766,1,2
272,232,197943,5,6
184,280,198119,1,0
112,216,198295,1,2
40,144,198472,1,0
112,80,198648,5,2
184,144,198825,1,0
112,216,199001,1,2
112,216,199178,5,2
112,216,199354,1,2
184,280,199531,1,4
256,208,199707,5,2
256,112,199884,1,2
256,112,200060,1,0
352,80,200237,1,2
352,80,200413,1,0
432,136,200590,1,2
432,136,200766,1,2
416,232,200943,1,2
416,232,201119,5,6
256,352,201472,1,0
96,224,201825,1,0
256,88,202178,1,4
256,88,202531,5,0
256,184,202707,1,0
256,288,202884,1,0
256,184,203060,1,0
256,88,203237,1,0
256,184,203413,1,0
256,288,203590,1,4
144,192,203943,6,0,L|88:192,2,50
176,128,204472,2,0,L|176:72,2,50
248,128,205001,1,0
248,200,205178,2,0,L|248:264,3,50
248,328,205884,2,0,L|248:360,6,25
256,192,206590,12,0,213825
