osu file format v7

[General]
AudioFilename: 01 - daily-daily Dream.mp3
AudioLeadIn: 0
PreviewTime: 73587
Countdown: 0
SampleSet: Normal
StackLeniency: 0.7
Mode: 0
LetterboxInBreaks: 1

[Editor]
DistanceSpacing: 1.29999995231628
BeatDivisor: 4
GridSize: 8

[Metadata]
Title:Daily-daily Dream
Artist:KOTOKO
Creator:Kotomi-chan
Version:Butler
Source:Hayate no Gotoku!
Tags:combat butler yongtw123

[Difficulty]
HPDrainRate:2
CircleSize:4
OverallDifficulty:5
SliderMultiplier:1
SliderTickRate:1

[Events]
//Background and Video events
0,0,"BG.jpg"
//Break Periods
2,23084,27331
2,102143,109213
2,155790,164095
//Storyboard Layer 0 (Background)
//Storyboard Layer 1 (Fail)
//Storyboard Layer 2 (Pass)
//Storyboard Layer 3 (Foreground)
//Storyboard Sound Samples
//Background Colour Transformations
3,100,163,162,255

[TimingPoints]
5943,352.941176470588,4,1,1,52,1,0
73693,-100,4,1,1,41,0,1
96281,-100,4,1,1,41,0,1
101928,-100,4,1,1,41,0,0
172693,-100,4,1,1,41,0,1
183811,-100,4,1,1,41,0,0

[Colours]
Combo1 : 28,192,255
Combo2 : 247,240,111

[HitObjects]
256,192,11590,1,4
56,192,12295,1,0
256,192,13001,1,0
456,192,13707,1,0
256,192,14413,1,4
248,280,16001,5,0
296,264,16178,1,0
328,224,16354,1,0
336,176,16531,1,0
312,128,16707,1,0
264,104,16884,1,0
216,104,17060,1,0
168,104,17237,6,0,B|96:104,2,50,4|0|0
168,104,17766,1,0
272,104,18119,2,0,B|272:256,1,150
272,254,18825,5,0
272,254,19001,1,0
272,254,19178,1,0
176,248,19531,6,0,B|88:248|88:144,1,150,0|0
88,96,20237,2,0,B|160:96,2,50
88,96,20943,1,0
80,272,21472,6,0,B|80:344,2,50
80,272,22001,1,0
80,272,22354,1,0
80,168,22707,1,0
80,120,22884,1,4
256,80,28531,5,4
336,136,28884,1,0
336,232,29237,1,0
256,288,29590,1,2
256,288,29943,5,0
168,232,30295,1,0
168,128,30648,1,0
256,80,31001,1,2
344,128,31354,5,0
344,128,31531,1,0
344,128,31707,1,0
344,224,32060,5,0
344,128,32413,1,2
256,80,32766,5,0
168,128,33119,1,0
168,224,33472,5,0
168,128,33825,1,2
272,128,34178,5,0
272,224,34531,1,0
376,224,34884,2,0,B|376:344,1,100,0|2
272,328,35590,5,0
272,328,35766,1,0
272,328,35943,1,0
272,224,36295,2,0,B|272:112,1,100,0|2
168,120,37001,1,0
168,168,37178,1,0
216,168,37354,1,0
216,216,37531,1,0
312,216,37884,5,0
400,216,39119,5,2
400,96,39472,1,2
400,96,39825,5,0
320,96,40178,1,0
240,96,40531,1,0
160,96,40884,1,0
80,96,41237,1,0
80,136,41413,2,0,B|80:248,1,100
80,272,41943,1,0
160,272,42295,1,4
240,272,42648,5,0
328,272,43001,1,0
240,272,43354,1,0
328,272,43707,1,0
408,272,44060,1,0
408,232,44237,2,0,B|408:112,1,100,0|0
408,88,44766,2,0,B|296:88,1,100,0|4
208,88,45472,6,0,B|104:88,1,100
72,160,46001,2,0,B|184:160,1,100
208,232,46531,2,0,B|96:232,1,100,0|0
80,304,47060,2,0,B|200:304,1,100,0|0
256,304,47590,2,0,B|368:304,1,100,0|4
456,304,48295,5,0
456,208,48648,1,0
408,208,48825,2,0,B|304:208,1,100
256,208,49354,1,0
152,208,49707,1,0
152,208,49884,2,0,B|152:96,1,100,0|0
152,56,50413,1,2
152,56,50766,1,6
256,56,51119,6,2,B|368:56,1,100
408,56,51648,1,6
216,200,52178,6,0,L|328:200,4,100
112,304,53943,6,2,B|224:304,1,100
256,304,54472,2,0,L|408:304,1,150,2|0
408,200,55354,5,0
304,200,55707,1,0
208,200,56060,1,0
208,104,56413,1,0
104,104,56766,6,0,B|104:256,2,150,0|0|0
184,96,58001,2,0,B|288:96,2,100,0|0|0
184,168,58884,2,0,B|296:200,1,100,0|0
384,168,59590,6,0,B|384:248|448:248,1,100,2|0
456,184,60119,1,0
456,120,60295,2,0,B|456:56|368:56,1,100,2|0
264,56,61001,5,2
136,56,61354,1,0
136,184,61707,1,2
136,56,62060,1,4
136,184,62413,5,2
136,296,62766,1,0
136,344,62943,2,2,B|288:344,1,150
400,336,63825,5,0
376,248,64178,1,0
320,160,64531,1,2
224,120,64884,1,0
128,160,65237,6,0,B|128:280,1,100,2|0
192,264,65766,2,2,B|192:144,1,100
192,96,66295,6,0,B|192:32,2,50
296,96,67001,1,2
304,192,67354,1,0
272,288,67707,1,2
176,312,68060,5,0
176,216,68413,1,0
272,216,68766,1,0
272,216,68943,2,0,B|320:248|368:216,3,100,0|0|0|0
384,160,70178,2,0,B|504:160,1,100
480,288,70884,5,2
288,288,71413,5,2
96,288,71943,5,2
192,200,72295,5,4
320,200,72648,5,0
256,88,73001,1,0
256,88,73354,1,0
256,88,73707,5,2
168,80,74060,1,0
168,80,74237,2,0,B|112:160|192:224,1,150,2|0
256,152,75119,6,0,B|280:192|344:200,1,100
328,264,75648,2,0,B|232:240|192:320,1,150
128,320,76354,5,0
56,320,76531,2,0,B|56:288|56:200,1,100
56,152,77060,2,0,B|72:84|176:68,1,150,0|0
328,64,77943,6,2,B|448:64,2,100
208,64,79001,1,2
296,112,79354,6,0,B|352:160|312:216,1,100
256,176,79884,2,0,B|88:176,1,150
104,240,80590,5,0
176,240,80766,2,0,B|296:240,1,100
344,240,81295,2,0,B|421:239|416:128,1,150
288,128,82178,6,0,B|168:128,2,100
288,200,83060,2,0,B|176:200,1,100,0|4
120,200,83590,6,0,B|120:80,4,100,0|2|0|2|0
248,200,85354,5,2
248,328,85707,1,0
384,328,86060,1,2
384,200,86413,2,0,B|384:80|248:80,2,200
256,200,88178,1,2
384,200,88531,1,0
256,200,88884,1,2
384,200,89237,2,2,B|352:240|312:272,1,100,2|0
256,296,89766,2,0,B|176:264|176:160,1,150
304,176,90648,6,0,B|304:72,1,100,2|0
368,88,91178,2,0,B|368:192,1,100,2|2
368,256,91707,1,0
304,256,91884,1,0
240,256,92060,1,2
240,192,92237,2,0,B|344:192,2,100,0|2|0
176,192,93119,5,0
112,192,93295,1,2
112,192,93472,1,0
48,192,93648,2,0,B|48:312,1,100,2|4
256,192,94178,12,4,96295
368,144,96825,6,0,B|256:144,1,100,2|0
200,144,97354,2,0,B|144:144,1,50
88,144,97707,2,0,B|88:208,1,50,2|0
88,328,98237,2,0,B|200:328,1,100,2|0
240,328,98766,5,0
240,280,98943,1,0
240,232,99119,1,2
240,184,99295,2,0,B|360:184,1,100,0|4
256,192,99825,12,4,101943
56,88,110413,6,0,B|56:24,2,50
56,152,110943,2,0,B|176:152,1,100
288,152,111648,2,0,B|408:152,1,100
392,280,112354,2,0,B|288:280,1,100
224,280,112884,6,0,B|152:280,1,50
176,216,113237,2,0,B|248:216,2,50
176,152,113766,2,0,B|288:152,1,100
176,72,114472,2,0,B|296:72,1,100
408,72,115178,2,0,B|408:192,1,100
408,240,115707,2,0,B|408:296,1,50
344,288,116060,6,0,B|344:216,2,50,0|0|0
280,288,116590,2,0,B|280:168,1,100
208,80,117295,2,0,B|208:200,1,100
80,184,118001,2,0,B|80:352,1,150
144,336,118707,1,0
144,272,118884,6,0,B|144:216,2,50,0|0|0
208,272,119413,2,0,B|208:208,2,50,0|0|0
272,272,119943,1,0
336,272,120119,2,0,B|336:168,1,100,0|0
400,168,120648,1,0
400,104,120825,6,0,B|280:104,1,100,0|0
232,104,121354,1,0
232,104,121531,1,0
168,104,121707,6,0,B|16:104,2,150,0|0|0
168,208,123119,2,0,B|328:208,2,150,0|0|0
168,312,124531,2,0,B|320:312,2,150
168,208,125943,2,0,B|168:40,2,150,0|0|0
272,208,127354,6,0,B|272:144,1,50
272,104,127707,1,0
272,104,127884,2,0,B|424:104,2,150
248,152,129119,1,0
224,192,129295,2,0,B|376:192,2,150,0|0|4
176,192,130531,5,2
200,96,130884,1,2
200,96,131060,1,2
296,72,131413,1,2
296,72,131590,1,2
384,120,131943,1,2
384,120,132119,1,2
392,224,132472,1,2
392,224,132648,1,2
392,224,132825,1,2
328,224,133001,6,0,B|208:224,1,100,2|0
160,224,133531,2,0,B|56:224|56:120,1,150,6|2
184,120,134413,2,0,B|304:120,3,100,0|2|0|2
416,120,135825,6,0,B|416:224,1,100,0|2
416,288,136354,2,0,L|256:288,1,150,0|2
160,208,137237,2,0,L|272:208,3,100,0|2|0|2
192,112,138648,6,0,B|352:112,1,150
408,112,139354,2,0,B|408:40,2,50
408,176,139884,2,0,B|408:280,2,100
408,112,140766,2,0,B|288:112,1,100
176,112,141472,6,2,B|96:112|96:224,1,150
160,216,142178,2,0,B|280:216,6,100,0|0|0|0|0|0|4
160,88,144648,5,2
208,88,144825,2,0,L|360:88,1,150,2|0
360,216,145707,5,0
360,344,146060,1,0
232,344,146413,1,0
232,216,146766,1,0
232,88,147119,6,0,B|232:32,2,50
296,88,147648,2,0,B|296:152|296:240,1,150,2|0
208,312,148531,5,0
296,240,148884,1,2
200,184,149237,1,0
312,112,149590,1,6
176,112,149943,6,0,B|112:112,2,50
248,104,150472,2,0,B|248:40,2,50
248,232,151178,6,0,B|248:304,2,50
248,104,151884,6,0,B|248:32,2,50,2|0|2
248,176,152413,1,0
344,176,152766,5,2
248,288,153295,5,2
144,176,153825,5,2
248,176,154178,1,6
248,176,154531,5,0
248,176,154884,1,0
248,176,155237,1,0
248,176,155590,1,4
256,192,165295,12,0,166884
256,192,167237,5,2
256,320,167590,1,0
256,192,167943,1,2
256,320,168295,1,4
128,320,168648,5,0
128,192,169001,1,0
256,192,169354,1,0
384,192,169707,5,2
256,192,170060,1,0
128,192,170413,1,6
128,320,170766,1,0
256,320,171119,1,2
256,320,171295,2,0,B|184:320|136:320,1,100,2|4
128,128,172178,1,0
232,128,172531,5,0
280,128,172707,2,0,B|392:128,2,100,2|0|2
232,128,173590,2,0,B|232:64,2,50,0|2|0
232,176,174119,2,0,B|232:280,1,100,0|2
336,272,174825,5,0
336,272,175001,2,0,B|336:216,2,50,0|2|0
384,272,175531,2,0,B|504:272,1,100,0|4
256,192,176060,12,4,178178
104,232,178707,6,0,B|104:112,1,100
168,128,179237,5,0
232,128,179413,1,0
296,128,179590,1,0
360,128,179766,2,0,B|360:232,2,100,0|2|0
296,128,180648,5,2
296,128,180825,1,0
296,128,181001,1,2
224,128,181178,2,0,B|160:136|120:176,1,100,0|4
256,192,181707,12,4,183825
