osu file format v9

[General]
AudioFilename: KOTOKO - Cream+Mint.mp3
AudioLeadIn: 1003
PreviewTime: 65446
Countdown: 0
SampleSet: Soft
StackLeniency: 0.7
Mode: 1
LetterboxInBreaks: 0

[Editor]
DistanceSpacing: 0.8
BeatDivisor: 4
GridSize: 8

[Metadata]
Title:Cream+Mint
Artist:KOTOKO
Creator:kanpakyin
Version:Inner Oni
Source:Chocolat ~Maid Cafe "Curio"~
Tags:i've sound Taiko

[Difficulty]
HPDrainRate:5
CircleSize:5
OverallDifficulty:5
ApproachRate:5
SliderMultiplier:1.4
SliderTickRate:1

[Events]
//Background and Video events
0,0,"Taiko BG.jpg"
//Break Periods
//Storyboard Layer 0 (Background)
//Storyboard Layer 1 (Fail)
//Storyboard Layer 2 (Pass)
//Storyboard Layer 3 (Foreground)
//Storyboard Sound Samples
//Background Colour Transformations
3,100,163,162,255

[TimingPoints]
1576,483.870967741935,4,2,0,80,1,0
65446,-100,4,2,0,80,0,1
98350,-100,4,2,0,80,0,0

[Colours]
Combo1 : 0,174,239
Combo2 : 9,225,114

[HitObjects]
376,120,608,1,0
376,120,850,1,2
376,120,971,1,2
376,120,1092,1,0
376,120,1213,1,0
376,120,1334,1,2
376,120,1455,1,2
376,120,1576,1,0
376,120,2059,1,2
376,120,2543,1,0
376,120,2785,1,0
376,120,3027,1,2
376,120,3269,1,0
376,120,3511,1,0
376,120,3995,1,2
376,120,4479,1,0
376,120,4963,1,2
376,120,5205,1,0
376,120,5446,1,0
376,120,5930,1,2
376,120,6414,1,0
376,120,6656,1,0
376,120,6898,1,2
376,120,7140,1,0
376,120,7382,1,0
376,120,7866,1,2
376,120,8350,1,0
376,120,8592,1,2
376,120,8713,1,2
376,120,8834,1,2
376,120,8955,1,2
376,120,9075,1,0
376,120,9196,1,0
376,120,9317,1,2
376,120,9801,1,2
376,120,10285,1,0
376,120,10527,1,0
376,120,10769,1,2
376,120,11011,1,0
376,120,11253,1,0
376,120,11737,1,2
376,120,12221,1,0
376,120,12463,1,0
376,120,12705,1,2
376,120,12946,1,0
376,120,13188,1,4
401,128,13672,1,2
401,128,13914,1,4
401,128,14398,1,2
401,128,14640,1,4
401,128,15124,1,0
401,128,15366,1,2
401,128,15487,1,0
401,128,15608,1,2
401,128,15850,1,2
401,128,16092,1,0
401,128,16334,1,2
401,128,16455,1,0
401,128,16575,1,2
401,128,16696,1,0
401,128,16817,1,2
401,128,16938,1,0
401,128,17059,1,2
401,128,17543,1,2
401,128,17785,1,0
401,128,17906,1,2
401,128,18027,1,0
401,128,18269,1,0
401,128,18511,1,2
401,128,18753,1,2
401,128,18874,1,2
401,128,18995,1,0
401,128,19237,1,0
401,128,19358,1,2
401,128,19600,1,2
401,128,19721,1,0
401,128,19963,1,2
401,128,20205,1,0
401,128,20446,1,2
401,128,20688,1,0
401,128,20809,1,0
401,128,20930,1,2
401,128,21172,1,0
401,128,21414,1,2
401,128,21656,1,0
401,128,21898,1,2
401,128,22261,1,0
401,128,22382,1,2
401,128,22624,1,0
401,128,22866,1,0
401,128,23108,1,0
401,128,23229,1,0
401,128,23350,1,2
401,128,23592,1,0
401,128,23713,1,0
401,128,23834,1,2
401,128,23955,1,2
401,128,24075,1,2
401,128,24196,1,0
401,128,24317,1,2
401,128,24559,1,0
401,128,24801,1,4
401,128,25285,1,2
401,128,25527,1,2
401,128,25648,1,2
401,128,25769,1,0
401,128,26011,1,0
401,128,26253,1,2
401,128,26495,1,0
401,128,26616,1,2
401,128,26737,1,2
401,128,26979,1,0
401,128,27100,1,2
401,128,27342,1,0
401,128,27463,1,2
401,128,27584,1,0
401,128,27705,1,2
401,128,27946,1,0
401,128,28188,1,2
401,128,28430,1,0
401,128,28672,1,6
401,128,29156,1,2
401,128,29398,1,0
401,128,29640,1,2
401,128,30003,1,0
401,128,30366,1,0
401,128,30608,1,2
401,128,30850,1,0
401,128,31092,1,2
401,128,31334,1,0
401,128,31455,1,2
401,128,31575,1,2
401,128,31696,1,0
401,128,31817,1,0
401,128,32059,1,2
401,128,32301,1,0
401,128,32422,1,0
401,128,32543,1,2
401,128,32785,1,0
401,128,33027,1,2
401,128,33269,1,0
401,128,33511,1,2
401,128,33753,1,0
401,128,33874,1,0
401,128,33995,1,2
401,128,34116,1,0
401,128,34237,1,0
401,128,34358,1,0
401,128,34479,1,2
401,128,34963,1,2
401,128,35205,1,0
401,128,35688,1,0
401,128,35930,1,2
401,128,36172,1,0
401,128,36414,1,0
401,128,36777,1,0
401,128,37140,1,2
401,128,37382,1,0
401,128,37624,1,0
401,128,37866,1,2
401,128,38350,1,0
401,128,38834,1,2
401,128,39075,1,0
401,128,39559,1,0
401,128,39801,1,2
401,128,40043,1,0
401,128,40285,1,0
401,128,40648,1,0
401,128,41011,1,0
401,128,41253,1,2
400,155,41495,1,0
400,155,41616,1,0
400,155,41737,1,2
400,155,41979,1,2
400,155,42221,1,0
400,155,42705,1,2
400,155,42946,1,0
400,155,43188,1,2
400,155,43672,1,2
400,155,43914,1,0
400,155,44156,1,0
400,155,44398,1,0
400,155,44640,1,2
400,155,44882,1,2
400,155,45003,1,0
400,155,45124,1,2
400,155,45366,1,0
400,155,45608,1,2
400,155,46092,1,0
400,155,46455,1,2
400,155,46817,1,0
400,155,47059,1,2
400,155,47301,1,0
400,155,47543,1,2
400,155,47785,1,0
400,155,48027,1,0
400,155,48269,1,2
400,155,48511,1,2
400,155,48753,1,2
400,155,48995,1,0
400,155,49116,1,2
400,155,49237,1,2
400,155,49358,1,0
400,155,49479,1,2
400,155,49600,1,2
400,155,49721,1,0
400,155,49842,1,0
400,155,49963,1,2
400,155,50446,5,2
400,155,50688,1,0
400,155,50930,1,0
400,155,51172,1,0
400,155,51293,1,0
400,155,51414,1,2
400,155,51656,1,0
400,155,51898,1,0
400,155,52261,1,0
400,155,52382,1,2
400,155,52624,1,0
400,155,52866,1,0
400,155,53108,1,0
400,155,53350,1,2
400,155,53592,1,2
400,155,53713,1,2
400,155,53834,1,0
400,155,54196,1,0
400,155,54317,1,2
400,155,54559,1,2
400,155,54801,1,0
400,155,55164,1,0
400,155,55285,1,2
400,155,55527,1,2
400,155,55769,1,0
400,155,56011,1,0
400,155,56132,1,0
400,155,56253,1,2
400,155,56495,1,0
400,155,56737,1,0
400,155,56858,1,2
400,155,56979,1,0
400,155,57100,1,0
400,155,57221,1,2
400,155,57463,1,2
400,155,57584,1,2
400,155,57705,1,0
400,155,58067,1,0
400,155,58188,1,2
400,155,58430,1,0
400,155,58672,1,0
400,155,58914,1,0
400,155,59156,1,2
400,155,59398,1,2
400,155,59519,1,0
400,155,59640,1,2
400,155,60003,1,0
400,155,60124,1,2
400,155,60366,1,0
400,155,60608,1,0
400,155,60850,1,0
400,155,61092,1,2
400,155,61334,1,2
400,155,61455,1,2
400,155,61575,1,0
400,155,62059,1,2
400,155,62301,1,0
400,155,62543,1,2
400,155,62664,1,0
400,155,62785,1,0
400,155,63027,1,2
400,155,63269,1,0
400,155,63511,1,4
400,155,63753,1,6
400,155,64237,1,6
400,155,64479,1,0
400,155,64721,1,0
400,155,64842,1,0
400,155,64963,1,2
400,155,65084,1,2
400,155,65205,1,0
400,155,65325,1,2
400,155,65446,1,0
400,155,65930,5,2
400,155,66172,1,2
400,155,66293,1,0
400,155,66414,1,2
400,155,66656,1,0
400,155,66898,1,2
400,155,67140,1,0
400,155,67261,1,0
400,155,67382,1,2
400,155,67503,1,0
400,155,67745,1,0
400,155,67866,1,2
400,155,68108,1,0
400,155,68350,1,0
400,155,68592,1,0
400,155,68834,1,2
400,155,69075,1,0
400,155,69317,1,2
400,155,69438,1,0
400,155,69680,1,0
400,155,69801,1,2
400,155,70043,1,2
400,155,70285,1,0
400,155,70527,1,2
400,155,70648,1,0
400,155,70769,1,2
400,155,71011,1,0
400,155,71253,1,2
400,155,71374,1,0
400,155,71616,1,2
400,155,71737,1,0
400,155,71979,1,2
400,155,72100,1,2
400,155,72221,1,0
400,155,72342,1,2
400,155,72463,1,0
400,155,72584,1,0
400,155,72705,1,2
400,155,72946,1,2
400,155,73067,1,2
400,155,73188,1,0
400,155,73551,5,0
400,155,73672,1,2
400,155,73914,1,0
400,155,74035,1,2
400,155,74156,1,0
400,155,74398,1,0
400,155,74519,1,0
400,155,74640,1,2
400,155,74882,1,2
400,155,75124,1,0
400,155,75487,1,0
400,155,75608,1,2
400,155,75850,1,0
400,155,76092,1,2
400,155,76213,1,2
400,155,76334,1,0
400,155,76455,1,0
400,155,76575,1,2
400,155,76817,1,0
400,155,77059,1,6
400,155,77422,1,0
400,155,77543,1,2
400,155,77785,1,0
400,155,78027,1,2
400,155,78390,1,0
400,155,78753,1,2
400,155,78995,1,2
400,155,79237,1,0
400,155,79479,1,2
400,155,79721,1,0
400,155,79842,1,2
400,155,79963,1,2
400,155,80084,1,0
400,155,80205,1,2
400,155,80325,1,0
400,155,80446,1,2
400,155,80688,1,2
400,155,80809,1,2
400,155,80930,1,0
400,155,81293,1,0
400,155,81414,1,2
400,155,81656,1,0
400,155,81777,1,2
400,155,81898,1,0
400,155,82140,1,0
400,155,82382,1,2
400,155,82624,1,0
400,155,82866,1,2
400,155,82987,1,0
400,155,83229,1,0
400,155,83350,1,2
400,155,83592,1,2
400,155,83834,1,0
400,155,84075,1,0
400,155,84317,1,2
400,155,84559,1,0
400,155,84680,1,0
400,155,84801,1,2
400,155,84922,1,0
400,155,85164,1,0
400,155,85285,1,2
400,155,85527,1,2
400,155,85769,1,0
400,155,86011,1,0
400,155,86132,1,0
400,155,86253,1,2
400,155,86495,1,0
400,155,86737,1,2
400,155,86858,1,0
400,155,87100,1,0
400,155,87221,1,2
400,155,87463,1,0
400,155,87584,1,0
400,155,87705,1,2
400,155,87825,1,2
400,155,87946,1,0
400,155,88188,1,2
400,155,88430,1,2
400,155,88672,1,0
400,155,89156,1,2
400,155,89398,1,0
400,155,89519,1,0
400,155,89640,1,0
400,155,89882,1,0
400,155,90124,1,2
400,155,90366,1,0
400,155,90608,1,2
400,155,90729,1,0
400,155,90971,1,0
400,155,91092,1,2
400,155,91334,1,0
400,155,91575,1,2
400,155,91817,1,0
400,155,91938,1,2
400,155,92059,1,2
400,155,92301,1,0
400,155,92543,1,0
400,155,92664,1,0
400,155,92785,1,0
400,155,92906,1,0
400,155,93027,1,2
400,155,93269,1,2
400,155,93511,1,0
400,155,93874,1,0
400,155,93995,1,2
400,155,94237,1,0
400,155,94479,1,2
400,155,94721,1,0
400,155,94963,1,2
400,155,95205,1,0
400,155,95325,1,2
400,155,95446,1,2
400,155,95567,1,0
400,155,95688,1,0
400,155,95930,1,0
400,155,96172,1,2
400,155,96293,1,2
400,155,96414,1,2
400,155,96898,1,2
400,155,97382,1,0
400,155,97624,1,0
400,155,97866,1,2
400,155,97987,1,0
400,155,98108,1,0
400,155,98229,1,0
400,155,98350,1,2
400,155,98834,1,2
400,155,99317,1,0
400,155,99559,1,0
400,155,99801,1,2
400,155,100043,1,2
400,155,100285,1,0
400,155,100769,1,2
400,155,101253,1,0
400,155,101495,1,0
400,155,101737,1,2
400,155,101979,1,0
400,155,102221,1,6
400,155,102946,1,6
400,155,103672,1,4
400,155,104156,1,4
