osu file format v9

[General]
AudioFilename: KOTOKO - Cream+Mint.mp3
AudioLeadIn: 1003
PreviewTime: 65446
Countdown: 0
SampleSet: Soft
StackLeniency: 0.7
Mode: 1
LetterboxInBreaks: 0

[Editor]
DistanceSpacing: 0.8
BeatDivisor: 4
GridSize: 8

[Metadata]
Title:Cream+Mint
Artist:KOTOKO
Creator:kanpakyin
Version:Futsuu
Source:Chocolat ~Maid Cafe "Curio"~
Tags:i've sound Taiko

[Difficulty]
HPDrainRate:4
CircleSize:4
OverallDifficulty:2
ApproachRate:2
SliderMultiplier:1.4
SliderTickRate:1

[Events]
//Background and Video events
0,0,"Taiko BG.jpg"
//Break Periods
//Storyboard Layer 0 (Background)
//Storyboard Layer 1 (Fail)
//Storyboard Layer 2 (Pass)
//Storyboard Layer 3 (Foreground)
//Storyboard Sound Samples
//Background Colour Transformations
3,100,163,162,255

[TimingPoints]
1576,483.870967741935,4,2,0,80,1,0
65446,-100,4,2,0,80,0,1
98350,-100,4,2,0,80,0,0

[Colours]
Combo1 : 0,174,239
Combo2 : 9,225,114

[HitObjects]
403,96,1576,1,4
403,96,2059,1,2
403,96,3027,1,2
403,96,3511,1,0
403,96,3995,1,2
403,96,4963,1,2
403,96,5446,1,0
403,96,5930,1,2
403,96,6898,1,2
403,96,7382,1,0
403,96,8350,1,0
403,96,8834,1,2
403,96,9317,1,4
403,96,9801,1,2
403,96,10769,1,2
403,96,11253,1,0
403,96,11737,1,2
403,96,12705,1,2
403,96,13188,1,6
403,96,13914,1,6
403,96,14640,1,4
403,96,15124,1,0
403,96,15608,1,2
403,96,16575,1,2
403,96,16817,1,2
403,96,17059,1,6
403,96,17543,1,2
403,96,18511,1,2
403,96,18995,1,4
403,96,19479,1,2
403,96,20446,1,2
403,96,20930,1,0
403,96,21414,1,2
403,96,22382,1,2
403,96,22866,1,0
403,96,23834,1,0
403,96,24317,1,2
403,96,24801,1,4
403,96,25527,1,2
403,96,25769,1,0
403,96,26253,1,2
403,96,26737,1,0
403,96,27221,1,2
403,96,27705,1,0
403,96,28188,1,2
403,96,28672,1,4
403,96,29398,1,2
403,96,29640,1,0
403,96,30366,1,2
403,96,30608,1,0
403,96,31092,1,2
403,96,31575,1,2
403,96,32059,1,2
403,96,32543,1,4
256,192,32785,12,0,33995
439,144,34479,5,4
439,144,35205,1,0
439,144,35930,1,2
439,144,36414,1,0
439,144,37140,1,0
439,144,37624,1,0
439,144,37866,1,2
439,144,38350,1,0
439,144,39075,1,0
439,144,39559,1,0
439,144,39801,1,2
439,144,40285,1,0
439,144,40769,1,2
439,144,41011,1,0
439,144,41253,1,0
439,144,41737,1,2
439,144,41979,1,2
439,144,42221,1,0
439,144,42946,1,0
439,144,43430,1,0
439,144,43672,1,2
439,144,43914,1,2
439,144,44156,1,0
439,144,44882,1,0
439,144,45366,1,0
439,144,45608,1,2
439,144,46092,1,0
439,144,46817,1,0
439,144,47301,1,0
439,144,47543,1,2
439,144,47785,1,0
439,144,48027,1,0
439,144,48511,1,2
439,144,48995,1,0
439,144,49237,1,2
439,144,49479,1,2
439,144,49963,1,4
439,144,50446,1,2
439,144,50930,1,0
439,144,51414,1,2
439,144,51656,1,0
439,144,51898,1,0
439,144,52382,1,2
439,144,52866,1,0
439,144,53108,1,0
439,144,53350,1,2
439,144,53834,1,0
439,144,54317,1,2
439,144,54801,1,0
439,144,55043,1,0
439,144,55285,1,2
439,144,55769,1,0
439,144,56253,1,2
439,144,56737,1,0
439,144,57463,1,2
439,144,57705,1,4
439,144,58188,1,2
439,144,58430,1,2
439,144,58672,1,0
439,144,59156,1,2
439,144,59398,1,0
439,144,59640,1,0
439,144,60124,1,2
439,144,60608,1,0
439,144,61092,1,2
439,144,61575,1,4
439,144,62301,1,2
439,144,62785,1,2
368,192,63027,1,2
439,144,63511,1,4
439,144,63753,1,6
439,144,64237,1,6
439,144,65446,1,4
439,144,65930,1,2
439,144,66414,1,0
439,144,66898,1,2
439,144,67382,1,0
439,144,67866,1,2
439,144,68350,1,0
439,144,68834,1,2
439,144,69075,1,2
439,144,69317,1,0
439,144,69801,1,2
439,144,70285,1,0
439,144,70769,1,2
439,144,71253,1,0
439,144,71737,1,2
439,144,72221,1,0
439,144,72705,1,2
439,144,73188,1,4
439,144,73672,1,2
439,144,74156,1,0
439,144,74640,1,2
439,144,74882,1,0
439,144,75124,1,0
439,144,75608,1,2
439,144,76092,1,0
439,144,76334,1,0
439,144,76575,1,2
439,144,77059,1,4
439,144,77543,1,2
439,144,78027,1,0
439,144,78511,1,2
439,144,78995,1,4
439,144,79963,1,2
439,144,80930,1,4
439,144,81656,1,0
439,144,81898,1,0
439,144,82382,1,2
439,144,82866,1,0
439,144,83592,1,0
439,144,83834,1,2
439,144,84317,1,2
439,144,84801,1,0
439,144,85527,1,0
439,144,85769,1,2
439,144,86253,1,2
439,144,86737,1,0
439,144,87221,1,2
439,144,87463,1,0
439,144,87946,1,0
439,144,88188,1,2
439,144,88672,1,4
439,144,89156,1,2
439,144,90124,1,2
439,144,90366,1,0
439,144,90608,1,0
439,144,91092,1,2
439,144,91334,1,0
439,144,91817,1,0
439,144,92059,1,2
439,144,92543,1,4
439,144,93027,1,2
439,144,93511,1,0
439,144,94237,1,2
439,144,94479,1,4
439,144,94963,1,2
439,144,95446,1,2
439,144,95930,1,2
439,144,96414,1,6
439,144,97866,1,0
442,150,98350,5,4
442,150,98834,1,2
442,150,99801,1,2
442,150,100285,1,0
442,150,100769,1,2
442,150,101737,1,2
442,150,102221,1,6
442,150,102946,1,6
442,150,103672,1,4
442,150,104156,1,4
