osu file format v9

[General]
AudioFilename: KOTOKO UZU-MAKI.mp3
AudioLeadIn: 1500
PreviewTime: 77800
Countdown: 0
SampleSet: Soft
StackLeniency: 0.6
Mode: 0
LetterboxInBreaks: 1

[Editor]
DistanceSpacing: 1
BeatDivisor: 4
GridSize: 4

[Metadata]
Title:Cider (short ver.)
Artist:KOTOKO
Creator:DarknessAngel
Version:Normal
Source:UZU-MAKI
Tags:

[Difficulty]
HPDrainRate:4
CircleSize:4
OverallDifficulty:4
ApproachRate:5
SliderMultiplier:1.2
SliderTickRate:2

[Events]
//Background and Video events
0,0,"001.JPG"
//Break Periods
//Storyboard Layer 0 (Background)
//Storyboard Layer 1 (Fail)
//Storyboard Layer 2 (Pass)
//Storyboard Layer 3 (Foreground)
//Storyboard Sound Samples
//Background Colour Transformations
3,100,163,162,255

[TimingPoints]
642,483.753930500685,4,2,1,70,1,0
31965,-100,4,2,0,70,0,0
32207,-100,4,2,1,70,0,0
62925,-100,4,2,0,70,0,0
63167,-100,4,2,1,70,0,0
78526,-100,4,2,1,70,0,1
93885,-100,4,2,0,70,0,1
94127,-100,4,2,1,70,0,1
105616,-100,4,2,1,70,0,0
109486,-100,4,1,0,70,0,1
109607,-100,4,1,0,100,0,0

[Colours]
Combo1 : 0,128,255
Combo2 : 29,216,159
Combo3 : 63,86,182
Combo4 : 0,0,255

[HitObjects]
256,192,883,12,0,2818
200,56,3544,2,0,B|256:16|312:56,1,120,2|0
384,152,4512,1,2
328,256,4996,1,0
272,152,5479,1,2
216,256,5963,6,0,B|88:256,1,120,0|2
40,152,6931,2,0,B|160:152,1,120,0|2
280,152,7898,2,0,B|342:181|334:249,1,120,0|2
408,152,8866,5,0
320,72,9349,1,2
200,72,9833,1,0
104,152,10317,1,2
104,272,10801,6,0,B|200:344,1,120,0|2
320,344,11768,2,0,B|416:272,1,120,0|2
392,152,12736,5,0
320,56,13219,1,2
256,152,13703,1,0
184,56,14187,1,2
120,152,14671,1,0
200,240,15154,6,0,B|256:280|312:240,1,120,2|0
336,120,16122,1,2
336,120,16364,2,0,B|256:56|168:120,1,180,2|2
72,192,17573,1,0
168,264,18057,1,2
168,264,18299,2,0,B|253:326|333:262,1,180,2|2
432,192,19508,5,2
432,192,19750,1,0
432,192,19992,2,2,B|432:120,1,60,2|2
320,80,20718,2,0,B|256:48,2,60,2|2|2
264,192,21685,2,0,B|72:192,1,180,2|2
88,72,22894,1,2
208,72,23378,6,0,B|352:72,1,120,0|0
432,136,24346,2,0,B|471:191|431:247,1,120,0|0
312,272,25313,2,0,B|256:311|200:271,1,120,0|0
80,247,26281,2,0,B|40:191|80:136,1,120,0|2
200,112,27248,2,0,B|256:72|312:112,1,120,0|2
256,192,28216,12,0,31602
440,104,32086,6,0,B|312:104,1,120,4|8
200,104,33053,2,0,B|64:104,1,120,0|8
112,224,34021,2,0,B|196:308,1,120,0|8
320,304,34988,2,0,B|404:219,1,120,0|8
320,136,35956,5,0
320,136,36198,2,2,B|384:136,2,60,2|10|2
200,136,37165,2,0,B|136:136,2,60,2|8|2
256,240,38133,2,0,B|256:304,2,60,2|8|2
296,192,38858,2,0,B|416:192,1,120,2|4
328,112,39826,6,0,B|392:112,2,60,0|2|4
328,112,40551,1,2
208,112,41035,2,0,B|136:112,2,60,2|4|2
256,224,42003,2,0,B|256:164,2,60,2|4|2
216,264,42728,2,0,B|96:264,1,120,2|4
104,144,43696,5,2
104,144,43938,1,0
104,144,44180,2,0,B|208:64,1,120,4|0
320,72,45147,2,0,B|415:145,1,120,4|0
368,256,46115,1,4
256,296,46598,1,0
144,248,47082,1,4
96,136,47566,6,0,B|56:80,2,60,2|0|8
144,248,48533,1,2
192,136,49017,2,0,B|232:80,2,60,8|0|2
256,232,49985,6,0,B|256:88,1,120,8|0
368,80,50952,1,8
368,80,51194,1,2
368,80,51436,2,2,B|407:136|367:192,1,120,4|8
320,304,52403,6,8,B|200:304,1,120,2|8
96,248,53371,1,2
96,248,53613,1,2
96,248,53855,2,2,B|57:192|97:136,1,120,8|2
192,64,54822,1,8
312,64,55306,6,0,B|368:32,2,60,2|0|8
408,128,56273,1,2
312,192,56757,2,2,B|368:224,2,60,8|0|2
200,136,57725,6,0,B|160:191|199:247,1,120,8|2
224,368,58692,2,0,B|288:368,1,60,8|0
312,248,59418,5,0
312,248,59660,2,0,B|350:192|311:136,1,120,8|2
296,16,60627,2,0,B|224:16,1,60,8|2
200,136,61353,1,2
200,136,61595,2,0,B|160:191|199:247,1,120,8|2
304,192,62562,6,0,B|376:192,1,60,8|2
392,136,63046,2,0,B|431:191|392:247,1,120,4|8
320,344,64014,1,2
256,240,64497,1,8
200,344,64981,1,2
128,248,65465,6,2,B|166:192|127:136,1,120,8|2
99,192,66190,2,0,B|39:192,1,60,2|8
72,80,66916,1,2
192,80,67400,5,8
192,80,67642,1,0
192,80,67884,2,0,B|328:80,1,120,2|8
416,136,68851,2,0,B|454:191|416:247,1,120,2|4
312,304,69819,2,0,B|192:304,1,120,8|4
95,247,70786,6,0,B|57:191|96:136,1,120,2|8
96,136,71754,1,2
96,136,72237,1,0
200,200,72721,2,0,B|320:200,1,120,2|8
320,200,73689,1,2
320,200,74172,1,0
416,136,74656,6,0,B|454:191|416:247,1,120,0|8
312,304,75624,2,0,B|256:342|200:304,1,120,0|8
256,200,76591,1,2
256,200,76833,1,2
256,192,78284,12,0,80219
400,80,80945,5,4
344,184,81429,1,8
344,184,81671,1,2
344,184,81912,2,0,B|312:248,1,60,4|2
200,240,82638,2,0,B|173:186,2,60,2|4|2
200,120,83606,6,2,B|232:16|280:240|320:120,1,180,2|8
440,128,84815,1,4
440,248,85299,1,8
336,312,85782,1,4
256,224,86266,5,8
176,312,86750,1,4
72,248,87234,1,8
72,128,87717,1,4
152,40,88201,6,0,B|200:152,1,120,8|4
320,152,89169,2,0,B|367:41,1,120,8|4
440,136,90136,1,8
464,192,90378,1,2
440,248,90620,1,4
320,264,91104,2,0,B|192:264,3,120,8|4|8|4
72,248,93039,5,8
48,192,93281,1,2
72,136,93523,1,4
200,120,94006,6,2,B|320:120,1,120,4|4
408,40,94974,1,8
504,112,95458,1,4
408,184,95941,1,8
504,256,96425,1,4
408,328,96909,5,8
408,328,97151,1,2
408,328,97393,2,0,B|344:328,1,60,4|2
256,248,98118,5,2
256,248,98360,1,4
256,248,98602,1,2
320,144,99086,2,2,B|281:259|233:35|201:139,1,180,2|8
256,248,100295,1,4
165,327,100779,5,8
112,304,101020,1,0
56,276,101262,2,0,B|0:252,2,60,4|0|8
96,152,102230,1,4
192,80,102714,1,8
256,184,103198,5,4
256,184,103439,1,2
256,184,103681,1,8
320,80,104165,1,4
416,152,104649,1,8
256,192,105133,12,4,109486
