osu file format v9

[General]
AudioFilename: KOTOKO UZU-MAKI.mp3
AudioLeadIn: 1500
PreviewTime: 77800
Countdown: 0
SampleSet: Soft
StackLeniency: 0.6
Mode: 0
LetterboxInBreaks: 1

[Editor]
DistanceSpacing: 1.3
BeatDivisor: 4
GridSize: 8

[Metadata]
Title:Cider (short ver.)
Artist:KOTOKO
Creator:DarknessAngel
Version:Hard
Source:UZU-MAKI
Tags:

[Difficulty]
HPDrainRate:6
CircleSize:4
OverallDifficulty:7
ApproachRate:7
SliderMultiplier:1.8
SliderTickRate:2

[Events]
//Background and Video events
0,0,"001.JPG"
//Break Periods
//Storyboard Layer 0 (Background)
//Storyboard Layer 1 (Fail)
//Storyboard Layer 2 (Pass)
//Storyboard Layer 3 (Foreground)
//Storyboard Sound Samples
//Background Colour Transformations
3,100,163,162,255

[TimingPoints]
642,483.753930500685,4,2,0,69,1,0
3061,-133.333333333333,4,2,0,60,0,0
32086,-100,4,2,0,69,0,0
46115,-100,4,2,1,69,0,0
55185,-100,4,2,0,69,0,0
55427,-100,4,2,1,69,0,0
62925,-100,4,1,0,69,0,0
63530,-100,4,2,1,69,0,0
68730,-100,4,1,0,60,0,0
68972,-100,4,2,1,69,0,0
69214,-100,4,1,0,60,0,0
69456,-100,4,2,1,69,0,0
69698,-100,4,1,0,69,0,0
70423,-100,4,2,1,69,0,0
70665,-100,4,1,0,69,0,0
70907,-100,4,2,1,69,0,0
72600,-100,4,1,0,50,0,0
72842,-100,4,2,1,69,0,0
78284,-100,4,1,0,69,0,0
78526,-100,4,1,0,69,0,1
79252,-100,4,2,1,69,0,1
79977,-100,4,1,0,69,0,1
80945,-100,4,2,1,69,0,1
105495,-100,4,1,0,69,0,1
105616,-100,4,1,0,69,0,0
105737,-100,4,2,1,69,0,0
105979,-100,4,1,0,69,0,0
106221,-100,4,2,1,69,0,0
106463,-100,4,1,0,69,0,0
107672,-100,4,2,1,69,0,0
107914,-100,4,1,0,69,0,0
108156,-100,4,2,1,69,0,0
108398,-100,4,1,0,69,0,0
109486,-100,4,1,0,70,0,1
109607,-100,4,1,0,100,0,0

[Colours]
Combo1 : 0,128,255
Combo2 : 29,216,159
Combo3 : 63,86,182
Combo4 : 0,0,255

[HitObjects]
256,192,883,12,0,2818
224,64,3302,2,0,B|256:40|288:64,1,67.4999979883433,0|2
336,104,3786,1,0
368,160,4028,2,0,B|392:192|368:224,1,67.4999979883433,0|0
336,280,4512,1,2
272,304,4754,1,0
144,256,5237,5,2
96,208,5479,1,2
160,192,5721,1,2
296,184,6205,2,0,B|336:120|296:56,1,134.999995976687,2|0
296,56,6931,1,0
296,56,7172,1,2
160,56,7656,6,0,B|122:61|116:100,1,67.4999979883433,2|0
184,120,8140,1,0
232,72,8382,2,0,B|271:135|231:199,1,134.999995976687,2|0
128,288,9349,1,2
256,328,9833,1,0
384,288,10317,1,2
384,152,10801,6,0,B|384:72,2,67.4999979883433,0|0|2
320,128,11526,2,0,B|257:89|193:129,1,134.999995976687,0|0
168,192,12252,1,2
192,256,12494,2,0,B|197:294|236:300,1,67.4999979883433,0|0
264,240,12977,1,0
304,296,13219,2,0,B|367:254|358:181,1,134.999995976687,2|0
328,48,14187,1,2
192,48,14671,1,0
88,136,15154,5,2
88,136,15396,1,0
88,136,15638,2,0,B|64:166|88:198,1,67.4999979883433,0|2
152,176,16122,1,2
216,168,16364,2,2,B|239:198|216:230,1,67.4999979883433,0|0
160,272,16848,1,0
224,296,17089,2,0,B|254:319|286:296,1,67.4999979883433,2|0
288,232,17573,1,0
288,168,17815,1,0
352,192,18057,6,0,B|432:192,2,67.4999979883433,2|0|0
288,168,18783,1,0
344,128,19024,1,2
280,96,19266,2,0,B|280:48,2,33.7499989941716,0|0|0
224,136,19750,6,0,B|161:175|97:135,1,134.999995976687,2|2
96,134,20718,2,0,B|57:197|97:261,1,134.999995976687,2|2
97,261,21685,2,0,B|161:220|224:259,1,134.999995976687,2|0
276,303,22411,5,2
298,239,22653,1,0
344,288,22894,2,0,B|408:328,1,67.4999979883433
401,323,23378,1,2
424,184,23862,1,2
392,56,24346,2,0,B|329:17|265:57,1,134.999995976687,2|2
152,128,25313,2,0,B|152:264,2,134.999995976687,2|2|2
200,80,26523,1,0
264,56,26764,6,0,B|294:32|326:56,1,67.4999979883433,2|0
392,80,27248,2,0,B|392:224,1,134.999995976687,2|2
344,264,27974,1,0
296,216,28216,6,0,B|248:160,2,67.4999979883433,2|0|2
344,264,28941,1,0
280,280,29183,2,0,B|208:304,2,67.4999979883433,2|0|2
344,264,29909,1,0
408,248,30151,6,0,B|480:224,2,67.4999979883433,2|0|2
344,264,30876,1,0
320,200,31118,2,0,B|296:128,1,67.4999979883433,2|2
298,135,31602,2,0,B|280:72,1,67.4999979883433,2|2
192,56,32086,6,0,B|143:34|109:71,1,90,4|2
109,70,32570,1,8
109,70,32811,1,2
152,216,33053,2,0,B|188:182|166:133,1,90,0|2
166,133,33537,1,8
166,133,33779,1,2
56,240,34021,6,0,B|34:289|71:323,1,90,0|2
184,320,34505,2,0,B|280:320,1,90,8|2
344,232,34988,1,0
384,120,35230,2,0,B|432:126|442:179,1,90,2|8
344,232,35714,2,0,B|160:232,1,180,2|0
164,232,36440,1,8
164,232,36681,1,2
64,168,36923,6,0,B|14:146|19:96,1,90,0|2
136,88,37407,1,8
136,88,37649,1,2
136,88,38133,6,0,B|232:88,1,90,2|8
304,176,38616,2,0,B|216:176,1,90,2|0
288,272,39100,2,0,B|384:272,1,90,2|8
304,176,39584,1,2
192,136,39826,6,0,B|142:114|147:64,1,90,4|2
256,104,40309,2,0,B|305:125|300:175,1,90,8|2
224,264,40793,2,0,B|136:264,2,90,0|2|8
304,176,41519,1,2
384,264,41761,1,0
456,176,42003,6,0,B|456:88,2,90,2|8|0
384,264,42728,1,2
304,176,42970,2,0,B|304:80,2,90,2|8|2
224,264,43696,2,0,B|178:234|191:186,1,90,2|0
304,176,44180,1,8
384,96,44421,2,0,B|429:125|416:173,1,90,0|2
304,176,44905,5,2
176,56,45147,1,8
64,192,45389,1,2
192,312,45631,1,2
256,192,46115,12,0,47566
96,80,47808,6,0,B|72:168,1,90,0|4
176,104,48292,2,0,B|264:136,1,90,0|2
152,184,48775,2,0,B|120:272,1,90,0|4
224,216,49259,1,0
344,216,49501,1,2
224,216,49743,1,2
456,216,50227,6,2,B|520:136|456:48,1,180,2|0
344,48,50952,1,4
264,136,51194,1,0
352,216,51436,1,2
152,336,51920,5,4
248,272,52162,2,0,B|224:224|176:224,1,90,0|2
64,256,52645,1,0
152,336,52887,1,4
64,256,53129,1,0
64,136,53371,6,0,B|64:40,1,90,4|2
168,104,53855,2,0,B|168:192,1,90,2|4
272,256,54338,2,0,B|272:160,1,90,4|2
376,216,54822,2,0,B|376:304,1,90,0|4
272,256,55306,5,4
288,144,55548,1,0
376,216,55790,1,4
400,104,56032,1,0
488,184,56273,1,2
376,216,56515,1,0
288,144,56757,5,4
176,176,56999,1,0
80,104,57241,1,2
80,104,57483,2,0,B|40:80|40:24,1,90,0|4
168,80,57967,2,0,B|168:176|80:228,1,180,2|2
81,227,58692,1,4
81,227,58934,1,0
344,272,59418,6,2,B|384:248,2,45,2|2|4
208,248,59902,1,0
216,112,60143,2,0,B|301:49|381:113,1,180,2|4
464,200,60869,2,0,B|384:263|298:201,1,180,2|2
184,184,61595,2,0,B|130:172|105:215,1,90,4|8
208,280,62078,2,0,B|235:327|284:317,1,90,8|8
400,312,62562,1,8
400,312,63046,6,2,B|462:226|398:146,1,180,4|4
296,96,63772,1,0
296,96,64014,1,8
184,120,64255,6,0,B|133:140|136:190,1,90,0|4
168,304,64739,2,0,B|218:283|215:233,1,90,0|8
215,235,65223,1,0
296,320,65465,1,4
296,320,65707,2,2,B|358:234|294:154,1,180,2|2
184,120,66432,1,4
184,120,66916,6,0,B|133:140|136:190,1,90,8|0
184,296,67400,1,4
280,224,67642,2,0,B|301:173|264:140,1,90,0|8
192,56,68125,1,0
312,56,68367,1,4
192,56,68609,1,0
312,56,68851,6,0,B|363:76|360:126,1,90,2|0
192,56,69335,2,0,B|141:76|144:126,1,90,2|0
320,328,69819,2,0,B|371:308|368:258,1,90,2|2
192,328,70302,2,0,B|141:308|144:258,1,90,2|0
256,192,70786,5,4
256,192,71270,2,0,B|352:192,2,90,4|2|8
168,192,71995,1,2
256,192,72237,1,4
256,192,72721,5,4
256,192,73205,2,0,B|152:192,2,90,4|2|8
376,192,73930,1,2
256,192,74172,1,4
256,192,74656,12,0,76833
448,168,77800,5,0
448,168,78284,2,2,B|448:88|400:40|336:40|272:40|216:88|216:168,1,360,2|8
336,160,79493,1,0
336,160,79736,1,0
336,160,79977,2,2,B|336:233|280:281|216:281|152:281|104:233|104:153,1,360,2|4
168,56,81187,5,2
224,160,81429,1,8
280,56,81671,1,2
168,56,81912,1,4
224,160,82154,1,0
344,160,82396,6,2,B|407:239|345:325,1,180,8|4
232,336,83122,2,0,B|181:316|184:266,1,90,0|8
248,64,83606,2,2,B|311:143|249:229,1,180,2|2
120,168,84331,2,2,B|56:247|118:333,1,180,2|4
232,336,85057,2,0,B|320:336,1,90,2|8
456,144,85782,5,4
392,240,86024,2,2,B|346:148|242:168,1,180,2|2
128,168,86750,1,4
245,169,86992,1,0
168,80,87234,1,8
244,168,87476,1,0
168,256,87717,1,4
245,169,87959,5,0
245,169,88201,2,0,B|336:168,2,90,8|0|4
118,333,88927,2,2,B|56:247|120:168,1,180,2|2
192,80,89652,2,2,B|256:159|194:245,1,180,4|8
120,168,90378,5,0
120,168,90620,2,4,B|304:168,1,180,4|8
304,56,91346,1,0
384,128,91587,1,4
304,328,92071,5,8
384,256,92313,1,0
296,192,92555,2,0,B|208:192,1,90,4|0
144,288,93039,2,0,B|93:268|96:218,1,90,8|2
208,192,93523,1,4
200,72,93764,2,0,B|251:54|281:94,1,90,2|8
208,192,94248,5,0
328,192,94490,1,4
392,96,94732,1,0
456,192,94974,1,8
400,296,95216,2,0,B|312:296,1,90,0|4
192,296,95699,2,0,B|104:296,1,90,0|8
48,192,96183,5,0
104,88,96425,1,4
48,192,96667,1,0
104,88,96909,1,8
48,192,97151,1,2
168,192,97393,2,0,B|256:192,1,90,4|2
258,192,98118,5,2
368,152,98360,1,4
432,56,98602,1,2
72,112,99086,6,0,B|7:191|69:277,1,180,2|2
168,344,99811,1,8
264,248,100053,1,0
176,152,100295,1,4
80,248,100537,1,0
168,344,100779,1,8
368,160,101263,5,4
416,32,101504,1,0
280,56,101746,1,8
424,280,102230,1,4
352,16,102714,1,8
336,288,103198,1,4
288,184,103439,1,2
208,96,103681,6,0,B|127:31|42:93,1,180,8|4
152,240,104407,2,0,B|101:220|104:170,1,90,2|8
208,96,104891,1,2
328,48,105133,1,4
424,136,105374,1,2
304,240,105616,5,2
424,136,105858,1,0
304,240,106100,1,2
144,240,106342,1,0
304,240,106584,2,0,B|304:288,4,45,4|0|0|0|0
304,240,107309,1,8
232,96,107551,6,0,B|199:59|149:81,1,90,2|0
224,224,108035,2,0,B|256:260|306:238,1,90,2|0
384,96,108519,2,0,B|416:96|424:120,4,45
384,96,109245,1,8
384,96,109486,1,4
