osu file format v9

[General]
AudioFilename: KOTOKO UZU-MAKI.mp3
AudioLeadIn: 1500
PreviewTime: 77800
Countdown: 0
SampleSet: Soft
StackLeniency: 0.6
Mode: 0
LetterboxInBreaks: 1

[Editor]
DistanceSpacing: 1
BeatDivisor: 4
GridSize: 4

[Metadata]
Title:Cider (short ver.)
Artist:KOTOKO
Creator:DarknessAngel
Version:Easy
Source:UZU-MAKI
Tags:

[Difficulty]
HPDrainRate:2
CircleSize:3
OverallDifficulty:2
ApproachRate:3
SliderMultiplier:0.8
SliderTickRate:2

[Events]
//Background and Video events
0,0,"001.JPG"
//Break Periods
//Storyboard Layer 0 (Background)
//Storyboard Layer 1 (Fail)
//Storyboard Layer 2 (Pass)
//Storyboard Layer 3 (Foreground)
//Storyboard Sound Samples
//Background Colour Transformations
3,100,163,162,255

[TimingPoints]
642,483.753930500685,4,2,1,70,1,0
31965,-100,4,2,0,70,0,0
32207,-100,4,2,1,70,0,0
62925,-100,4,2,0,70,0,0
63167,-100,4,2,1,70,0,0
78526,-100,4,2,1,70,0,1
105616,-100,4,2,1,70,0,0
109486,-100,4,1,0,70,0,1
109607,-100,4,1,0,100,0,0

[Colours]
Combo1 : 0,128,255
Combo2 : 29,216,159
Combo3 : 63,86,182
Combo4 : 0,0,255

[HitObjects]
256,192,883,12,0,2818
160,72,3544,2,0,B|200:48|240:72,1,80,2|0
200,144,4512,1,2
128,176,4996,2,0,B|72:248|128:328,1,160,0|0
184,264,6447,1,2
240,328,6931,2,8,B|293:251|237:179,1,160,0|0
240,104,8382,6,0,B|152:104,2,80,2|0|2
320,104,9833,2,0,B|408:104,1,80,0|2
400,184,10801,2,0,B|455:254|402:331,1,160,0|0
336,280,12252,5,2
336,280,12736,1,0
264,320,13219,1,2
264,320,13703,1,0
264,240,14187,6,0,B|286:199|333:200,1,80,2|0
400,232,15154,1,2
392,152,15638,1,0
344,88,16122,2,0,B|322:47|279:48,1,80,2|0
272,128,17089,5,2
208,80,17573,1,0
192,160,18057,2,0,B|151:182|151:225,1,80,2|0
232,240,19024,1,2
200,312,19508,6,0,B|235:401|271:311,1,120,0|2
312,240,20717,2,0,B|336:200,2,40,0|2|0
232,240,21685,2,0,B|232:80,1,160
312,80,23136,2,0,B|360:80,1,40,2|2
424,112,23862,1,2
360,160,24346,6,0,B|382:201|425:200,1,80,0|2
424,280,25313,1,2
352,256,25797,1,2
272,248,26281,2,0,B|276:201|316:185,1,80,2|0
384,144,27248,6,4,B|320:88|248:56|160:88|88:144,1,320,2|0
93,244,29667,2,0,B|160:296|248:328|320:296|384:240,1,320,2|0
384,160,32086,6,0,B|384:112,2,40,4|0|2
304,160,33053,2,0,B|304:104,2,40,2|0|2
224,160,34021,1,0
144,160,34505,2,0,B|120:199|143:236,1,80,8|0
224,240,35472,1,8
304,240,35956,6,0,B|304:280,2,40,2|0|2
384,240,36923,2,0,B|384:280,2,40,2|0|2
384,160,37891,2,0,B|384:72,1,80,0|8
312,40,38858,1,0
240,80,39342,2,0,B|240:168,1,80,8|2
168,200,40310,6,0,B|168:256,2,40,2|0|2
168,120,41277,2,0,B|168:64,2,40,0|0|0
96,160,42245,1,8
96,240,42728,1,0
136,312,43212,1,8
216,312,43696,6,0,B|304:312,1,80,0|8
376,312,44663,1,0
416,240,45147,1,8
416,160,45631,1,0
256,192,46115,12,2,47566
260,144,48050,5,0
256,64,48533,1,8
336,48,49017,1,0
336,128,49501,2,0,B|336:176,1,40,2|2
336,248,50227,6,0,B|259:301|187:245,1,160,4|0
152,248,51436,2,0,B|72:248,1,80,8|0
72,168,52403,1,8
72,88,52887,1,0
152,88,53371,2,0,B|152:184,1,80,8|0
200,232,54338,2,0,B|239:256|276:233,1,80,8|0
240,160,55306,6,0,B|216:128,2,40,2|0|8
320,160,56273,2,0,B|344:128,2,40,2|0|8
280,232,57241,2,0,B|312:264,1,40,2|0
376,224,57967,2,0,B|420:213|430:170,1,80,4|0
424,128,58692,2,0,B|424:80,1,40,8|2
352,56,59418,6,0,B|296:56,1,40,2|8
240,88,60143,1,0
296,144,60627,1,8
216,168,61111,2,0,B|206:209|161:220,1,80,0|8
136,144,62078,1,4
136,144,62562,1,8
80,208,63046,6,0,B|79:297|168:325,1,160,4|0
232,272,64497,1,8
288,328,64981,2,0,B|330:328|351:287,1,80,0|8
304,224,65949,1,0
384,208,66432,2,0,B|384:112,1,80,8|0
336,64,67400,5,8
304,136,67884,1,0
256,72,68367,2,0,B|219:94|222:139,1,80,8|2
224,216,69335,2,8,B|223:258|264:280,1,80,8|2
304,208,70302,1,8
344,280,70786,6,0,B|384:258|383:215,1,80,4|0
360,136,71754,1,2
280,128,72237,1,2
304,208,72721,6,0,B|304:256,2,40,4|0|0
224,192,73689,2,0,B|134:163|134:74,1,160,2|2
216,88,75140,1,8
264,24,75624,2,0,B|303:41|305:87,1,80,2|8
264,152,76591,2,0,B|264:208,1,40,8|4
256,192,78284,12,0,80219
256,192,80945,5,0
256,112,81429,2,0,B|166:76|256:40,1,120,2|0
336,64,82638,2,0,B|368:32,2,40,2|8|2
380,132,83605,1,2
300,136,84089,2,0,B|299:178|340:200,1,80,4|0
372,276,85057,2,0,B|396:292|372:308,1,40,0|4
304,344,85782,2,0,B|288:366|272:342,1,40,8|0
208,296,86508,6,0,B|120:296,1,80,2|2
144,216,87476,1,0
64,240,87959,2,0,B|48:216|72:200,1,40,8|0
120,144,88685,2,0,B|136:120|152:144,1,40,4|0
224,184,89411,2,0,B|242:195|226:219,1,40,2|8
288,272,90136,6,0,B|341:194|286:124,1,160,4|4
208,96,91587,2,0,B|112:96,2,80,8|4|8
208,176,93039,1,4
208,256,93523,6,0,B|130:309|60:254,1,160,8|8
64,176,94974,2,0,B|134:120|211:174,1,160,4|4
288,176,96425,2,0,B|288:80,1,80,8|4
248,80,97151,2,0,B|208:80,2,40,2|8|2
328,80,98118,2,2,B|368:80,2,40,2|8|2
320,160,99086,2,0,B|341:200|384:198,1,80,4|0
424,184,99811,2,0,B|448:200|424:216,1,40,8|2
416,296,100537,6,8,B|368:296,1,40,2|8
296,296,101263,1,4
216,296,101746,1,8
176,224,102230,1,4
256,224,102714,2,0,B|312:160,2,80,8|4|8
216,152,104165,1,4
176,224,104649,6,0,B|120:224,2,40,8|2|4
200,256,105374,2,0,B|160:352|280:376|304:128|408:112|400:256,1,360,2|0
256,192,108035,12,4,109486
