osu file format v12

[General]
AudioFilename: Blaze.mp3
AudioLeadIn: 2000
PreviewTime: 51876
Countdown: 0
SampleSet: Normal
StackLeniency: 0.7
Mode: 0
LetterboxInBreaks: 0

[Editor]
DistanceSpacing: 1
BeatDivisor: 8
GridSize: 64

[Metadata]
Title:BLAZE (TV Size)
TitleUnicode:BLAZE (TV Size)
Artist:KOTOKO
ArtistUnicode:KOTOKO
Creator:Kodora
Version:Easy
Source:Shakugan no Shana II
Tags:Opening J.C Staff Takase Kazuya Laurier KSHR 灼眼のシャナ
BeatmapID:274700
BeatmapSetID:100724

[Difficulty]
HPDrainRate:2
CircleSize:3
OverallDifficulty:2
ApproachRate:3
SliderMultiplier:0.9
SliderTickRate:1

[Events]
//Background and Video events
0,0,"Hard BG.jpg",0,0
Video,64,"Blaze.avi"
//Break Periods
//Storyboard Layer 0 (Background)
//Storyboard Layer 1 (Fail)
//Storyboard Layer 2 (Pass)
//Storyboard Layer 3 (Foreground)
//Storyboard Sound Samples
Sample,6173,0,"soft-hitclap3.wav",55
Sample,51175,0,"soft-hitclap3.wav",55
//Background Colour Transformations
3,100,163,162,255

[TimingPoints]
80,468.75,4,2,3,65,1,0
7580,-100,4,2,1,65,0,1
7638,-100,4,2,3,65,0,0
30490,-100,4,2,3,50,0,0
30607,-100,4,2,3,65,0,0
35646,-100,4,2,1,65,0,0
35763,-100,4,2,3,65,0,0
37580,-100,4,1,1,65,0,1
37638,-100,4,2,3,65,0,0
51876,-100,4,2,2,65,0,0
52580,-100,4,1,3,65,0,1
60021,-100,4,1,1,65,0,0
60080,-100,4,1,3,65,0,1
60490,-100,4,1,3,50,0,1
60607,-100,4,1,3,65,0,1
67521,-100,4,1,1,65,0,0
67580,-100,4,1,3,65,0,1
67638,-100,4,1,3,65,0,0
75080,-100,4,1,3,65,0,1
75138,-100,4,1,3,65,0,0
87033,-100,4,1,1,65,0,1
87091,-100,4,2,1,5,0,0

[Colours]
Combo1 : 255,150,0
Combo2 : 0,128,0
Combo3 : 255,255,128
Combo4 : 255,0,0

[HitObjects]
128,144,80,2,0,L|64:72,2,90,4|8|2,0:0|0:0|0:0,0:0:0:0:
200,200,1486,1,8,0:0:0:0:
264,136,1955,2,0,P|344:96|416:144,1,180,0|2,0:0|0:0,0:0:0:0:
472,208,3361,1,8,0:0:0:0:
416,280,3830,6,0,P|343:320|263:280,1,180,0|2,0:0|0:0,0:0:0:0:
200,216,5236,1,8,0:0:0:0:
256,192,5705,12,4,7580,0:0:0:0:
80,96,8517,6,0,P|80:192|184:192,1,180,2|0,0:0|0:0,0:0:0:0:
237,206,9923,1,8,0:2:0:0:
320,168,10392,2,0,L|400:96,2,89.9999999999999,0|8|2,0:0|0:0|0:0,0:0:0:0:
310,257,11798,1,8,0:0:0:0:
240,312,12267,6,0,L|144:344,1,89.9999999999999,0|8,0:0|0:2,0:0:0:0:
112,264,13205,2,0,L|24:192,2,89.9999999999999,2|8|0,0:0|0:2|0:0,0:0:0:0:
184,216,14611,1,4,0:2:0:0:
272,216,15080,1,4,0:0:0:0:
368,64,16017,6,0,P|288:56|176:64,2,180,2|0|0,0:0|0:0|0:2,0:0:0:0:
404,148,18361,1,8,0:0:0:0:
483,106,18830,2,0,P|494:151|479:195,1,90,2|8,0:0|0:0,0:0:0:0:
416,256,19767,6,0,L|304:256,1,89.9999999999999,0|8,0:0|0:0,0:0:0:0:
236,245,20705,2,0,P|196:157|260:69,2,180,2|0|4,0:0|0:2|0:0,0:0:0:0:
72,176,23517,6,0,B|32:216|32:216|16:272,2,89.9999999999999,2|8|0,0:0|0:0|0:0,0:0:0:0:
160,200,24923,1,8,0:0:0:0:
240,160,25392,2,0,B|280:120|280:120|296:64,2,89.9999999999999,0|8|2,0:2|0:0|0:0,0:0:0:0:
160,200,26798,1,8,0:0:0:0:
216,272,27267,6,0,P|296:312|384:264,1,180,0|2,0:0|0:0,0:0:0:0:
432,208,28673,1,8,0:0:0:0:
376,136,29142,2,0,P|296:96|208:144,1,180,0|4,0:0|0:0,0:0:0:0:
136,96,30548,1,12,0:0:0:0:
88,176,31017,6,0,L|40:296,2,89.9999999999999,2|8|0,0:0|0:0|0:0,0:0:0:0:
168,216,32423,1,8,0:0:0:0:
248,176,32892,2,0,L|320:120,2,89.9999999999999,2|8|0,0:2|0:0|0:0,0:0:0:0:
264,264,34298,2,0,P|232:304|176:320,1,89.9999999999999,8|2,0:0|0:0,0:0:0:0:
104,304,35236,6,0,P|96:216|112:112,1,180,8|8,0:0|0:0,0:0:0:0:
192,160,36642,2,0,L|312:160,2,89.9999999999999,2|12|4,0:0|0:0|0:0,0:0:0:0:
192,248,38048,5,8,0:0:0:0:
272,288,38517,2,0,B|304:330|304:330|376:347,2,89.9999999999999,2|8|0,0:2|0:0|0:0,0:0:0:0:
192,248,39923,1,8,0:0:0:0:
192,160,40392,6,0,L|192:56,2,89.9999999999999,6|12|4,0:2|0:2|0:0,0:0:0:0:
192,248,41798,1,8,0:0:0:0:
280,248,42267,2,0,L|400:248,2,89.9999999999999,6|8|2,0:0|0:0|0:0,0:0:0:0:
192,248,43673,1,8,0:0:0:0:
128,184,44142,5,2,0:2:0:0:
200,128,44611,1,10,0:0:0:0:
256,192,45080,2,0,B|320:232|408:184|408:104|408:104,1,180,6|0,0:0|0:0,0:0:0:0:
344,64,46486,6,0,L|240:64,2,89.9999999999999,8|2|8,0:0|0:0|0:0,0:0:0:0:
393,139,47892,1,2,0:2:0:0:
365,224,48361,2,0,P|356:266|308:299,2,90,8|0|8,0:0|0:0|0:0,0:0:0:0:
274,223,49767,5,0,0:0:0:0:
193,182,50236,1,8,0:0:0:0:
256,192,50705,12,0,51876,0:0:0:0:
104,192,52580,6,0,L|72:312,2,89.9999999999999,6|8|0,0:0|0:0|0:0,0:0:0:0:
192,164,53986,1,8,0:0:0:0:
280,136,54455,2,0,L|272:24,2,89.9999999999999,2|8|0,0:0|0:0|0:0,0:0:0:0:
368,168,55861,1,8,0:0:0:0:
400,256,56330,6,0,L|456:360,2,89.9999999999999,2|8|0,0:0|0:0|0:0,0:0:0:0:
320,304,57736,1,8,0:0:0:0:
230,291,58205,6,0,P|184:280|152:248,1,90,2|8,0:0|0:0,0:0:0:0:
121,167,59142,1,2,0:0:0:0:
147,81,59611,1,10,0:0:0:0:
232,72,60080,6,0,P|328:96|416:64,1,180,6|0,0:0|0:0,0:0:0:0:
424,160,61486,1,8,0:0:0:0:
376,240,61955,2,0,L|424:344,2,89.9999999999999,2|8|0,0:0|0:0|0:0,0:0:0:0:
288,216,63361,1,8,0:0:0:0:
224,152,63830,6,0,L|144:72,2,89.9999999999999,2|8|0,0:0|0:0|0:0,0:0:0:0:
200,240,65236,1,8,0:0:0:0:
272,296,65705,2,0,P|344:232|360:120,1,180,6|0,0:0|0:0,0:0:0:0:
319,75,67111,1,8,0:0:0:0:
240,120,67580,6,0,L|144:80,1,89.9999999999999,6|8,0:0|0:0,0:0:0:0:
72,112,68517,2,0,L|88:232,1,89.9999999999999,2|8,0:0|0:0,0:0:0:0:
112,288,69455,2,0,L|208:320,1,89.9999999999999,2|8,0:0|0:0,0:0:0:0:
288,312,70392,2,0,L|408:288,1,89.9999999999999,2|8,0:0|0:0,0:0:0:0:
390,205,71330,6,0,P|390:125|342:13,2,180,2|2|0,0:0|0:0|0:0,0:0:0:0:
328,272,73673,1,8,0:0:0:0:
248,224,74142,2,0,L|152:240,1,89.9999999999999,2|8,0:0|0:0,0:0:0:0:
72,216,75080,6,0,P|44:134|72:48,1,180,6|0,0:0|0:0,0:0:0:0:
158,72,76486,1,8,0:0:0:0:
245,51,76955,2,0,P|273:133|245:219,1,180,2|0,0:0|0:0,0:0:0:0:
192,288,78361,5,12,0:0:0:0:
120,232,78830,2,0,L|24:208,2,89.9999999999999,2|8|0,0:0|0:0|0:0,0:0:0:0:
192,288,80236,1,8,0:0:0:0:
280,264,80705,5,4,0:0:0:0:
424,160,81642,1,4,0:0:0:0:
273,63,82580,1,4,0:0:0:0:
256,192,83283,12,4,87033,0:0:0:0:
