osu file format v13

[General]
AudioFilename: lll.mp3
AudioLeadIn: 0
PreviewTime: 49750
Countdown: 0
SampleSet: Normal
StackLeniency: 0.7
Mode: 0
LetterboxInBreaks: 1
WidescreenStoryboard: 1

[Editor]
DistanceSpacing: 1
BeatDivisor: 4
GridSize: 4
TimelineZoom: 1

[Metadata]
Title:Art as Love (short ver.)
TitleUnicode:Art as ♥ (short ver.)
Artist:KOTOKO
ArtistUnicode:KOTOKO
Creator:IA42
Version:Normal
Source:イノセントガール
Tags:Visual novel Eroge Front wing
BeatmapID:552368
BeatmapSetID:238562

[Difficulty]
HPDrainRate:2
CircleSize:3
OverallDifficulty:2
ApproachRate:4
SliderMultiplier:1.4
SliderTickRate:1

[Events]
//Background and Video events
Video,0,"lll.avi"
0,0,"maxresdefault.jpg",0,0
//Break Periods
2,75184,75972
//Storyboard Layer 0 (Background)
//Storyboard Layer 1 (Fail)
//Storyboard Layer 2 (Pass)
//Storyboard Layer 3 (Foreground)
//Storyboard Sound Samples
//Background Colour Transformations
3,100,163,162,255

[TimingPoints]
-159,288.461538461538,4,1,1,35,1,0
3177,-200,4,1,1,35,0,0
4768,-100,4,1,1,35,0,0
17220,-133.333333333333,4,1,1,35,0,0
17365,-133.333333333333,4,1,1,25,0,0
25225,-100,4,1,1,35,0,0
45850,-100,4,1,1,5,0,0
46932,-200,4,2,1,35,0,0
48374,-200,4,1,1,35,0,0
48663,-133.333333333333,4,1,1,35,0,0
49095,-100,4,1,1,35,0,0
49600,-100,4,1,1,35,0,1
70225,-100,4,1,1,35,0,0
84071,-100,4,2,1,35,0,0
85874,-100,4,1,1,35,0,0
86163,-100,4,2,1,5,0,0

[Colours]
Combo1 : 159,0,0
Combo2 : 255,176,216
Combo3 : 223,223,223
Combo4 : 105,105,105

[HitObjects]
184,56,994,6,0,L|344:56,1,140
464,192,1715,1,0,0:0:0:0:
328,332,2148,2,0,L|180:332,1,140
60,192,2869,1,0,0:0:0:0:
196,48,3302,2,0,L|304:144|304:324,1,315
112,64,5754,6,0,L|256:64,1,140,0|0,0:0|0:0,0:0:0:0:
384,176,6475,2,0,L|468:176,2,70,0|0|0,0:0|0:0|0:0,0:0:0:0:
196,308,7196,1,0,0:0:0:0:
260,228,7485,2,0,L|304:173,1,70
296,64,7917,2,0,L|80:64,1,210,0|0,0:0|0:0,0:0:0:0:
88,172,8639,5,0,0:0:0:0:
196,172,8927,2,0,L|280:172,1,70
352,244,9360,2,0,L|440:244,2,70,0|0|0,0:0|0:0|0:0,0:0:0:0:
236,248,9937,2,0,L|200:176,2,70,0|0|0,0:0|0:0|0:0,0:0:0:0:
248,288,10369,2,0,P|184:308|92:200,1,210
88,104,11090,2,0,L|88:24,2,70,0|0|0,0:0|0:0|0:0,0:0:0:0:
176,164,11667,2,0,L|176:80,2,70,0|0|0,0:0|0:0|0:0,0:0:0:0:
236,260,12244,6,0,P|264:288|320:288,1,70
400,296,12677,2,0,L|400:204,3,70,0|0|0|0,0:0|0:0|0:0|0:0,0:0:0:0:
396,124,13398,2,0,L|492:124,2,70,0|0|0,0:0|0:0|0:0,0:0:0:0:
304,176,13975,2,0,L|252:116,2,70,0|0|0,0:0|0:0|0:0,0:0:0:0:
300,336,14696,1,0,0:0:0:0:
192,332,14985,5,0,0:0:0:0:
124,252,15273,1,0,0:0:0:0:
120,148,15562,2,0,L|276:148,2,140,0|0|0,0:0|0:0|0:0,0:0:0:0:
36,216,16427,1,0,0:0:0:0:
136,240,16715,2,0,L|252:317,2,140,0|0|0,0:0|0:0|0:0,0:0:0:0:
80,68,17869,5,0,0:0:0:0:
328,72,18446,1,0,0:0:0:0:
336,296,19023,1,0,0:0:0:0:
80,296,19600,1,0,0:0:0:0:
76,72,20177,6,0,P|92:132|220:200,1,210.000008010865
384,256,21331,2,0,P|368:196|244:128,1,210.000008010865
48,192,22485,5,0,0:0:0:0:
256,290,23062,2,0,L|256:80,1,210.000008010865
76,80,24215,1,0,0:0:0:0:
76,292,24792,1,0,0:0:0:0:
260,184,25369,5,0,0:0:0:0:
432,304,25946,1,0,0:0:0:0:
436,72,26523,2,0,P|360:72|272:232,1,280
96,312,27677,2,0,P|172:312|260:152,1,280
100,76,28831,2,0,L|32:148,2,70,0|0|0,0:0|0:0|0:0,0:0:0:0:
128,48,29264,6,0,P|176:132|300:140,1,210
432,68,29985,2,0,L|432:156,2,70,0|0|0,0:0|0:0|0:0,0:0:0:0:
384,64,30417,6,0,B|300:136|300:136|300:244,1,210
416,340,31139,2,0,P|460:324|480:296,2,70,0|0|0,0:0|0:0|0:0,0:0:0:0:
372,340,31571,6,0,P|324:300|204:204,1,210
96,200,32292,2,0,L|96:284,2,70,0|0|0,0:0|0:0|0:0,0:0:0:0:
132,200,32725,2,0,P|196:180|228:32,1,210
136,92,33446,2,0,P|92:68|80:32,2,70,0|0|0,0:0|0:0|0:0,0:0:0:0:
168,104,33879,2,0,P|228:128|368:80,1,210
460,56,34600,2,0,L|460:126,2,70,0|0|0,0:0|0:0|0:0,0:0:0:0:
348,56,35177,2,0,P|268:100|256:148,1,140
256,248,35754,2,0,L|116:248,1,140
172,80,36475,5,0,0:0:0:0:
256,32,36764,2,0,P|260:120|160:180,1,210
172,80,37485,2,0,L|352:196,1,210
284,336,38350,2,0,L|436:336,2,140,0|0|0,0:0|0:0|0:0,0:0:0:0:
172,336,39215,5,0,0:0:0:0:
176,224,39504,2,0,L|316:224,2,140,0|0|0,0:0|0:0|0:0,0:0:0:0:
84,152,40369,2,0,B|127:106|127:106|203:106,1,140
396,184,41090,5,0,0:0:0:0:
468,284,41379,2,0,P|512:184|453:80,1,210
352,88,42100,2,0,P|292:176|176:159,1,210
332,336,42965,2,0,L|192:336,1,140
88,184,43831,5,0,0:0:0:0:
252,96,44408,1,0,0:0:0:0:
408,180,44985,6,0,P|432:256|404:328,2,140,0|0|0,0:0|0:0|0:0,0:0:0:0:
312,256,45850,1,0,0:0:0:0:
256,192,45994,12,0,49600,0:0:0:0:
256,64,50177,5,0,0:0:0:0:
424,192,50754,1,0,0:0:0:0:
256,320,51331,2,0,L|144:212,2,140,0|0|0,0:0|0:0|0:0,0:0:0:0:
420,184,52485,5,0,0:0:0:0:
256,56,53062,2,0,P|156:72|104:236,1,280
160,316,53927,1,0,0:0:0:0:
224,236,54215,1,0,0:0:0:0:
392,64,54792,6,0,P|428:120|396:320,1,280
160,316,55946,2,0,L|32:200,2,140,0|0|0,0:0|0:0|0:0,0:0:0:0:
312,160,57100,5,0,0:0:0:0:
448,324,57677,2,0,L|288:324,1,140
272,324,58110,2,0,P|208:304|184:240,1,140
184,208,58542,2,0,L|184:64,1,140
368,64,59408,5,0,0:0:0:0:
256,192,59985,2,0,L|416:192,2,140,0|0|0,0:0|0:0|0:0,0:0:0:0:
128,324,61139,1,0,0:0:0:0:
44,156,61715,6,0,P|96:116|116:36,2,140,0|0|0,0:0|0:0|0:0,0:0:0:0:
184,312,62869,2,0,L|468:312,1,280
380,124,64023,1,0,0:0:0:0:
224,272,64600,1,0,0:0:0:0:
128,80,65177,2,0,P|39:183|54:319,1,280
336,332,66331,2,0,B|380:332|380:332|428:288|428:288|428:236,2,140,0|0|0,0:0|0:0|0:0,0:0:0:0:
220,332,67196,2,0,L|220:168,2,140,0|0|0,0:0|0:0|0:0,0:0:0:0:
108,332,68062,1,0,0:0:0:0:
256,192,68206,12,0,70369,0:0:0:0:
256,52,70946,5,0,0:0:0:0:
84,192,71523,1,0,0:0:0:0:
256,332,72100,2,0,P|256:268|432:176,1,280
352,332,73254,1,0,0:0:0:0:
276,140,73831,1,0,0:0:0:0:
84,60,74408,2,0,B|20:156|148:232|64:328,1,280
216,288,77292,6,0,L|216:68,1,210
384,72,78158,6,0,L|384:156,2,70,0|0|0,0:0|0:0|0:0,0:0:0:0:
272,60,78735,6,0,P|244:36|208:36,2,70,0|0|0,0:0|0:0|0:0,0:0:0:0:
272,168,79312,2,0,L|196:168,2,70,0|0|0,0:0|0:0|0:0,0:0:0:0:
384,168,79889,6,0,L|384:244,2,70,0|0|0,0:0|0:0|0:0,0:0:0:0:
272,164,80465,2,0,L|272:88,2,70,0|0|0,0:0|0:0|0:0,0:0:0:0:
192,248,81042,6,0,L|244:312,2,70,0|0|0,0:0|0:0|0:0,0:0:0:0:
124,144,81619,2,0,P|116:100|140:68,2,70,0|0|0,0:0|0:0|0:0,0:0:0:0:
184,248,82196,6,0,L|20:248,2,140,0|0|0,0:0|0:0|0:0,0:0:0:0:
304,272,83062,6,0,L|472:272,2,140,0|0|0,0:0|0:0|0:0,0:0:0:0:
192,272,83927,1,0,0:0:0:0:
108,204,84215,2,0,L|40:136,3,70,0|0|0|0,0:0|0:0|0:0|0:0,0:0:0:0:
64,60,84937,1,0,0:0:0:0:
168,56,85225,2,0,L|336:56,1,140
344,56,85658,1,0,0:0:0:0:
416,144,85946,2,0,B|364:196|364:196|364:264,1,140
