osu file format v9

[General]
AudioFilename: akane sora ~ sorega fu rano sekai datta ~.mp3
AudioLeadIn: 1500
PreviewTime: 66387
Countdown: 0
SampleSet: Soft
StackLeniency: 0.4
Mode: 0
LetterboxInBreaks: 1

[Editor]
DistanceSpacing: 1.2
BeatDivisor: 4
GridSize: 8

[Metadata]
Title:Akanezora ~ Sore ga Bokura no Sekai datta ~
Artist:KOTOKO
Creator:kanpakyin
Version:Normal
Source:Maji de Watashi ni Koishinasai
Tags:majikoi

[Difficulty]
HPDrainRate:5
CircleSize:4
OverallDifficulty:5
ApproachRate:4
SliderMultiplier:1.4
SliderTickRate:1

[Events]
//Background and Video events
Video,0,"video.avi"
0,0,"BG.jpg"
//Break Periods
//Storyboard Layer 0 (Background)
//Storyboard Layer 1 (Fail)
//Storyboard Layer 2 (Pass)
//Storyboard Layer 3 (Foreground)
//Storyboard Sound Samples
//Background Colour Transformations
3,100,163,162,255

[TimingPoints]
383,666.666666666667,4,2,1,20,1,0
13549,-100,4,2,2,20,0,0
13883,-100,4,2,1,20,0,0
34883,-100,4,2,2,20,0,0
35216,-100,4,2,1,20,0,0
40216,-100,4,1,1,20,0,0
40549,-100,4,2,1,20,0,0
42883,-100,4,1,1,20,0,0
43216,-100,4,2,1,20,0,0
45216,-100,4,1,1,20,0,0
45883,-100,4,2,1,20,0,0
47883,-100,4,1,1,20,0,0
48549,-100,4,2,1,20,0,0
50883,-100,4,2,2,20,0,0
51216,-100,4,2,1,20,0,0
53549,-100,4,1,1,20,0,0
53883,-100,4,2,1,20,0,0
55883,-100,4,1,1,20,0,0
56549,-100,4,2,1,20,0,0
58883,-100,4,1,1,20,0,0
59216,-100,4,2,1,20,0,0
61549,-100,4,1,1,20,0,0
61883,-100,4,2,1,20,0,0
67049,-100,4,2,1,30,0,1
68216,-100,4,1,1,40,0,1
68549,-100,4,2,1,30,0,1
70883,-100,4,1,1,40,0,1
71216,-100,4,2,1,30,0,1
73549,-100,4,1,1,40,0,1
73883,-100,4,2,1,30,0,1
74883,-100,4,2,2,30,0,1
75216,-100,4,2,1,30,0,1
76216,-100,4,1,1,40,0,1
76549,-100,4,2,1,30,0,1
78883,-100,4,1,1,40,0,1
79216,-100,4,2,1,30,0,1
81549,-100,4,1,1,50,0,1
81883,-100,4,1,1,40,0,1
82216,-100,4,1,1,30,0,1
82549,-100,4,2,1,30,0,1
82883,-100,4,2,2,30,0,1
83216,-100,4,2,1,30,0,1
84216,-100,4,1,1,40,0,1
84549,-100,4,2,1,30,0,1
86216,-100,4,2,2,30,0,1
86549,-100,4,2,1,30,0,1
88216,-100,4,2,1,45,0,1
88549,-100,4,2,1,30,0,1
89549,-100,4,1,1,30,0,1
89883,-100,4,2,1,30,0,1
92216,-100,4,1,1,30,0,1
92549,-100,4,2,1,30,0,1
94883,-100,4,1,1,30,0,1
95216,-100,4,2,1,30,0,1
97549,-100,4,1,1,30,0,1
97883,-100,4,2,1,30,0,1
100216,-100,4,1,1,30,0,1
100549,-100,4,2,1,30,0,1
102883,-100,4,1,1,30,0,1
103216,-100,4,2,1,30,0,1
108216,-100,4,2,2,30,0,1
108549,-100,4,2,1,30,0,1
109716,-100,4,2,1,20,0,0
118216,-100,4,2,2,20,0,0
126049,-100,4,2,1,20,0,0

[Colours]
Combo1 : 171,186,69
Combo2 : 254,179,1

[HitObjects]
157,170,383,2,0,B|108:150|80:145,2,70,2|0|0
241,171,1383,1,0
241,171,1716,2,0,B|391:172,2,140,2|0|2
187,235,3383,1,0
187,235,3716,2,0,B|185:270|167:303,1,70
243,338,4383,1,2
327,192,5049,5,2
327,192,5383,1,2
327,192,5716,2,0,B|405:189|484:191,2,140,2|0|2
190,107,8383,6,0,B|154:123|137:149,2,70,2|0|0
207,189,9383,1,0
207,189,9716,2,0,B|206:247|206:247|231:280|209:339,1,140,2|2
136,291,10716,1,2
136,291,11049,1,2
256,121,12716,5,2
256,121,13049,2,0,B|324:111|338:113,2,70,0|2|4
256,192,13882,12,2,16382
166,190,19049,6,0,B|121:173|82:168,2,70,2|0|2
250,192,20049,1,0
250,192,20383,2,0,B|324:190|324:190|415:195,2,140,2|0|2
258,275,22049,5,0
258,275,22383,2,0,B|203:286|189:332,1,70
270,354,23049,2,0,B|121:354,1,140,2|0
134,269,24049,1,0
134,269,24383,6,0,B|82:260|58:216,1,70,2|0
135,181,25049,1,0
135,181,25383,1,0
135,181,25716,2,0,B|197:168|197:168|247:191|282:165,1,140,2|0
331,230,26716,1,0
331,230,27049,6,0,B|377:223|416:248,1,70,2|0
361,314,27716,2,0,B|399:338|409:372,2,70,0|0|2
276,311,28716,1,0
276,311,29049,2,0,B|204:308|219:268|132:266,1,140,0|2
148,350,30049,5,0
148,350,30383,2,0,B|99:352|72:304,1,70,2|0
142,261,31049,2,0,B|119:224|130:173,1,70,2|0
210,199,31716,2,0,B|205:161|218:130|218:130|193:105|183:39,2,140,2|2|0
293,188,33383,2,0,B|312:160,2,35,0|0|2
265,267,34049,1,0
265,267,34383,2,0,B|296:303|301:330|301:330|329:328|378:360,2,140,0|4|0
255,99,36383,6,0,B|226:80|203:57|203:57|170:66|121:56,2,140,2|0|2
331,133,38049,1,0
254,168,38383,2,0,B|210:190|198:221,1,70,2|0
275,253,39049,2,0,B|244:279|244:321,1,70,2|0
328,320,39716,2,0,B|170:320,2,140,2|0|2
312,237,41382,5,0
312,237,41716,2,0,B|353:235|371:239|371:239|415:228|415:228|468:229,2,140,0|2|0
334,155,43382,1,0
334,155,43716,2,0,B|240:160|179:150,1,140,2|0
118,114,44716,1,0
118,114,45049,2,0,B|96:151|124:198,1,70,2|0
171,244,45716,6,0,B|187:287|168:320,1,70
96,281,46382,1,2
96,281,46716,1,0
96,281,47049,2,0,B|259:282,1,140,0|2
297,339,48049,1,0
297,339,48382,6,0,B|340:314|348:290,1,70
428,272,49049,2,0,B|406:234|403:190,1,70,2|0
322,190,49716,2,0,B|320:110|319:38,2,140,0|2|4
238,181,51382,5,0
238,181,51716,2,0,B|226:227|184:255,1,70,2|0
146,177,52382,2,0,B|-11:177,2,140,0|2|0
125,258,54049,1,0
125,258,54382,2,0,B|131:299|173:335,1,70,2|0
212,256,55049,2,0,B|357:256,1,140,0|2
435,261,56049,1,0
435,261,56382,5,0
320,138,57049,1,2
154,168,57716,1,0
27,57,58382,1,2
27,57,59049,6,0,B|42:131|36:219,1,140,0|2
119,177,60049,1,0
119,177,60382,2,0,B|119:240|112:267,1,70
199,241,61049,6,0,B|277:245|258:292|335:297,1,140,2|0
353,217,62049,2,0,B|394:229|413:280,1,70,0|2
488,266,62716,2,0,B|484:314|450:338,1,70
380,353,63382,1,0
307,311,63716,2,0,B|256:310|256:310|224:321|224:321|160:320,1,140,2|4
256,192,64549,12,4,67049
258,190,67716,5,8
258,190,68049,1,0
258,190,68382,2,0,B|208:195|169:178,1,70
167,266,69049,2,0,B|128:259|94:218,1,70,8|2
52,296,69716,6,0,B|23:268|24:212,2,70,0|0|8
128,330,70716,1,0
128,330,71049,2,0,B|207:309|204:350|281:328,1,140,0|8
334,283,72049,1,2
334,283,72382,6,0,B|354:242|329:202,1,70,4|0
278,154,73049,2,0,B|262:115|282:78,1,70,8|0
354,120,73716,2,0,B|199:120,1,140,0|8
232,202,74716,1,2
232,202,75049,2,0,B|167:202|167:202|137:162|76:165,2,140,4|8|0
228,286,76716,1,2
228,286,77049,6,0,B|298:281|395:289,2,140,8|4|8
143,283,78716,1,0
59,283,79049,2,0,B|-16:285,2,70,0|0|8
95,207,80049,6,0,B|149:177|174:142,1,70,2|4
227,203,80716,2,0,B|251:165|254:121,1,70,0|8
333,157,81383,2,0,B|348:122|342:79,4,70,0|0|0|0|2
367,233,83049,6,0,B|375:268|407:302,1,70,4|2
319,319,83716,2,0,B|309:358|268:372,1,70,8|2
232,296,84383,2,0,B|195:296|172:276|172:276|149:296|95:297,1,140,0|8
98,212,85383,1,2
98,212,85716,2,0,B|102:160|96:128,1,70,6|0
172,102,86383,2,0,B|183:144|229:158,1,70,4|0
271,90,87049,2,0,B|344:86|344:86|368:119|418:116,1,140,4|4
343,177,88049,5,6
343,177,88383,2,0,B|360:219|340:254,1,70,4|0
267,212,89049,2,0,B|120:214,1,140,8|0
150,294,90049,1,2
150,294,90383,2,0,B|77:296|96:345|8:345,2,140,8|4|8
143,377,92049,1,2
143,377,92383,2,0,B|221:367|308:380,1,140,0|8
293,293,93383,2,0,B|341:295|368:256,1,70,2|4
423,320,94049,6,0,B|456:271|448:223,1,70,2|8
385,200,94716,2,0,B|369:154|322:138,1,70
384,74,95383,1,0
384,74,95716,2,0,B|336:75|336:75|296:61|296:61|243:59,1,140,8|4
263,141,96716,1,0
263,141,97049,2,0,B|215:140|215:140|169:156|169:156|112:156,2,140,8|0|8
236,220,98716,5,2
236,220,99049,2,0,B|286:232|312:268,1,70,4|0
232,305,99716,2,0,B|221:347|178:361,2,70,8|2|0
148,292,100716,1,0
148,292,101049,2,0,B|69:293,2,70,8|2|4
197,224,102049,1,0
197,224,102383,2,0,B|235:214|261:187,1,70,8|0
191,139,103049,2,0,B|230:104|228:65,1,70,0|2
143,74,103716,6,0,B|74:75|74:75|42:53|-3:62,2,140,8|4|8
187,145,105383,1,2
250,199,105716,2,0,B|319:198|319:198|351:220|396:211,2,140,4|8|4
202,268,107383,2,2,B|167:247|166:202,1,70,0|2
101,157,108049,2,0,B|90:117|46:99,1,70,2|4
256,192,108549,12,4,109716
157,195,110383,6,0,B|116:187|78:182,2,70,2|0|0
311,262,111716,1,2
311,262,112383,2,0,B|341:231|386:216,1,70,4|0
385,304,113049,2,0,B|482:304,2,70,2|0|0
316,352,114049,1,0
316,352,114383,2,0,B|242:355|154:352,1,140,2|4
215,278,115383,1,0
131,281,115716,1,2
166,205,116049,2,0,B|79:205,1,70,0|4
256,155,117049,5,2
256,155,117383,1,2
256,155,117716,2,0,B|399:208|444:373,2,280,2|4|4
180,117,120716,5,0
136,188,121049,1,2
212,224,121383,1,2
212,224,121716,2,0,B|376:216|472:96,2,280,0|4|0
151,165,124716,5,0
151,165,125049,1,2
151,165,125383,1,2
129,246,125716,1,4
254,192,128383,1,2
256,192,131216,12,2,136383
