osu file format v9

[General]
AudioFilename: akane sora ~ sorega fu rano sekai datta ~.mp3
AudioLeadIn: 1500
PreviewTime: 66387
Countdown: 0
SampleSet: Soft
StackLeniency: 0.4
Mode: 0
LetterboxInBreaks: 1

[Editor]
DistanceSpacing: 1
BeatDivisor: 4
GridSize: 8

[Metadata]
Title:Akanezora ~ Sore ga Bokura no Sekai datta ~
Artist:KOTOKO
Creator:kanpakyin
Version:Hard
Source:Maji de Watashi ni Koishinasai
Tags:majikoi

[Difficulty]
HPDrainRate:6
CircleSize:4
OverallDifficulty:6
ApproachRate:7
SliderMultiplier:1.8
SliderTickRate:1

[Events]
//Background and Video events
Video,0,"video.avi"
0,0,"BG.jpg"
//Break Periods
//Storyboard Layer 0 (Background)
//Storyboard Layer 1 (Fail)
//Storyboard Layer 2 (Pass)
//Storyboard Layer 3 (Foreground)
//Storyboard Sound Samples
//Background Colour Transformations
3,100,163,162,255

[TimingPoints]
383,666.666666666667,4,2,1,20,1,0
4883,-100,4,2,2,20,0,0
5216,-100,4,2,1,20,0,0
13549,-100,4,2,2,20,0,0
13883,-100,4,2,1,20,0,0
18216,-100,4,2,1,0,0,0
18549,-100,4,2,1,20,0,0
21549,-100,4,2,2,20,0,0
21883,-100,4,2,1,20,0,0
24216,-100,4,2,2,20,0,0
24549,-100,4,2,1,20,0,0
29549,-100,4,2,2,20,0,0
29883,-100,4,2,1,20,0,0
32216,-100,4,2,2,20,0,0
32549,-100,4,2,1,20,0,0
40216,-100,4,1,1,20,0,0
40549,-100,4,2,1,20,0,0
41716,-100,4,2,2,20,0,0
41883,-100,4,2,1,20,0,0
42549,-100,4,1,1,20,0,0
43216,-100,4,2,1,20,0,0
45216,-100,4,1,1,30,0,0
45549,-100,4,1,1,20,0,0
45883,-100,4,2,1,20,0,0
47883,-100,4,1,1,20,0,0
48549,-100,4,2,1,20,0,0
49716,-100,4,2,2,20,0,0
49883,-100,4,2,1,20,0,0
50549,-100,4,1,1,20,0,0
51216,-100,4,2,1,20,0,0
53549,-100,4,1,1,20,0,0
53883,-100,4,2,1,20,0,0
56216,-100,4,1,1,20,0,0
56549,-100,4,2,1,20,0,0
58883,-100,4,1,1,20,0,0
59216,-100,4,2,1,20,0,0
60216,-100,4,2,2,20,0,0
60549,-100,4,2,1,20,0,0
61216,-100,4,1,1,20,0,0
61883,-100,4,2,1,20,0,0
64216,-100,4,2,2,20,0,0
64549,-100,4,2,1,20,0,0
67049,-83.3333333333333,4,2,1,30,0,1
68216,-83.3333333333333,4,1,1,30,0,1
68549,-83.3333333333333,4,2,1,30,0,1
69716,-83.3333333333333,4,2,2,30,0,1
69883,-83.3333333333333,4,2,1,30,0,1
70883,-83.3333333333333,4,1,1,30,0,1
71216,-83.3333333333333,4,2,1,30,0,1
73549,-83.3333333333333,4,1,1,30,0,1
73883,-83.3333333333333,4,2,1,30,0,1
74883,-83.3333333333333,4,2,2,30,0,1
75216,-83.3333333333333,4,2,1,30,0,1
76383,-83.3333333333333,4,1,1,30,0,1
76549,-83.3333333333333,4,2,1,30,0,1
79049,-83.3333333333333,4,1,1,30,0,1
79216,-83.3333333333333,4,2,1,30,0,1
80383,-83.3333333333333,4,2,2,30,0,1
80549,-83.3333333333333,4,2,1,30,0,1
81549,-83.3333333333333,4,1,1,30,0,1
81883,-83.3333333333333,4,2,1,30,0,1
84216,-83.3333333333333,4,1,1,30,0,1
84549,-83.3333333333333,4,2,1,30,0,1
88383,-83.3333333333333,4,2,2,30,0,1
88549,-83.3333333333333,4,2,1,30,0,1
89549,-83.3333333333333,4,1,1,30,0,1
89883,-83.3333333333333,4,2,1,30,0,1
92216,-83.3333333333333,4,1,1,30,0,1
92549,-83.3333333333333,4,2,1,30,0,1
93549,-83.3333333333333,4,2,2,30,0,1
93883,-83.3333333333333,4,2,1,30,0,1
95049,-83.3333333333333,4,1,1,30,0,1
95216,-83.3333333333333,4,2,1,30,0,1
97549,-83.3333333333333,4,1,1,30,0,1
97883,-83.3333333333333,4,2,1,30,0,1
99049,-83.3333333333333,4,2,2,30,0,1
99216,-83.3333333333333,4,2,1,30,0,1
100383,-83.3333333333333,4,1,1,30,0,1
100549,-83.3333333333333,4,2,1,30,0,1
102883,-83.3333333333333,4,1,1,30,0,1
103216,-83.3333333333333,4,2,1,30,0,1
104216,-83.3333333333333,4,2,2,30,0,1
104549,-83.3333333333333,4,2,1,30,0,1
105549,-83.3333333333333,4,1,1,30,0,1
105883,-83.3333333333333,4,2,1,30,0,1
109049,-83.3333333333333,4,2,1,20,0,1
109716,-100,4,2,1,20,0,0
110883,-100,4,2,2,20,0,0
111216,-100,4,2,1,20,0,0
112216,-100,4,2,2,20,0,0
112549,-100,4,2,1,20,0,0
116216,-100,4,2,2,20,0,0
116549,-100,4,2,1,20,0,0
125549,-100,4,2,2,20,0,0
128716,-100,4,2,1,20,0,0

[Colours]
Combo1 : 171,186,69
Combo2 : 254,179,1

[HitObjects]
156,162,383,2,0,B|123:125|72:112,2,90,2|0|0
233,208,1383,1,2
233,208,1716,2,0,B|342:207,1,90
316,297,2383,2,0,B|389:295|389:295|430:311|430:311|500:314,2,180,2|0|2
224,296,4049,1,0
136,296,4383,1,0
84,123,5049,5,4
151,63,5383,1,2
170,150,5716,2,0,B|226:150|226:150|265:160|265:160|356:162,1,180,2|0
226,293,7049,6,0,B|170:293|170:293|131:303|131:303|40:305,2,180,2|0|2
342,309,8716,1,0
361,193,9049,1,2
245,175,9383,1,2
245,175,9716,2,0,B|151:176|168:133|56:132,1,180,0|2
84,221,10716,2,0,B|-11:222,1,90,2|2
349,280,12716,5,0
386,169,13049,1,2
273,136,13382,1,0
236,246,13716,2,0,B|172:246|172:246|118:276|54:237,2,180,4|0|0
236,246,16382,1,2
256,192,16549,12,0,18382
145,118,19049,5,4
224,161,19383,2,0,B|269:187|326:187,1,90,0|2
331,273,20049,2,0,B|388:267|430:229,2,90,0|0|0
240,274,21049,2,0,B|131:273,1,90,2|0
151,363,21716,5,4
74,315,22049,1,0
75,224,22383,1,2
150,175,22716,2,0,B|129:127|70:118,2,90
236,179,23716,1,2
236,179,24049,1,0
236,179,24383,6,0,B|298:181|335:159,1,90,4|0
359,137,24883,1,0
372,179,25049,2,0,B|368:230|379:287,1,90,2|0
287,273,25716,2,0,B|290:327|302:373,1,90
248,192,26383,2,0,B|210:158|160:152,1,90,2|0
178,242,27049,2,0,B|85:219|-14:239,2,180,4|2|0
246,183,28716,1,2
246,183,28883,1,0
246,183,29049,2,0,B|292:196|356:183,1,90,2|0
389,258,29716,5,4
297,333,30049,1,0
208,256,30383,1,2
91,256,30716,1,0
91,256,31049,2,0,B|109:202|86:143,1,90,4|0
96,78,31716,2,0,B|78:132|101:191,1,90,2|0
421,256,32383,6,0,B|403:202|426:143,1,90,4|0
416,78,33049,2,0,B|434:132|411:191,1,90,2|0
331,186,33716,2,0,B|312:237|272:258,1,90,4|0
237,174,34383,2,0,B|196:212|127:196,1,90,2|0
123,192,34883,1,0
98,172,35049,6,0,B|90:230|27:258,2,90,0|0|2
188,168,36049,1,0
188,168,36383,2,0,B|188:350,1,180,0|2
273,320,37383,1,0
273,320,37549,1,0
273,320,37716,2,0,B|294:267|369:262,1,90,4|0
357,354,38383,5,2
427,298,38716,1,0
425,208,39049,1,2
352,154,39383,1,0
352,154,39549,1,0
352,154,39716,2,0,B|276:145|231:121,1,90,2|0
226,217,40382,6,0,B|169:220|126:255,2,90,0|0|2
223,307,41382,1,0
266,296,41549,1,0
309,309,41716,2,0,B|427:310,2,90,4|0|2
358,233,42716,5,0
268,235,43049,1,0
310,155,43382,1,0
310,155,43549,1,0
310,155,43716,2,0,B|247:155|247:155|193:134|193:134|113:134,1,180,2|4
160,220,44716,2,0,B|105:234|94:290,1,90,0|2
185,294,45382,5,0
185,294,45716,2,0,B|198:350|257:355,1,90,0|0
274,267,46382,2,0,B|335:264|356:200,1,90,2|0
446,91,47049,2,0,B|391:103|376:153,1,90
292,172,47716,1,2
211,131,48049,1,0
137,183,48382,6,0,B|19:182,2,90,0|0|2
213,230,49382,1,0
213,230,49549,1,0
213,230,49716,2,0,B|164:325,2,90,4|0|2
285,283,50716,5,0
285,283,51049,2,0,B|372:239,1,90
312,169,51716,2,0,B|362:92,2,90,0|0|4
221,170,52716,1,0
221,170,53049,2,0,B|29:168,2,180,2|0|2
257,252,54716,1,0
257,252,54882,1,0
257,252,55049,2,0,B|343:254|341:308|451:307,2,180,4|2|0
86,193,57049,5,2
256,134,57716,1,4
423,199,58382,1,2
255,264,59049,6,0,B|216:360,1,90,0|0
257,120,59716,2,0,B|297:19,2,90,2|0|4
91,193,60716,1,0
91,193,60882,1,0
91,193,61049,2,0,B|196:193,1,90,2|0
257,240,61716,6,0,B|311:241|311:241|373:261|373:261|440:258,1,180,0|2
249,161,62716,2,0,B|195:160|195:160|133:140|133:140|63:141,1,180
333,162,63716,1,2
422,162,64049,1,4
377,240,64382,1,4
256,192,64549,12,2,66382
244,144,67049,6,0,B|187:144|126:144,1,108.000002574921,0|2
207,217,67549,1,0
288,217,67716,2,0,B|411:217,2,108.000002574921,8|0|0
251,289,68549,2,0,B|183:334,1,54.0000012874604,0|2
146,256,68882,2,0,B|84:292,2,54.0000012874604,0|10|0
208,204,69382,1,0
208,204,69549,1,0
208,204,69716,6,0,B|339:204,2,108.000002574921,4|2|8
226,124,70549,1,0
226,124,70716,2,0,B|172:122|184:97|112:92,2,108.000002574921,0|0|2
302,98,71549,1,0
302,179,71716,2,0,B|422:180,1,108.000002574921,8|0
243,248,72216,5,0
243,248,72382,2,0,B|224:303|167:323,1,108.000002574921,4|0
134,248,72882,1,0
134,248,73049,2,0,B|79:272|6:244,2,108.000002574921,8|2|0
213,227,73882,1,0
253,157,74049,1,0
372,249,74382,6,0,B|427:273|500:245,2,108.000002574921,8|2|4
293,228,75216,1,0
253,158,75382,1,0
256,77,75549,1,0
256,77,75716,2,0,B|132:58,1,108.000002574921,8|2
253,158,76216,1,0
253,158,76382,2,0,B|383:140,1,108.000002574921
171,245,76882,5,0
171,245,77049,2,0,B|78:313,1,108.000002574921,8|2
341,245,77549,1,0
341,245,77716,2,0,B|434:313,2,108.000002574921,4|0|8
381,174,78549,1,0
293,144,78716,1,2
200,189,78883,1,0
103,141,79049,1,0
103,141,79383,1,0
103,141,79716,6,0,B|105:221|97:280,1,108.000002574921,8|2
181,244,80216,1,0
262,247,80383,2,0,B|262:363,2,108.000002574921,4|0|8
418,205,81383,1,2
360,53,81716,1,0
201,85,82049,1,0
238,242,82383,2,0,B|201:294,3,54.0000012874604,8|0|2|0
133,252,83049,6,0,B|68:339,1,108.000002574921,4|0
135,161,83549,1,0
284,75,83716,2,0,B|220:177,1,108.000002574921,8|2
305,308,84383,2,0,B|366:202,2,108.000002574921,0|0|8
165,225,85383,1,6
256,192,85716,12,0,87716
253,203,88049,1,2
253,203,88216,1,0
253,203,88383,2,0,B|197:196|140:202,1,108.000002574921,4|0
162,280,88883,2,0,B|108:274|89:280,2,54.0000012874604,0|8|0
242,285,89383,2,0,B|278:277|331:305|333:343,2,108.000002574921,2|0|0
202,213,90216,1,0
202,213,90383,2,0,B|76:213,2,108.000002574921,8|2|4
283,216,91216,6,0,B|342:209,2,54.0000012874604,0|2|0
286,297,91716,2,0,B|391:300|380:357|503:348,2,216.000005149841,8|0|8
189,166,93383,1,2
189,166,93716,6,0,B|141:165|141:165|144:172|144:172|65:172,2,108.000002574921,4|0|8
341,110,94716,1,2
341,110,94883,1,0
341,110,95049,2,0,B|454:109,2,108.000002574921,0|0|8
305,186,95883,1,0
304,267,96049,1,2
233,226,96216,1,0
233,226,96383,6,0,B|234:181|234:181|218:151|232:103,2,108.000002574921,4|0|8
106,327,97383,1,2
76,167,97716,2,0,B|75:122|75:122|91:92|77:44,2,108.000002574921,0|0|8
150,198,98549,5,0
225,227,98716,1,2
301,198,98883,1,0
301,198,99049,2,0,B|301:309,2,108.000002574921,4|0|8
301,198,100049,1,2
382,197,100216,1,0
382,197,100383,2,0,B|502:198,2,108.000002574921,0|0|8
382,115,101216,1,0
310,153,101383,1,2
310,233,101549,1,0
375,280,101716,6,0,B|393:338|462:347,2,108.000002574921,4|0|8
375,280,102716,1,2
375,280,103049,2,0,B|152:279,2,216.000005149841,0|8|4
100,107,105049,5,2
100,107,105383,1,2
100,107,105716,2,0,B|100:174|100:174|112:209|112:209|100:243|100:243|101:327,2,216.000005149841,0|8|4
257,69,107383,1,2
304,223,107716,1,2
486,204,108049,2,0,B|496:339,1,108.000002574921,0|4
256,192,109049,5,2
256,192,109383,1,0
256,192,109716,2,0,B|72:192,2,180,2|0|4
256,192,111216,12,4,112383
148,192,112716,6,0,B|92:195|55:152,2,90,0|2|0
238,197,113716,2,0,B|445:198,2,180,0|2|0
201,279,115383,2,0,B|152:269|152:269|82:286,2,90,0|2|0
269,337,116383,1,4
269,337,117049,1,2
333,274,117383,1,2
278,202,117716,6,0,B|278:18,2,180,0|2|0
105,255,119716,1,2
105,255,120383,1,4
192,275,120716,2,0,B|242:294|304:272,1,90
280,278,121383,2,0,B|326:268|386:284,1,90,2|0
453,104,122383,5,2
453,104,122716,1,2
453,104,123049,2,0,B|361:103|361:103|311:81|238:89,2,180,4|2|0
434,192,124716,1,0
354,233,125049,1,2
275,189,125383,1,2
275,189,125716,1,4
281,189,128383,1,4
256,192,131216,12,2,136383
