osu file format v9

[General]
AudioFilename: akane sora ~ sorega fu rano sekai datta ~.mp3
AudioLeadIn: 1500
PreviewTime: 66387
Countdown: 0
SampleSet: Soft
StackLeniency: 0.4
Mode: 0
LetterboxInBreaks: 1

[Editor]
DistanceSpacing: 0.6
BeatDivisor: 4
GridSize: 8

[Metadata]
Title:Akanezora ~ Sore ga Bokura no Sekai datta ~
Artist:KOTOKO
Creator:kanpakyin
Version:Easy
Source:Maji de Watashi ni Koishinasai
Tags:majikoi

[Difficulty]
HPDrainRate:3
CircleSize:4
OverallDifficulty:2
ApproachRate:3
SliderMultiplier:1.4
SliderTickRate:1

[Events]
//Background and Video events
0,0,"BG.jpg"
Video,0,"video.avi"
//Break Periods
//Storyboard Layer 0 (Background)
//Storyboard Layer 1 (Fail)
//Storyboard Layer 2 (Pass)
//Storyboard Layer 3 (Foreground)
//Storyboard Sound Samples
//Background Colour Transformations
3,100,163,162,255

[TimingPoints]
383,666.666666666667,4,2,1,30,1,0
8216,-100,4,2,2,30,0,0
8549,-100,4,2,1,30,0,0
13549,-100,4,2,2,30,0,0
13883,-100,4,2,1,30,0,0
22216,-100,4,2,2,30,0,0
23216,-100,4,2,1,30,0,0
29549,-100,4,2,2,30,0,0
29882,-100,4,2,1,30,0,0
32216,-100,4,2,2,30,0,0
32549,-100,4,2,1,30,0,0
34883,-100,4,2,2,30,0,0
35216,-100,4,2,1,30,0,0
42549,-100,4,1,1,30,0,0
42883,-100,4,2,1,30,0,0
45549,-100,4,1,1,30,0,0
45883,-100,4,2,1,30,0,0
48216,-100,4,1,1,30,0,0
48549,-100,4,2,1,30,0,0
50883,-100,4,1,1,28,0,0
51216,-100,4,2,1,30,0,0
53549,-100,4,1,1,30,0,0
53883,-100,4,2,1,30,0,0
56216,-100,4,1,1,30,0,0
56549,-100,4,2,1,30,0,0
58883,-100,4,1,1,30,0,0
59216,-100,4,2,1,30,0,0
61549,-100,4,1,1,30,0,0
61883,-100,4,2,1,30,0,0
64216,-100,4,2,2,30,0,0
64549,-100,4,2,1,30,0,0
67049,-100,4,2,1,36,0,1
77549,-100,4,2,2,36,0,1
77883,-100,4,2,1,36,0,1
85549,-100,4,2,2,36,0,1
85883,-100,4,2,1,36,0,1
109716,-100,4,2,2,30,0,0
110049,-100,4,2,1,30,0,0
112216,-100,4,2,2,30,0,0
112549,-100,4,2,1,30,0,0
114883,-100,4,2,2,30,0,0
115216,-100,4,2,1,30,0,0
117049,-100,4,1,1,30,0,0
117716,-100,4,2,1,30,0,0
122883,-100,4,2,2,30,0,0
123216,-100,4,2,1,30,0,0
128216,-100,4,2,2,30,0,0
128549,-100,4,2,1,30,0,0

[Colours]
Combo1 : 171,186,69
Combo2 : 254,179,1

[HitObjects]
207,152,383,2,0,B|130:154|51:152,2,140,2|0|2
262,88,2383,2,0,B|357:91|417:85,2,140,0|2|0
264,172,4383,1,2
264,172,5049,2,0,B|315:174|315:174|354:188|354:188|407:189,1,140,0|2
363,352,7049,1,2
202,303,8383,5,4
262,146,9716,1,2
177,146,10383,2,0,B|98:146,2,70,0|0|2
382,188,12716,2,0,B|378:242|405:281,3,70,0|2|0|6
256,192,13882,12,2,16382
166,190,19049,6,0,B|91:170|92:200|8:179,2,140,4|0|2
208,264,21049,1,0
250,188,21716,6,0,B|365:181|469:191,2,210,2|2|0
199,120,24383,2,0,B|136:188|76:196,1,140,2|0
100,277,25716,2,0,B|179:302|246:363,1,140,2|0
282,280,27049,6,0,B|328:316|329:364,2,70,2|0|0
197,278,28383,2,0,B|48:277,2,140,2|2|4
177,196,30383,2,0,B|226:202|258:205,2,70,2|0|2
221,124,31716,6,0,B|292:144|374:138,1,140,2|4
411,72,33049,2,0,B|363:140|424:221,1,140,2|0
329,220,34383,2,0,B|373:291|326:355,1,140,2|4
276,285,35716,2,0,B|421:285,2,140,2|0|2
210,338,37716,6,0,B|136:331,2,70,0|0|2
180,259,39049,2,0,B|112:239|18:240,2,140,0|2|4
254,220,41049,2,0,B|309:219|351:202,1,70,2|0
289,134,42049,2,0,B|372:123|430:73,2,140,0|0|0
289,134,43716,5,2
209,105,44382,2,0,B|108:95|36:98,2,140,0|2|0
176,183,46382,2,0,B|91:206|85:291,1,140,2|0
170,278,47716,2,0,B|186:359|289:367,1,140,2|0
263,280,49049,6,0,B|328:272|328:272|374:291|420:266,1,140,2|0
363,199,50382,2,0,B|435:189|521:206,2,140,2|0|2
290,156,52382,2,0,B|220:150|220:150|145:113,1,140,0|2
109,187,53716,2,0,B|177:226|177:226|213:290,1,140,0|2
290,288,55049,2,0,B|302:334|300:369,2,70,0|0|2
374,286,56382,6,0,B|364:195|377:123,1,140,0|2
294,174,57716,2,0,B|289:114|286:30,1,140,0|2
209,68,59049,2,0,B|197:152|94:152,1,140,0|2
132,69,60382,2,0,B|135:150|133:240,1,140,0|2
204,254,61716,6,0,B|203:296|195:340,2,70,0|0|2
275,208,63049,2,0,B|317:155|398:145,1,140,0|2
480,148,64382,1,4
256,192,64549,12,4,67049
165,146,67716,6,0,B|116:137|68:136,2,70,8|2|0
234,192,69049,2,0,B|312:182|399:185,1,140,8|2
374,268,70382,1,8
374,268,71049,2,0,B|420:274|465:283,2,70,0|2|8
289,267,72382,6,0,B|185:267|185:267|103:286|103:286|3:285,2,280,2|2|2
335,196,75716,1,8
251,194,76382,1,2
292,121,77049,6,0,B|347:121|347:121|370:91|436:100,2,140,8|4|8
288,37,79049,2,0,B|217:49|139:35,1,140,2|8
142,120,80383,5,4
142,120,81049,2,0,B|93:121|93:121|52:140|52:140|5:138,2,140,8|2|8
106,196,83049,2,0,B|181:190|266:200,1,140,0|8
238,281,84383,2,0,B|291:277|336:279,4,70,0|2|0|2|4
256,192,85883,12,2,87716
239,195,88383,6,0,B|229:233|190:257,2,70,4|0|8
323,195,89716,2,0,B|473:196,2,140,2|8|4
238,195,91716,1,8
153,195,92383,5,0
153,195,93049,2,0,B|72:195,2,70,8|0|2
226,236,94383,2,0,B|190:310,1,70,8|0
278,310,95383,2,0,B|242:377,2,70,2|8|0
354,275,96716,2,0,B|422:278|427:277,1,70,2|8
424,193,97716,2,0,B|475:195|515:200,2,70,0|2|8
413,109,99049,6,0,B|303:104|265:111,1,140,4|8
212,50,100383,2,0,B|149:124|230:187,1,140,2|8
299,194,101716,2,0,B|361:264|286:332,1,140,2|8
240,259,103049,2,0,B|155:244|73:248,2,140,2|8|4
280,185,105049,2,0,B|325:200|345:229,2,70,0|2|4
196,178,106383,2,0,B|155:179|126:165|126:165|103:179|53:178,2,140,8|4|2
256,192,107883,12,4,109716
197,193,111049,6,0,B|125:192|135:236|55:231,2,140,2|0|4
191,276,113049,2,0,B|262:263|343:274,1,140,2|0
381,205,114383,2,0,B|422:234|429:288,2,70,2|0|4
313,154,115716,2,0,B|272:129|261:89,2,70,0|2|0
352,79,117049,6,0,B|187:76,1,140,0|2
224,247,119049,2,0,B|376:248,2,140,2|0|2
168,309,121049,2,0,B|124:308|82:299,2,70,2|0|2
209,235,122383,2,0,B|244:253|288:262,2,70,2|0|4
414,190,124716,6,0,B|438:227|478:249,3,70,0|2|0|2
131,296,128383,1,4
256,192,131216,12,2,136383
