osu file format v9

[General]
AudioFilename: agony.mp3
AudioLeadIn: 0
PreviewTime: 54425
Countdown: 0
SampleSet: Soft
StackLeniency: 0.4
Mode: 0
LetterboxInBreaks: 0

[Editor]
DistanceSpacing: 1
BeatDivisor: 4
GridSize: 4

[Metadata]
Title:Agony
Artist:KOTOKO
Creator:IceBeam
Version:Normal
Source:Kannazuki no Miko
Tags:reiji-rj ending

[Difficulty]
HPDrainRate:3
CircleSize:4
OverallDifficulty:3
ApproachRate:4
SliderMultiplier:1.1
SliderTickRate:1

[Events]
//Background and Video events
0,0,"254959.jpg"
//Break Periods
2,84000,97025
2,160364,169753
//Storyboard Layer 0 (Background)
//Storyboard Layer 1 (Fail)
//Storyboard Layer 2 (Pass)
//Storyboard Layer 3 (Foreground)
//Storyboard Sound Samples
//Background Colour Transformations
3,100,163,162,255

[TimingPoints]
164,454.545454545455,4,2,0,30,1,0
3800,-133.333333333333,4,2,0,30,0,0
18345,-100,4,1,1,40,0,0
23800,-100,4,1,1,30,0,0
24254,-100,4,1,1,35,0,0
24709,-100,4,1,1,40,0,0
25164,-100,4,1,1,45,0,0
25618,-100,4,1,1,55,0,0
25732,-100,4,2,1,55,0,0
36527,-100,4,1,1,45,0,0
38345,-133.333333333333,4,1,1,40,0,0
39141,-100,4,1,1,45,0,0
39595,-100,4,1,1,55,0,0
40050,-100,4,1,1,55,0,0
40277,-100,4,2,1,55,0,0
52550,-100,4,1,1,55,0,0
54254,-100,4,1,1,25,0,0
54709,-86.9565217391304,4,1,1,65,0,0
54823,-86.9565217391304,4,2,1,75,0,1
65504,-86.9565217391304,4,1,1,60,0,1
67777,-86.9565217391304,4,1,1,50,0,1
68118,-86.9565217391304,4,1,1,60,0,1
68573,-86.9565217391304,4,1,1,70,0,1
69141,-86.9565217391304,4,1,1,60,0,0
69254,-86.9565217391304,4,1,1,75,0,1
69482,-86.9565217391304,4,2,1,75,0,1
81982,-86.9565217391304,4,2,1,75,0,0
83800,-100,4,1,1,40,0,0
98345,-100,4,1,1,65,0,0
98459,-100,4,2,1,65,0,0
109141,-100,4,1,1,40,0,0
111982,-100,4,1,1,45,0,0
112436,-100,4,1,1,55,0,0
112891,-100,4,1,1,65,0,0
113004,-100,4,2,1,65,0,0
125277,-100,4,1,1,55,0,0
126982,-100,4,1,1,25,0,0
127436,-86.9565217391304,4,1,1,60,0,1
127493,-86.9565217391304,4,2,1,75,0,1
138345,-86.9565217391304,4,1,1,60,0,1
141868,-86.9565217391304,4,1,1,60,0,0
141982,-86.9565217391304,4,1,1,60,0,1
142095,-86.9565217391304,4,2,1,75,0,1
154709,-86.9565217391304,4,2,1,75,0,0
155959,-100,4,1,1,40,0,0
156527,-133.333333333333,4,2,1,40,0,0
156641,-133.333333333333,4,2,1,5,0,0
171073,-133.333333333333,4,1,1,40,0,0
171186,-133.333333333333,4,2,1,25,0,0
178345,-100,4,2,1,40,0,0
181982,-100,4,1,1,30,0,0
182891,-100,4,1,1,35,0,0
183800,-100,4,1,1,40,0,0
187436,-86.9565217391304,4,1,1,60,0,1
187493,-86.9565217391304,4,2,1,75,0,1
198345,-86.9565217391304,4,1,1,60,0,1
201925,-86.9565217391304,4,1,1,60,0,0
201982,-86.9565217391304,4,1,1,60,0,1
202039,-86.9565217391304,4,2,1,75,0,1
214709,-86.9565217391304,4,2,1,75,0,0
216073,-100,4,1,1,40,0,0
216584,-86.9565217391304,4,2,1,40,0,0
216982,-100,4,2,1,30,0,0
217891,-100,4,2,1,20,0,0
218800,-100,4,2,1,10,0,0

[Colours]
Combo1 : 243,111,82
Combo2 : 252,250,171
Combo3 : 160,244,85

[HitObjects]
208,312,3800,1,2
288,296,4254,1,0
368,280,4709,2,0,B|424:248|488:272,2,123.749996311963
288,296,6527,2,0,B|272:216,1,82.4999975413085
328,152,7436,5,0
344,72,7891,1,0
264,96,8345,2,0,B|200:120|144:80,2,123.749996311963
344,72,10164,2,0,B|424:88,1,82.4999975413085
400,168,11073,6,0,B|392:296,1,123.749996311963,2|0
352,312,11982,2,0,B|288:280|232:320,1,123.749996311963,0|0
235,318,12891,2,0,B|171:350|115:310,1,123.749996311963,2|0
80,312,13800,1,2
56,232,14254,1,2
128,192,14709,6,0,B|136:64,1,123.749996311963,2|0
176,48,15618,2,0,B|232:80|296:48,1,123.749996311963
295,50,16527,2,0,B|359:18|415:50,1,123.749996311963,2|0
456,48,17436,1,2
448,128,17891,1,2
400,192,18345,6,0,B|320:168|312:216|232:192,2,165
336,280,20164,2,0,B|416:256|424:304|498:281,2,165
240,224,21982,2,0,B|184:152|224:64,2,165
336,280,23800,6,0,B|448:264,3,110
424,160,25618,6,0,B|448:104|424:48,1,110,4|8
328,104,26527,2,0,B|304:160|328:216,1,110,0|8
280,312,27436,2,0,B|168:320,1,110,0|8
80,256,28345,2,0,B|24:248,2,55,0|0|8
184,232,29254,6,0,B|293:224,1,110,0|8
392,168,30164,2,0,B|416:112|392:56,1,110,0|8
288,80,31073,2,0,B|232:104|176:72,1,110,0|8
80,120,31982,2,0,B|24:136,2,55,0|0|8
152,200,32891,6,0,B|160:312,1,110,4|8
256,256,33800,2,0,B|248:144,1,110,0|8
320,64,34709,2,0,B|368:96|432:72,1,110,0|8
445,182,35618,2,0,B|501:174,2,55,0|0|8
429,206,36300,1,0
413,230,36527,6,0,B|325:198|253:254,1,165
257,251,37436,2,0,B|188:197|100:229,1,165,0|4
101,229,38345,1,4
392,320,39254,1,4
392,320,39709,1,4
392,320,40164,6,0,B|400:152,1,165,4|2
392,144,41073,2,0,B|336:128|336:160|280:144,1,110,0|8
184,192,41982,2,0,B|128:120|168:32,2,165,2|2|8
112,272,43800,5,4
112,272,44254,1,8
216,312,44709,5,2
216,312,45164,1,8
320,280,45618,5,4
320,280,46073,1,8
432,296,46527,5,2
432,296,46982,1,8
384,192,47436,6,0,B|400:104|392:24,1,165,4|2
376,40,48345,2,0,B|320:40|264:32,1,110,0|8
168,80,49254,1,0
56,64,49709,1,8
56,64,49936,2,0,B|40:152|72:232,1,165,2|8
48,336,51073,5,4
264,288,51982,1,0
368,312,52436,1,8
368,312,52664,1,4
256,192,52891,12,0,54254
112,80,54709,6,0,B|96:144|128:208,1,126.500002412796,4|8
120,216,55391,2,0,B|208:160|304:200,1,189.750003619194,2|8
400,272,56527,2,0,B|440:224|416:152,2,126.500002412796,2|8|0
288,336,57891,1,8
176,280,58345,6,0,B|48:296,1,126.500002412796,4|8
96,176,59254,2,0,B|221:160,1,126.500002412796,0|8
312,72,60164,2,0,B|373:162|309:250,1,189.750003619194,2|2
328,256,61073,6,0,B|456:240,2,126.500002412796,8|8|4
208,304,62436,1,8
88,256,62891,2,0,B|56:200|80:120,1,126.500002412796,2|8
184,208,63800,2,0,B|232:168|320:192,1,126.500002412796,2|8
408,264,64709,2,0,B|360:304|272:280,1,126.500002412796,2|8
184,208,65618,6,0,B|240:120|168:16,1,189.750003619194,4|4
178,31,66527,2,0,B|266:95|362:47,1,189.750003619194,4|4
356,49,67436,1,4
464,120,67891,5,0
464,120,68345,1,0
368,200,68800,1,0
368,200,69254,6,0,B|364:264|360:336,1,126.500002412796,4|8
344,336,69936,2,0,B|256:280|160:336,1,189.750003619194,2|8
64,256,71073,2,0,B|56:160|48:64,1,189.750003619194,2|2
56,56,71982,2,0,B|112:88|184:64,1,126.500002412796,8|2
304,64,72891,6,0,B|360:160|296:248,1,189.750003619194,4|2
312,256,73800,2,0,B|376:252|440:248,1,126.500002412796,0|8
352,344,74709,2,0,B|254:349|159:357,2,189.750003619194,2|2|8
440,252,76527,6,0,B|476:192|440:132,1,126.500002412796,4|8
344,52,77436,2,0,B|308:112|344:172,1,126.500002412796,2|8
240,244,78345,2,0,B|112:252,1,126.500002412796,2|8
204,344,79254,2,0,B|332:336,1,126.500002412796,2|8
456,364,80164,5,4
256,192,80277,12,4,81982
256,192,82436,12,4,83800
68,88,98345,6,0,B|116:84|180:80,1,110,4|8
132,180,99254,2,0,B|193:176|241:172,1,110,0|8
340,220,100164,1,0
344,224,100618,1,8
444,176,101073,2,0,B|496:192,2,55,0|0|8
344,224,101982,6,0,B|368:280|340:336,1,110,0|8
236,312,102891,2,0,B|124:320,1,110,0|8
40,252,103800,2,0,B|20:200|28:144,1,110,0|8
84,48,104709,2,0,B|36:24,2,55,0|0|8
180,104,105618,6,0,B|228:72|288:92,1,110,4|8
380,144,106527,1,0
476,92,106982,1,8
380,144,107436,2,0,B|378:191|376:252,1,110,0|8
448,336,108345,1,0
448,336,108573,2,0,B|498:315,2,55,0|8|0
432,352,109254,6,0,B|360:300|272:344,1,165,0|0
264,332,110164,2,0,B|276:260|240:248|252:168,1,165,0|4
252,172,111073,1,4
64,60,111982,1,0
68,64,112436,1,0
72,68,112891,6,0,B|144:16|228:56,1,165,4|2
240,48,113800,2,0,B|248:164,1,110,0|8
296,256,114709,2,0,B|352:260|408:268,1,110,0|8
420,280,115391,2,0,B|468:204|428:116,1,165,2|8
344,56,116527,5,4
340,60,116982,1,8
236,92,117436,2,0,B|128:80,1,110,2|8
36,140,118345,1,4
40,144,118800,1,8
104,232,119254,2,0,B|92:348,1,110,2|8
200,320,120164,6,0,B|276:300|296:336|364:320,2,165,4|2|8
240,216,121982,2,0,B|164:236|144:200|76:216,2,165,0|2|8
348,244,123800,5,4
352,248,124709,1,8
456,212,125164,1,8
456,212,125391,1,4
256,192,125618,12,0,126982
68,68,127436,6,0,B|104:124|80:192,1,126.500002412796,4|8
68,200,128118,2,0,B|158:200|260:208,1,189.750003619194,2|8
344,116,129254,2,0,B|266:110|216:108,1,126.500002412796,2|8
260,228,130164,2,0,B|337:233|388:236,1,126.500002412796,0|8
468,332,131073,6,0,B|533:254|481:154,1,189.750003619194,4|2
484,140,131982,2,0,B|424:144|352:144,1,126.500002412796,0|8
292,252,132891,2,0,B|212:184|116:232,1,189.750003619194,6|2
104,244,133800,2,0,B|92:176|84:120,1,126.500002412796,8|8
184,40,134709,5,4
360,108,135391,1,2
360,108,135618,1,8
200,208,136300,1,2
200,208,136527,1,8
376,284,137209,5,2
376,284,137436,2,0,B|408:224|384:160,1,126.500002412796,8|8
272,104,138345,2,0,B|196:128|156:84|84:104,2,189.750003619194,4|4|0
240,228,140164,2,0,B|316:204|356:248|428:228,2,189.750003619194,4|0|4
120,188,141982,6,0,B|80:136|108:64,1,126.500002412796,4|8
96,52,142664,2,0,B|160:40|188:56|216:72|284:56,1,189.750003619194,2|8
412,60,143800,2,0,B|468:156|400:236,1,189.750003619194,2|2
400,235,144709,1,0
324,336,145164,1,8
272,220,145618,6,0,B|188:164|88:212,1,189.750003619194,4|2
91,210,146527,1,0
12,112,146982,1,8
132,72,147436,2,0,B|224:68|328:64,1,189.750003619194,2|2
336,56,148345,2,0,B|344:116|352:184,1,126.500002412796,0|8
432,280,149254,5,4
256,352,149936,1,2
256,352,150164,1,8
80,280,150845,1,2
80,280,151073,1,8
256,212,151754,1,2
260,216,151982,5,8
260,88,152436,1,8
372,152,152891,1,4
256,192,153004,12,4,154709
252,188,156073,5,0
256,192,156300,1,0
260,196,156527,1,4
256,192,156641,12,2,160164
104,148,171073,6,0,B|152:156|192:116|192:116|232:144|296:144|336:108,1,247.500009441376,4|0
404,152,172891,2,0,B|448:232|396:308,2,165.000006294251,0|2|4
284,268,175618,5,0
280,272,176073,1,0
276,276,176527,2,0,B|200:220|120:268,1,165.000006294251,0|2
40,248,177891,1,0
96,184,178345,6,0,B|160:120|124:28,1,165,4|2
125,31,179254,2,0,B|192:80|284:44,1,165,0|2
292,36,180164,2,0,B|320:120|296:144|268:172|292:256,1,220
332,352,181527,1,0
224,328,181982,6,0,B|148:284|64:328,2,165,4|4|0
256,192,183800,12,0,186982
44,88,187436,6,0,B|168:104,1,126.500002412796,4|8
184,112,188118,2,0,B|120:204|184:292,1,189.750003619194,2|8
300,332,189254,2,0,B|388:276|480:324,1,189.750003619194,2|2
488,312,190164,2,0,B|496:244|500:184,1,126.500002412796,0|8
428,80,191073,6,0,B|332:88|236:96,1,189.750003619194,4|2
228,108,191982,2,0,B|260:172|228:232,1,126.500002412796,0|8
176,344,192891,2,0,B|268:360|268:316|364:344,2,189.750003619194,6|2|8
76,264,194709,6,0,B|36:208|64:140,1,126.500002412796,4|8
184,180,195618,2,0,B|210:115|170:59,1,126.500002412796,2|8
180,48,196300,1,0
192,36,196527,6,0,B|320:28,1,126.500002412796,4|8
296,152,197436,2,0,B|422:144,1,126.500002412796,0|8
460,264,198345,2,0,B|412:172|480:84,1,189.750003619194,4|4
478,86,199254,1,0
228,52,200164,5,0
108,88,200618,1,0
148,208,201073,1,0
268,172,201527,1,0
280,184,201754,1,0
292,196,201982,6,0,B|284:324,1,126.500002412796,4|8
276,336,202664,2,0,B|368:292|464:344,1,189.750003619194,2|8
436,216,203800,2,0,B|372:136|420:36,2,189.750003619194,2|2|8
312,240,205618,6,0,B|220:232|120:232,1,189.750003619194,4|2
108,224,206527,2,0,B|140:288|100:352,1,126.500002412796,0|8
16,252,207436,2,0,B|-32:160|32:72,2,189.750003619194,6|2|8
128,312,209254,6,0,B|260:304,1,126.500002412796,4|8
272,316,209936,1,0
288,328,210164,2,0,B|414:320,1,126.500002412796,2|8
440,196,211073,6,0,B|472:136|448:72,1,126.500002412796,4|8
432,64,211754,1,0
416,56,211982,2,0,B|352:64|288:72,1,126.500002412796,0|8
180,132,212891,5,4
184,136,213800,1,8
88,300,214482,1,8
88,300,214709,1,4
416,280,216073,5,0
420,284,216300,1,0
424,288,216527,1,4
256,192,216641,12,0,220164
