osu file format v9

[General]
AudioFilename: agony.mp3
AudioLeadIn: 0
PreviewTime: 54425
Countdown: 0
SampleSet: Soft
StackLeniency: 0.4
Mode: 0
LetterboxInBreaks: 0

[Editor]
DistanceSpacing: 0.8
BeatDivisor: 4
GridSize: 8

[Metadata]
Title:Agony
Artist:KOTOKO
Creator:IceBeam
Version:Hard
Source:Kannazuki no Miko
Tags:reiji-rj ending

[Difficulty]
HPDrainRate:7
CircleSize:4
OverallDifficulty:7
ApproachRate:7
SliderMultiplier:1.5
SliderTickRate:1

[Events]
//Background and Video events
0,0,"254959.jpg"
//Break Periods
2,89454,97445
2,171273,177445
//Storyboard Layer 0 (Background)
//Storyboard Layer 1 (Fail)
//Storyboard Layer 2 (Pass)
//Storyboard Layer 3 (Foreground)
//Storyboard Sound Samples
//Background Colour Transformations
3,100,163,162,255

[TimingPoints]
164,454.545454545455,4,2,0,30,1,0
3800,-133.333333333333,4,2,0,30,0,0
18345,-100,4,1,1,40,0,0
23800,-100,4,1,1,20,0,0
24254,-100,4,1,1,25,0,0
24709,-100,4,1,1,30,0,0
25164,-100,4,1,1,35,0,0
25618,-100,4,1,1,65,0,0
25732,-100,4,2,1,65,0,0
36527,-100,4,1,1,40,0,0
38345,-133.333333333333,4,1,1,40,0,0
38914,-100,4,1,1,40,0,0
39141,-100,4,1,1,45,0,0
39368,-100,4,1,1,50,0,0
39595,-100,4,1,1,55,0,0
39823,-100,4,1,1,60,0,0
40050,-100,4,1,1,65,0,0
40277,-100,4,2,1,65,0,0
52550,-100,4,1,1,55,0,0
53743,-100,4,1,1,25,0,0
54652,-100,4,1,1,55,0,0
54709,-86.9565217391304,4,1,1,65,0,0
54823,-86.9565217391304,4,2,1,75,0,1
65504,-86.9565217391304,4,1,1,60,0,1
69141,-86.9565217391304,4,1,1,60,0,0
69254,-86.9565217391304,4,1,1,75,0,1
69482,-86.9565217391304,4,2,1,75,0,1
81982,-86.9565217391304,4,2,1,75,0,0
82095,-133.333333333333,4,2,1,40,0,0
83232,-100,4,1,1,40,0,0
84254,-100,4,1,1,30,0,0
85164,-100,4,1,1,20,0,0
86073,-100,4,1,1,10,0,0
86982,-100,4,1,1,5,0,0
98118,-100,4,1,1,65,0,0
98459,-100,4,2,1,65,0,0
109141,-100,4,1,1,40,0,0
110959,-133.333333333333,4,1,1,40,0,0
111641,-100,4,1,1,40,0,0
111982,-100,4,1,1,45,0,0
112209,-100,4,1,1,50,0,0
112436,-100,4,1,1,55,0,0
112664,-100,4,1,1,60,0,0
112891,-100,4,1,1,65,0,0
113004,-100,4,2,1,65,0,0
125277,-100,4,1,1,55,0,0
126470,-100,4,1,1,25,0,0
127436,-86.9565217391304,4,1,1,60,0,1
127493,-86.9565217391304,4,2,1,75,0,1
138345,-86.9565217391304,4,1,1,60,0,1
141868,-86.9565217391304,4,1,1,60,0,0
141982,-86.9565217391304,4,1,1,60,0,1
142095,-86.9565217391304,4,2,1,75,0,1
154709,-86.9565217391304,4,2,1,75,0,0
154823,-133.333333333333,4,2,1,40,0,0
155959,-100,4,1,1,40,0,0
156527,-133.333333333333,4,2,1,40,0,0
169141,-100,4,1,1,40,0,0
170050,-100,4,2,1,40,0,0
170277,-100,4,1,1,40,0,0
170504,-100,4,2,1,40,0,0
170732,-100,4,1,1,40,0,0
171186,-100,4,2,1,40,0,0
181982,-100,4,1,1,30,0,0
182891,-100,4,1,1,35,0,0
183800,-100,4,1,1,40,0,0
187436,-86.9565217391304,4,1,1,60,0,1
187493,-86.9565217391304,4,2,1,75,0,1
198345,-86.9565217391304,4,1,1,60,0,1
201925,-86.9565217391304,4,1,1,60,0,0
201982,-86.9565217391304,4,1,1,60,0,1
202039,-86.9565217391304,4,2,1,75,0,1
214709,-86.9565217391304,4,2,1,75,0,0
214766,-133.333333333333,4,2,1,40,0,0
216073,-100,4,1,1,40,0,0
216584,-86.9565217391304,4,2,1,40,0,0
216982,-100,4,2,1,30,0,0
217891,-100,4,2,1,20,0,0
218800,-100,4,2,1,10,0,0

[Colours]
Combo1 : 243,111,82
Combo2 : 252,250,171
Combo3 : 160,244,85

[HitObjects]
56,88,3800,1,2
144,72,4254,1,0
232,88,4709,2,0,B|216:152|248:200,1,112.499996647239
248,200,5391,1,2
336,216,5845,1,2
336,216,6073,2,0,B|400:200|448:232,2,112.499996647239
248,200,7436,5,2
168,224,7891,1,0
88,208,8345,2,0,B|80:160|80:80,1,112.499996647239
80,96,9027,1,2
168,64,9482,1,2
168,64,9709,1,0
256,88,10164,2,0,B|264:32,2,56.2499983236194
352,64,11073,6,0,B|440:72,2,84.3749974854291,2|0|0
424,152,11982,2,0,B|336:144,2,84.3749974854291,2|0|0
336,232,12891,2,0,B|424:240,2,84.3749974854291,2|0|0
408,320,13800,1,2
408,320,14254,1,2
408,320,14709,6,0,B|416:232,2,84.3749974854291,2|0|0
320,256,15618,2,0,B|312:344,2,84.3749974854291,2|0|0
224,312,16527,2,0,B|232:224,2,84.3749974854291,2|0|0
144,256,17436,1,2
144,256,17891,1,2
144,256,18345,6,0,B|72:264|48:272,1,75,0|0
72,272,18686,2,0,B|56:208|56:136,1,112.5
144,128,19254,2,0,B|184:128|224:136,1,75
224,144,19595,2,0,B|224:88|232:24,1,112.5
320,104,20164,2,0,B|320:144|336:192,1,75
328,184,20504,2,0,B|384:168|440:184,1,112.5
439,183,20959,1,0
439,183,21073,2,0,B|432:248|432:272,1,75
384,328,21527,2,0,B|328:320|304:320,1,75
192,256,21982,6,0,B|240:240|272:240,1,75
272,248,22323,2,0,B|272:192|264:128,1,112.5
272,48,22891,1,0
192,48,23118,1,0
112,48,23345,1,0
32,48,23573,1,0
96,192,23800,6,0,B|104:168,30,18.75
104,200,25618,6,0,B|160:192|192:192,1,75,4|0
184,200,25959,2,0,B|184:256|176:320,1,112.5
264,320,26527,1,8
352,328,26754,1,0
352,328,26868,1,0
248,64,27209,1,0
248,64,27323,1,0
248,64,27436,1,8
160,56,27664,1,0
160,56,27777,2,0,B|152:120|152:192,1,112.5
149,183,28232,1,0
146,199,28345,2,0,B|66:204,1,75,8|2
249,255,28800,2,0,B|329:250,1,75,8|2
445,150,29254,6,0,B|365:155,1,75,8|0
352,144,29595,2,0,B|360:88|344:16,1,112.5
264,48,30164,1,8
184,72,30391,1,0
184,72,30504,1,0
248,336,30845,1,0
248,336,30959,1,0
248,336,31073,1,8
328,312,31300,1,0
328,312,31414,2,0,B|328:264|312:184,1,112.5
315,200,31868,1,0
315,200,31982,2,0,B|360:200|400:184,1,75,8|2
296,72,32436,2,0,B|251:72|211:88,1,75,8|2
88,80,32891,5,12
80,160,33118,1,0
80,160,33232,2,0,B|88:224|96:280,1,112.5
176,312,33800,2,0,B|224:304|256:304,1,75,8|0
250,304,34141,1,0
392,192,34482,1,0
392,192,34595,1,0
392,192,34709,2,0,B|352:192|312:192,1,75,8|0
317,192,35050,1,0
160,104,35391,1,0
160,104,35504,1,0
160,104,35618,2,0,B|208:96|264:96,1,75,8|2
136,200,36073,2,0,B|96:192|40:200,1,75,8|2
80,328,36527,6,0,B|72:304,8,18.75
80,328,37209,1,0
264,304,37436,6,0,B|272:336,8,18.75
264,304,38118,1,4
448,320,38345,6,0,B|456:288,4,28.1249991618097,4|0|0|0|0
480,176,39027,5,4
360,112,39254,5,4
248,192,39482,5,4
368,240,39709,5,4
236,72,39936,5,4
152,272,40164,5,4
152,272,40504,1,0
152,272,40618,2,0,B|160:320|168:360,1,75,8|0
241,265,41073,2,0,B|249:193|249:161,1,75,8|0
240,184,41414,2,0,B|374:177,1,112.5,8|8
448,168,41982,2,0,B|456:120|456:88,1,75,8|0
376,48,42436,1,8
288,88,42664,2,8,B|232:72|144:96,1,112.5,8|0
160,96,43118,2,0,B|152:8,1,75,8|8
48,88,43573,1,2
48,88,43686,1,0
48,88,43800,6,0,B|56:176,2,75,4|2|8
200,296,44482,1,2
200,296,44595,1,0
200,296,44709,2,0,B|208:216,2,75,4|2|8
336,104,45391,1,2
336,104,45504,1,0
336,104,45618,2,0,B|344:192,2,75,12|2|8
440,56,46300,1,2
448,152,46527,1,8
456,248,46754,1,2
456,248,46868,2,0,B|376:256|312:264,1,112.5,8|8
144,192,47436,6,0,B|224:184|288:176,1,112.5,12|0
264,184,47891,2,0,B|264:112|264:88,1,75,8|0
344,96,48345,2,0,B|344:152|344:232,1,112.5,8|8
336,288,48914,1,0
336,288,49027,1,8
224,272,49254,2,0,B|184:272|144:280,1,75,8|2
136,200,49709,1,8
120,120,49936,1,2
120,120,50391,1,2
136,200,50618,2,0,B|184:192|232:184,1,75,8|0
400,72,51073,5,12
368,152,51300,1,0
368,152,51414,2,0,B|376:208|384:280,1,112.5,8|2
464,256,51982,2,0,B|472:304|472:344,2,75,8|2|8
296,272,52664,5,4
224,176,52891,1,4
224,176,53004,1,0
224,176,53118,1,0
320,72,53345,1,0
112,56,53573,1,0
112,56,53686,2,0,B|104:24,16,18.75
128,64,54709,6,0,B|192:32|256:72,1,129.375004241243,4|0
256,80,55164,1,8
368,64,55391,2,0,B|360:144|352:248,1,172.500005654991,2|2
248,232,56073,1,8
144,224,56300,1,2
144,224,56414,1,0
144,224,56527,2,0,B|136:288|136:360,1,129.375004241243,8|0
144,360,56982,1,8
38,316,57209,1,2
38,316,57323,1,0
38,316,57436,2,0,B|39:278|41:227,1,86.2500028274954,8|2
40,136,57891,1,8
144,120,58118,1,2
144,120,58232,1,0
144,120,58345,6,0,B|208:128|288:136,1,129.375004241243,12|0
280,144,58800,1,8
384,112,59027,1,2
384,112,59141,1,0
384,112,59254,2,0,B|376:72|376:24,1,86.2500028274954,8|2
488,96,59709,1,8
440,200,59936,1,2
440,200,60050,1,0
440,200,60164,2,0,B|440:272|432:344,1,129.375004241243,4|0
416,336,60618,2,0,B|376:336|368:336|328:344,1,86.2500028274954,8|2
208,240,61073,2,0,B|256:232|296:232,1,86.2500028274954,8|2
304,240,61414,2,0,B|312:184|312:104,1,129.375004241243,8|8
80,56,61982,6,0,B|96:104|80:152,1,86.2500028274954,12|2
96,160,62323,2,0,B|160:128|240:152,1,129.375004241243,8|2
222,147,62777,1,0
222,147,62891,1,12
432,224,63118,1,2
432,224,63232,2,0,B|368:256|288:232,1,129.375004241243,8|2
305,236,63686,1,0
305,236,63800,1,12
88,320,64027,1,2
88,320,64141,2,0,B|152:288|232:312,1,129.375004241243,8|2
214,307,64595,1,0
214,307,64709,2,0,B|224:264|208:208,1,86.2500028274954,12|2
96,112,65164,2,0,B|86:155|102:211,1,86.2500028274954,8|2
264,144,65618,6,0,B|320:136|360:136,1,86.2500028274954,4|0
368,144,65959,2,0,B|368:200|360:280,1,129.375004241243,0|4
184,208,66527,2,0,B|144:200|96:200,1,86.2500028274954,4|0
88,216,66868,2,0,B|80:152|72:64,1,129.375004241243
200,56,67436,1,0
200,56,67550,1,0
200,56,67664,2,0,B|248:48|288:48,1,86.2500028274954,4|0
400,96,68118,1,4
400,96,68232,2,0,B|432:168|384:256,1,129.375004241243
288,208,68800,1,0
288,208,68914,1,0
288,208,69027,1,0
288,208,69141,1,0
288,208,69254,5,4
80,304,69709,1,8
176,336,69936,2,0,B|256:328|352:328,1,172.500005654991,2|2
416,232,70618,1,8
288,208,70845,1,2
288,208,70959,1,0
288,208,71073,2,0,B|224:208|160:216,1,129.375004241243,8|0
152,224,71527,1,8
40,208,71754,1,2
40,208,71868,1,0
40,208,71982,1,8
112,120,72209,2,0,B|104:80|104:32,1,86.2500028274954,2|8
152,224,72664,1,2
152,224,72777,1,0
152,224,72891,6,0,B|160:288|160:392,1,129.375004241243,12|0
164,360,73345,1,8
272,352,73573,1,2
272,352,73686,1,0
272,352,73800,1,8
376,344,74027,2,0,B|424:336|464:336,1,86.2500028274954,2|8
282,209,74482,1,2
282,209,74595,1,0
282,209,74709,2,0,B|218:220|146:225,1,129.375004241243,12|0
128,248,75164,2,0,B|128:296|144:344,1,86.2500028274954,8|2
56,168,75618,2,0,B|64:128|64:80,1,86.2500028274954,8|2
88,80,75959,2,0,B|160:64|248:64,1,129.375004241243,8|8
432,96,76527,5,12
384,176,76754,1,2
384,176,76868,2,0,B|384:248|376:328,1,129.375004241243,8|2
378,305,77323,1,0
378,305,77436,1,12
208,200,77664,1,2
208,200,77778,2,0,B|208:128|216:48,1,129.375004241243,8|2
213,70,78232,1,0
213,70,78345,1,12
48,192,78573,1,2
48,192,78686,2,0,B|48:264|40:344,1,129.375004241243,8|8
152,328,79254,2,0,B|232:328|304:328,1,129.375004241243,12|0
304,328,79709,2,0,B|360:328|400:328,1,86.2500028274954,8|2
408,232,80164,5,12
424,136,80391,1,2
424,136,80504,1,8
120,56,80845,1,8
104,152,81073,1,8
104,152,81186,1,0
104,152,81300,2,0,B|112:208|120:248,1,86.2500028274954,2|8
48,312,81754,1,2
48,312,81868,1,0
48,312,81982,5,4
256,336,82436,1,0
312,272,82664,1,0
312,272,82777,2,0,B|360:272|416:272,1,84.3749974854291,0|0
480,320,83345,6,0,B|488:288,8,18.75,0|0|0|0|0|0|0|0|4
256,192,83914,12,0,89254
88,48,98345,5,4
64,136,98573,1,0
64,136,98686,2,0,B|72:200|72:264,1,112.5
160,288,99254,2,0,B|216:280|256:280,1,75,8|0
240,288,99595,2,0,B|232:224|232:152,1,112.5
232,175,100050,1,0
232,175,100164,1,8
224,88,100391,1,0
224,88,100504,1,0
392,128,100845,1,0
392,128,100959,1,0
392,128,101073,2,0,B|432:128|480:120,1,75,8|2
408,232,101527,2,0,B|344:216|320:216,1,75,8|2
248,256,101982,6,0,B|256:312|264:344,1,75,8|0
248,336,102323,2,0,B|184:320|120:336,1,112.5
72,256,102891,2,0,B|56:224|64:168,1,75,8|0
80,176,103232,2,0,B|144:168|200:160,1,112.5
191,161,103686,1,0
191,161,103800,1,8
280,152,104027,1,0
280,152,104141,1,0
432,112,104482,1,0
432,112,104595,1,0
432,112,104709,2,0,B|416:80|424:32,1,75,8|2
464,200,105164,2,0,B|480:232|472:280,1,75,8|2
376,320,105618,6,0,B|312:312|280:312,1,75,12|0
296,320,105959,2,0,B|288:272|288:200,1,112.5
176,148,106527,2,0,B|176:196|184:244,1,75,8|0
184,232,106868,2,0,B|104:240|56:240,1,112.5
71,239,107323,1,0
71,239,107436,1,8
80,328,107664,1,0
80,328,107777,1,0
56,152,108118,1,0
56,152,108232,1,0
56,152,108345,2,0,B|48:112|48:64,1,75,8|2
176,155,108800,2,0,B|184:195|184:243,1,75,8|2
192,320,109254,6,0,B|168:336,8,18.75
192,320,109936,1,0
376,208,110164,6,0,B|408:214,8,18.75
376,208,110845,1,4
184,80,111073,6,0,B|176:40,4,28.1249991618097,4|0|0|0|0
72,152,111754,5,4
100,284,111982,5,4
228,324,112209,5,4
340,252,112436,5,4
312,120,112664,5,4
184,80,112891,5,4
184,80,113232,1,0
184,80,113345,2,0,B|188:124|196:168,1,75,8|0
112,200,113800,2,0,B|60:192|24:192,1,75,8|0
40,208,114141,2,0,B|24:272|64:352,1,112.5,8|8
49,318,114595,1,0
49,318,114709,1,8
136,312,114936,1,0
224,304,115164,1,8
312,296,115391,2,0,B|328:232|288:152,1,112.5,8|0
320,176,115845,2,0,B|360:176|408:184,1,75,8|8
440,80,116300,1,2
440,80,116414,1,0
440,80,116527,6,0,B|400:80|352:88,2,75,12|2|8
96,168,117209,1,2
96,168,117323,1,0
96,168,117436,2,0,B|144:168|184:176,2,75,12|2|8
408,288,118118,1,2
408,288,118232,1,0
408,288,118345,2,0,B|378:290|332:295,2,75,12|2|8
400,192,119027,1,2
304,200,119254,1,8
208,208,119482,1,2
208,208,119595,2,0,B|192:152|192:80,1,112.5,8|8
304,200,120164,6,0,B|320:256|320:328,1,112.5,12|0
328,328,120618,2,0,B|376:320|416:320,1,75,8|0
216,304,121073,2,0,B|176:288|120:296,1,75,8|0
136,304,121414,2,0,B|112:256|128:176,1,112.5,8|8
96,104,121982,2,0,B|144:104|184:112,1,75,8|0
264,120,122436,1,8
360,128,122664,2,0,B|360:192|344:272,1,112.5,0|0
352,256,123118,2,0,B|392:248|432:256,1,75,8|8
208,304,123573,1,0
208,304,123686,1,0
208,304,123800,6,0,B|168:312|128:304,1,75,12|0
120,312,124141,2,0,B|112:256|120:176,1,112.5,8|0
64,112,124709,2,0,B|56:72|52:37,2,75,8|0|8
208,64,125391,5,4
272,160,125618,1,4
272,160,125732,1,0
272,160,125845,1,0
200,280,126073,1,0
384,312,126300,1,0
384,312,126414,2,0,B|400:320,16,18.75
368,312,127436,6,0,B|400:248|352:152,1,129.375004241243,4|0
360,184,127891,1,8
352,88,128118,2,0,B|264:96|168:104,1,172.500005654991,2|2
80,120,128800,1,8
104,216,129027,1,2
104,216,129141,1,0
104,216,129254,2,0,B|168:208|240:200,1,129.375004241243,8|0
240,208,129709,1,8
344,200,129936,1,2
344,200,130050,1,0
344,200,130164,1,8
448,192,130391,2,0,B|448:152|440:104,1,86.2500028274954,2|8
240,208,130845,1,2
240,208,130959,1,0
240,208,131073,6,0,B|240:272|256:344,1,129.375004241243,12|0
259,343,131527,1,8
130,361,131754,1,2
130,361,131868,1,0
130,361,131982,1,8
112,232,132209,2,0,B|72:232|24:240,1,86.2500028274954,2|8
240,208,132664,1,2
240,208,132777,1,0
240,208,132891,2,0,B|311:211|386:197,1,129.375004241243,12|0
384,216,133345,2,0,B|384:264|392:304,1,86.2500028274954,8|2
416,128,133800,2,0,B|416:80|408:40,1,86.2500028274954,8|2
392,40,134141,2,0,B|304:48|240:56,1,129.375004241243,8|8
72,128,134709,5,12
112,208,134936,1,2
112,208,135050,2,0,B|88:280|128:352,1,129.375004241243,8|2
119,334,135504,1,0
119,334,135618,1,12
264,176,135845,1,2
264,176,135959,2,0,B|288:104|248:32,1,129.375004241243,8|2
256,49,136413,1,0
256,49,136527,1,12
400,208,136754,1,2
400,208,136868,2,0,B|376:280|416:352,1,129.375004241243,8|2
296,304,137436,2,0,B|256:320|204:307,1,86.2500028274954,12|2
144,200,137891,2,0,B|184:184|236:197,1,86.2500028274954,8|2
320,128,138345,6,0,B|328:88|320:40,1,86.2500028274954,4|0
336,48,138686,2,0,B|400:32|472:40,1,129.375004241243,0|4
216,96,139254,2,0,B|208:136|216:184,1,86.2500028274954,4|0
224,192,139595,2,0,B|160:208|88:200,1,129.375004241243
104,304,140164,1,0
104,304,140277,1,0
104,304,140391,1,4
216,296,140618,2,0,B|280:288|312:288,1,86.2500028274954,0|4
320,296,140959,2,0,B|328:240|312:152,1,129.375004241243
424,152,141527,1,0
424,152,141641,1,0
424,152,141754,1,0
424,152,141868,1,0
424,152,141982,5,4
192,48,142436,1,8
104,96,142664,2,0,B|88:184|120:280,1,172.500005654991,2|2
208,256,143345,1,8
296,248,143573,1,2
296,248,143686,1,0
296,248,143800,2,0,B|368:240|432:240,1,129.375004241243,8|0
432,248,144254,1,8
416,152,144482,1,2
416,152,144595,1,0
416,152,144709,2,0,B|424:112|408:56,1,86.2500028274954,8|2
296,248,145164,2,0,B|288:288|304:344,1,86.2500028274954,8|2
301,333,145504,1,0
301,333,145618,6,0,B|224:336|152:344,1,129.375004241243,12|0
168,352,146073,1,8
96,272,146300,1,2
96,272,146414,1,0
96,272,146527,2,0,B|88:232|88:176,1,86.2500028274954,8|2
288,160,146982,2,0,B|296:200|296:256,1,86.2500028274954,8|2
295,245,147323,1,0
295,245,147436,2,0,B|360:224|440:240,1,129.375004241243,12|0
432,248,147891,2,0,B|424:296|440:336,1,86.2500028274954,8|2
424,160,148345,1,8
416,72,148573,1,2
416,72,148686,2,0,B|344:72|272:80,1,129.375004241243,8|8
96,80,149254,5,12
80,176,149482,1,2
80,176,149595,2,0,B|144:168|208:168,1,129.375004241243,8|2
209,167,150050,1,0
209,167,150164,1,12
448,232,150391,1,2
448,232,150504,2,0,B|384:232|288:240,1,129.375004241243,8|2
318,237,150959,1,0
318,237,151073,1,12
72,336,151300,1,2
72,336,151413,2,0,B|136:328|200:328,1,129.375004241243,8|2
304,336,151982,1,12
248,160,152323,1,0
248,160,152436,2,0,B|178:158|146:158,1,86.2500028274954,8|2
344,144,152891,6,0,B|414:146|446:146,1,86.2500028274954,12|2
440,152,153232,2,0,B|448:88|448:16,1,129.375004241243,8|8
312,48,153800,1,8
312,48,153914,1,0
312,48,154027,2,0,B|242:46|210:46,1,86.2500028274954,2|8
128,40,154482,1,2
128,40,154595,1,0
128,40,154709,5,12
32,208,155164,1,0
104,248,155391,1,0
104,248,155504,2,0,B|112:304|120:344,1,84.3749974854291
224,304,156073,6,0,B|232:288,6,18.75
232,312,156527,6,0,B|304:304|360:304,1,112.499996647239,4|8
416,200,157436,1,0
416,200,157891,2,0,B|360:200|288:208,1,112.499996647239,8|0
216,112,158800,1,8
216,112,159254,2,0,B|296:104|320:104,1,84.3749974854291
304,112,159709,1,8
384,112,159936,1,2
464,112,160164,5,0
464,112,160618,2,0,B|472:168|472:240,1,112.499996647239,8|0
472,304,161300,1,2
392,304,161527,2,0,B|336:304|280:312,1,112.499996647239,8|0
128,328,162436,1,8
128,328,162891,2,0,B|72:336|48:336,2,56.2499983236194,0|2|8
224,224,163800,6,0,B|280:216|304:216,2,56.2499983236194,4|2|8
152,176,164482,2,0,B|128:128|144:56,1,112.499996647239,2|2
208,24,165164,1,8
280,56,165391,2,0,B|304:104|288:176,1,112.499996647239,2|2
224,224,166073,1,8
296,280,166300,2,0,B|344:256|416:272,1,112.499996647239,2|2
424,184,166982,1,8
424,184,167209,1,2
424,184,167436,6,0,B|432:72,2,112.499996647239,0|8|0
432,272,168573,2,0,B|488:280,2,56.2499983236194,2|8|2
344,296,169254,5,0
344,296,169368,1,0
248,272,169595,2,0,B|240:232,3,37.5
168,312,170164,2,0,B|128:320|80:312,1,75,2|0
48,224,170618,2,0,B|88:216|136:224,1,75,2|0
122,222,170959,1,0
122,222,171073,5,4
72,40,178345,5,4
80,128,178573,1,0
80,128,178686,2,0,B|144:120|224:120,1,112.5
192,120,179141,1,0
192,120,179254,1,0
200,208,179482,1,0
200,208,179595,2,0,B|141:214|59:220,1,112.5
87,217,180050,1,0
87,217,180164,1,0
96,304,180391,1,0
96,304,180504,2,0,B|160:296|240:296,1,112.5
208,296,180959,1,0
208,296,181073,1,0
296,296,181300,1,0
384,296,181527,2,0,B|384:256|376:216,1,75
312,136,181982,6,0,B|320:88,7,37.5,4|0|0|0|0|0|4|0
280,72,182891,6,0,B|224:64,7,37.5,4|0|0|0|0|0|0|0
200,88,183800,5,0
200,88,183914,1,0
200,88,184027,1,4
88,128,184254,2,0,B|88:168|104:224,1,75,0|4
248,200,184709,2,0,B|304:200|368:200,1,112.5
368,208,185164,1,4
352,320,185391,1,0
336,320,185504,1,0
320,320,185618,1,0
304,320,185732,1,0
288,320,185845,1,4
272,320,185959,1,0
256,320,186073,1,0
240,320,186186,1,0
224,320,186300,1,0
208,320,186414,1,0
192,320,186527,2,0,B|168:320,14,18.75
160,328,187436,6,0,B|128:272|152:176,1,129.375004241243,4|0
154,206,187891,1,8
104,120,188118,2,0,B|184:72|288:112,1,172.500005654991,2|2
376,72,188800,1,8
448,152,189027,1,2
448,152,189141,1,0
448,152,189254,2,0,B|456:224|440:320,1,129.375004241243,8|0
440,288,189709,1,8
344,280,189936,1,2
344,280,190050,1,0
344,280,190164,1,8
248,272,190391,2,0,B|240:320|248:368,1,86.2500028274954,2|8
352,184,190845,1,2
352,184,190959,1,0
352,184,191073,6,0,B|360:120|352:40,1,129.375004241243,12|0
345,57,191527,1,8
257,45,191754,1,2
257,45,191868,1,0
257,45,191982,1,8
168,40,192209,2,0,B|120:32|72:40,1,86.2500028274954,2|8
224,181,192664,1,2
224,181,192777,1,0
224,181,192891,2,0,B|288:200|360:181,1,129.375004241243,12|0
368,192,193345,2,0,B|368:240|384:280,1,86.2500028274954,8|2
440,128,193800,2,0,B|440:80|424:40,1,86.2500028274954,8|2
408,48,194141,2,0,B|344:48|264:56,1,129.375004241243,8|8
64,112,194709,5,12
88,200,194936,1,2
88,200,195050,2,0,B|72:280|112:360,1,129.375004241243,8|2
98,327,195504,1,0
98,327,195618,1,12
256,176,195845,1,2
256,176,195959,2,0,B|272:96|232:16,1,129.375004241243,8|2
245,48,196413,1,0
245,48,196527,1,12
408,200,196754,1,2
408,200,196868,2,0,B|392:280|432:360,1,129.375004241243,8|2
418,327,197323,1,0
418,327,197436,2,0,B|458:327|506:319,1,86.2500028274954,12|2
312,288,197891,2,0,B|272:288|224:296,1,86.2500028274954,8|2
64,216,198345,6,0,B|104:224|152:224,1,86.2500028274954,4|0
160,232,198686,2,0,B|144:176|160:80,1,129.375004241243,0|4
424,176,199254,2,0,B|384:168|336:168,1,86.2500028274954,4|0
328,160,199595,2,0,B|344:216|328:312,1,129.375004241243
235,297,200164,1,0
235,297,200277,1,0
235,297,200391,1,4
139,305,200618,1,0
43,313,200845,1,4
43,312,200959,2,0,B|27:256|43:160,1,129.375004241243
40,96,201527,1,0
40,96,201641,1,0
40,96,201754,1,0
40,96,201868,1,0
40,96,201982,5,4
312,40,202436,1,8
392,96,202664,2,0,B|424:184|384:288,1,172.500005654991,2|2
296,256,203345,1,8
200,248,203573,1,2
200,248,203686,1,0
200,248,203800,2,0,B|128:240|64:240,1,129.375004241243,8|0
64,248,204254,2,0,B|56:184|56:136,1,86.2500028274954,8|2
56,162,204595,1,0
56,162,204709,1,8
168,72,204936,2,0,B|168:120|160:176,1,86.2500028274954,2|8
272,152,205391,1,2
272,152,205504,1,0
272,152,205618,6,0,B|344:144|416:144,1,129.375004241243,12|0
408,152,206073,2,0,B|392:112|408:56,1,86.2500028274954,8|2
405,67,206414,1,0
405,67,206527,1,8
472,216,206754,2,0,B|488:256|472:312,1,86.2500028274954,2|8
376,296,207209,1,2
376,296,207323,1,0
376,296,207436,2,0,B|304:288|240:288,1,129.375004241243,12|0
232,296,207891,2,0,B|224:256|224:200,1,86.2500028274954,8|2
56,32,208345,2,0,B|64:72|64:128,1,86.2500028274954,8|2
56,128,208686,2,0,B|120:120|192:120,1,129.375004241243,8|8
456,112,209254,5,12
432,192,209482,1,0
432,192,209595,2,0,B|360:184|296:184,1,129.375004241243,8|2
302,184,210050,1,0
302,184,210164,1,12
72,256,210391,1,0
72,256,210504,2,0,B|144:248|208:248,1,129.375004241243,8|2
201,248,210959,1,0
201,248,211073,1,12
440,336,211300,1,0
440,336,211413,2,0,B|368:328|304:328,1,129.375004241243,8|2
208,344,211982,1,12
48,208,212323,1,0
48,208,212436,2,0,B|40:120,1,86.2500016450882,8|2
96,40,212891,5,12
192,72,213118,1,2
192,72,213232,2,0,B|248:40|336:64,1,129.375004241243,8|8
416,104,213800,1,8
416,104,213914,1,0
416,104,214027,2,0,B|416:152|408:200,1,86.2500028274954,2|8
392,280,214482,1,2
392,280,214595,1,0
392,280,214709,5,12
200,200,215164,1,0
176,280,215391,1,0
176,280,215504,2,0,B|128:272|72:272,1,84.3749974854291
40,352,216073,6,0,B|32:320,8,18.75,0|0|0|0|0|0|0|0|4
256,192,216641,12,0,221982
