osu file format v9

[General]
AudioFilename: agony.mp3
AudioLeadIn: 0
PreviewTime: 54425
Countdown: 0
SampleSet: Soft
StackLeniency: 0.4
Mode: 0
LetterboxInBreaks: 0

[Editor]
DistanceSpacing: 1
BeatDivisor: 4
GridSize: 4

[Metadata]
Title:Agony
Artist:KOTOKO
Creator:IceBeam
Version:Easy
Source:Kannazuki no Miko
Tags:reiji-rj ending

[Difficulty]
HPDrainRate:2
CircleSize:4
OverallDifficulty:2
ApproachRate:3
SliderMultiplier:0.8
SliderTickRate:1

[Events]
//Background and Video events
0,0,"254959.jpg"
//Break Periods
2,89454,96527
2,171273,176905
//Storyboard Layer 0 (Background)
//Storyboard Layer 1 (Fail)
//Storyboard Layer 2 (Pass)
//Storyboard Layer 3 (Foreground)
//Storyboard Sound Samples
//Background Colour Transformations
3,100,163,162,255

[TimingPoints]
164,454.545454545455,4,2,0,30,1,0
18345,-100,4,1,1,40,0,0
23800,-100,4,1,1,20,0,0
25618,-133.333333333333,4,1,1,65,0,0
25732,-100,4,1,1,65,0,0
36527,-100,4,1,1,50,0,0
40050,-100,4,1,1,55,0,0
52550,-100,4,1,1,55,0,0
54027,-100,4,2,1,40,0,0
54652,-100,4,1,1,55,0,0
54709,-100,4,1,1,65,0,0
54823,-100,4,1,1,60,0,1
69141,-100,4,1,1,60,0,0
69254,-100,4,1,1,60,0,1
81982,-133.333333333333,4,1,1,75,0,0
82095,-133.333333333333,4,2,1,40,0,0
83800,-133.333333333333,4,1,1,40,0,0
84254,-100,4,1,1,30,0,0
85164,-100,4,1,1,20,0,0
86073,-100,4,1,1,10,0,0
86982,-100,4,1,1,5,0,0
98118,-100,4,1,1,55,0,0
109141,-100,4,1,1,50,0,0
112891,-100,4,1,1,55,0,0
125277,-100,4,1,1,55,0,0
126470,-100,4,1,1,25,0,0
127436,-100,4,1,1,60,0,1
138345,-100,4,1,1,60,0,1
141868,-100,4,1,1,60,0,0
141982,-100,4,1,1,60,0,1
154709,-133.333333333333,4,1,1,65,0,0
155845,-133.333333333333,4,1,1,40,0,0
156300,-133.333333333333,4,1,1,65,0,0
156754,-133.333333333333,4,1,1,40,0,0
171186,-133.333333333333,4,2,1,40,0,0
181982,-133.333333333333,4,1,1,30,0,0
182891,-133.333333333333,4,1,1,35,0,0
183800,-133.333333333333,4,1,1,40,0,0
187436,-100,4,1,1,60,0,1
187493,-100,4,1,1,60,0,1
198345,-100,4,1,1,60,0,1
201925,-100,4,1,1,60,0,0
201982,-100,4,1,1,60,0,1
202039,-100,4,1,1,60,0,1
214709,-100,4,1,1,60,0,0
214766,-133.333333333333,4,2,1,40,0,0
216073,-133.333333333333,4,1,1,40,0,0
216584,-100,4,2,1,40,0,0
216982,-100,4,2,1,30,0,0
217891,-100,4,2,1,20,0,0
218800,-100,4,2,1,10,0,0

[Colours]
Combo1 : 243,111,82
Combo2 : 252,250,171
Combo3 : 160,244,85

[HitObjects]
72,180,3800,1,0
228,148,4709,2,0,B|244:88|224:24,2,120,2|2|0
220,228,6527,2,0,B|212:272|224:328,1,80,0|2
296,336,7436,5,0
376,196,8345,2,0,B|432:176|512:196,2,120,2|2|0
296,212,10164,2,0,B|260:228|180:212,1,80,0|2
136,208,11073,5,0
196,64,11982,2,0,B|244:44|256:60|268:76|320:60,2,120,2|2|0
231,135,13800,2,0,B|227:183|227:227,1,80,0|2
220,296,14709,5,0
368,240,15618,2,0,B|432:232|500:224,2,120,2|2|0
300,200,17436,2,0,B|288:160|296:104,1,80,0|2
372,104,18345,5,0
336,32,18800,2,0,B|256:16|260:48|152:24,1,160,0|0
176,188,20618,2,0,B|256:204|252:172|360:196,1,160,0|0
396,240,21982,5,0
336,292,22436,2,0,B|256:276|260:308|152:284,1,160,0|0
132,220,23800,2,0,B|89:228|49:200|32:137|60:86|112:58|171:72|199:112|194:169,1,320,0|4
276,156,26073,5,0
432,116,26982,2,0,B|464:200|416:308,1,160
356,304,28345,2,0,B|308:296|264:296,1,80
204,328,29254,5,0
136,284,29709,2,0,B|148:208|120:204|140:92,2,160
204,328,31982,2,0,B|256:316|312:328,1,80
360,348,32891,5,4
436,320,33345,2,0,B|468:244|428:136,1,160
356,164,34709,1,0
292,116,35163,2,0,B|280:80|284:16,2,80
356,164,36527,6,0,B|272:112|184:188,1,160
44,212,38345,2,0,B|24:176|36:116,1,80,4|0
112,160,39254,2,0,B|132:196|120:256,1,80,0|4
64,292,40163,5,4
140,316,40618,2,0,B|176:312|192:284|192:284|232:312|300:300,1,160
360,332,41982,1,0
432,296,42436,2,0,B|440:220|452:124,1,160
456,56,43800,5,4
300,96,44709,1,4
144,64,45618,2,0,B|92:68|44:72,1,80,4|0
76,148,46527,2,0,B|128:144|176:140,1,80
236,148,47436,5,4
240,152,47891,2,0,B|208:240|264:316,1,160
196,356,49254,1,0
200,360,49709,2,0,B|260:304|364:344,1,160
428,356,51073,5,4
468,288,51527,2,0,B|504:212|460:120,1,160
400,88,52891,1,4
332,132,53345,2,0,B|296:208|340:300,1,160
264,324,54709,5,4
192,292,55164,2,0,B|112:276|116:304|32:288,1,160
32,208,56527,1,0
36,212,56982,2,0,B|116:228|112:200|196:216,1,160
180,136,58345,5,4
256,156,58800,2,0,B|288:180|304:248|260:296|212:296,1,160
203,218,60164,1,4
207,222,60618,2,0,B|283:226|383:238,1,160
432,188,61982,6,0,B|464:120|440:28,2,160,4|4|4
276,224,64709,2,0,B|232:216|196:220,1,80
116,232,65618,6,0,B|104:296|128:364,2,120,4|4|0
144,156,67436,2,0,B|156:92|132:24,2,120,4|4|0
196,216,69254,5,4
256,155,69709,2,0,B|260:183|288:207|288:207|264:237|260:276|286:314,1,160
352,261,71073,1,0
427,301,71527,2,0,B|444:278|440:239|416:209|416:209|444:185|448:157,1,160
491,90,72891,5,4
412,80,73345,2,0,B|324:40|248:84,1,160
280,156,74709,1,4
200,140,75163,2,0,B|112:180|36:136,1,160
8,72,76527,6,0,B|56:160|0:240,2,160,4|4|4
168,48,79254,2,0,B|208:48|260:52,1,80
332,44,80163,5,4
408,72,80618,2,0,B|452:160|392:240,1,160
344,276,81982,2,0,B|252:256|256:292|164:272,1,179.999994635582,4|0
88,272,83800,5,4
256,192,84027,12,0,89254
72,44,98345,5,4
96,120,98800,2,0,B|156:208|76:300,2,160
152,60,101073,2,0,B|240:64,1,80
312,68,101982,5,0
304,148,102436,2,0,B|384:152|476:160,2,160
236,188,104709,2,0,B|232:232|248:288,1,80
316,304,105618,5,4
320,308,106073,2,0,B|228:264|156:332,2,160
388,264,108345,2,0,B|404:224|384:160,1,80
324,140,109254,6,0,B|320:84|312:8,2,120,4|0|0
248,168,111073,2,0,B|252:224|260:300,2,120,4|4|0
168,160,112891,5,4
92,188,113345,2,0,B|52:116|96:20,1,160
168,52,114709,1,0
172,56,115163,2,0,B|252:48|364:48,1,160
412,48,116527,5,4
392,208,117436,1,4
232,184,118345,1,4
212,344,119254,2,0,B|168:340|116:336,1,80,0|0
52,328,120163,5,4
56,332,120618,2,0,B|16:256|60:168,1,160
100,112,121982,1,0
176,140,122436,2,0,B|260:120|248:160|348:136,1,160
412,112,123800,5,4
456,177,124254,2,0,B|496:256|456:332,1,160
380,356,125618,1,4
304,332,126073,2,0,B|264:253|304:177,1,160
376,144,127436,5,4
329,78,127891,2,0,B|279:66|255:94|255:94|227:66|172:80,1,160
124,20,129254,1,0
128,24,129709,2,0,B|184:108|116:188,1,160
88,244,131073,5,4
168,248,131527,2,0,B|248:252|336:256,1,160
384,200,132891,1,4
336,136,133345,2,0,B|256:132|168:128,1,160
120,184,134709,6,0,B|115:266|151:258|139:366,2,160,0|4|4
280,176,137436,2,0,B|336:172|368:172,1,80,4|0
436,148,138345,6,0,B|452:92|428:0,2,120,4|4|0
420,228,140163,2,0,B|404:284|428:376,2,120,4|4|0
360,172,141982,5,4
284,196,142436,2,0,B|232:168|232:168|192:208|116:184,1,160
88,124,143800,1,0
92,128,144254,2,0,B|148:208|88:300,1,160
140,348,145618,5,4
216,328,146073,2,0,B|300:320|384:324,1,160
420,256,147436,1,4
424,260,147891,2,0,B|434:177|398:185|406:101,1,160,0|0
484,108,149254,6,0,B|401:118|409:82|325:90,1,160,4|4
172,52,151073,1,4
80,184,151982,2,0,B|84:224|92:272,1,80,4|0
152,316,152891,5,4
228,288,153345,2,0,B|296:252|388:276,1,160
456,244,154709,2,0,B|464:152|424:160|432:68,1,180.000006866455,4|0
360,32,156527,5,4
288,64,156982,2,0,B|240:64|152:72,3,120.000004577637
92,88,160163,5,0
128,160,160618,2,0,B|144:220|128:296,3,120.000004577637
176,340,163800,5,0
252,320,164254,2,0,B|376:312,3,120.000004577637
448,320,167436,5,0
440,244,167891,2,0,B|456:184|428:124,1,120.000004577637
360,84,169254,2,0,B|300:80|252:80,2,90.0000034332277
428,52,171073,5,4
64,164,178345,6,0,B|56:228|72:288,1,120.000004577637,4|0
176,192,180163,2,0,B|184:128|168:68,1,120.000004577637
240,40,181527,1,0
312,72,181982,6,0,B|368:68|424:64,2,90.0000034332277,4|4|0
248,120,183800,2,0,B|180:124|136:128,2,90.0000034332277,4|4|0
324,148,185618,5,4
328,152,186073,2,0,B|316:240|360:236|340:352,1,180.000006866455,4|4
424,352,187891,6,0,B|332:320|260:364,1,160
192,340,189254,1,0
196,344,189709,2,0,B|156:268|192:184,1,160
135,130,191073,5,4
179,63,191527,2,0,B|228:44|256:64|256:64|288:44|332:68,1,160
377,130,192891,1,4
322,189,193345,2,0,B|356:268|316:344,1,160
236,332,194709,6,0,B|152:336|72:340,2,160,4|4|4
248,172,197436,2,0,B|308:168|340:168,1,80,4|0
404,148,198345,6,0,B|412:88|400:12,2,120,4|4|0
388,228,200163,2,0,B|380:288|392:364,2,120,4|4|0
328,172,201982,5,4
256,208,202436,2,0,B|188:256|100:224,1,160
60,292,203800,1,0
64,296,204254,2,0,B|96:220|52:140,1,160
104,80,205618,5,4
176,116,206073,2,0,B|259:101|251:133|343:113,1,160
408,80,207436,1,4
458,142,207891,2,0,B|416:220|448:296,1,160
376,332,209254,6,0,B|304:288|216:328,1,160,4|4
80,252,211073,2,0,B|48:180|84:92,1,160,4|4
140,40,212436,1,0
208,80,212891,5,4
212,84,213345,2,0,B|292:80|380:80,1,160
452,84,214709,1,4
256,192,214936,12,0,216527
256,192,216754,12,0,221982
