osu file format v6

[General]
AudioFilename: Absurd.mp3
AudioLeadIn: 1511
PreviewTime: 59772
Countdown: 0
SampleSet: Normal
StackLeniency: 0.7
Mode: 0
LetterboxInBreaks: 1

[Editor]
DistanceSpacing: 0.800000011920929
BeatDivisor: 4
GridSize: 8

[Metadata]
Title:Absurd
Artist:KOTOKO
Creator:Mystearica
Version:Severe
Source:
Tags:J-Pop

[Difficulty]
HPDrainRate:6
CircleSize:5
OverallDifficulty:6
SliderMultiplier:1.6
SliderTickRate:0.5

[Events]
//Background and Video events
0,0,"bg2.jpg"
//Break Periods
2,89271,102563
//Storyboard Layer 0 (Background)
//Storyboard Layer 1 (Fail)
//Storyboard Layer 2 (Pass)
//Storyboard Layer 3 (Foreground)
//Storyboard Sound Samples
//Background Colour Transformations
3,100,0,0,0

[TimingPoints]
4,454.442172233583,4,2,1,100,1,0
3526,-100,4,2,1,60,0,0
3753,-100,4,2,1,100,0,0
7272,454.442172233583,4,1,1,60,1,0
7499,-100,4,1,1,80,0,0
25794,-100,4,1,1,50,0,0
26931,-100,4,1,1,60,0,0
27608,-100,4,1,1,70,0,0
28176,-100,4,1,1,80,0,0
43627,-200,4,1,1,80,0,0
45217,-100,4,1,1,80,0,0
47149,-200,4,1,1,80,0,0
49885,-100,4,1,1,80,0,0
58055,-100,4,1,1,30,0,0
58623,-100,4,1,1,50,0,0
59192,-100,4,1,1,70,0,0
59646,-100,4,1,1,90,0,0
59987,-100,4,1,1,80,0,0
118155,-200,4,1,1,80,0,0
119632,-100,4,1,1,80,0,0
121677,-200,4,1,1,80,0,0
125086,-100,4,1,1,80,0,0
132584,-100,4,1,1,30,0,0
133152,-100,4,1,1,49,0,0
133720,-100,4,1,1,70,0,0
134288,-100,4,1,1,80,0,0
134515,-100,4,1,1,80,0,0

[Colours]
Combo1 : 116,205,181
Combo2 : 70,149,236
Combo3 : 234,113,149
Combo4 : 245,146,71

[HitObjects]
96,120,4,2,0,B|32:192|96:280,1,160,2|0
136,192,685,1,0
136,192,799,1,0
136,192,912,1,2
416,120,1821,6,0,B|480:192|416:280,1,160,2|0
424,266,2389,1,0
424,266,2503,1,0
376,200,2730,1,2
296,200,2957,1,0
296,200,3071,1,0
336,272,3298,1,0
336,272,3412,1,0
336,272,3639,1,4
256,72,4093,5,2
240,104,4207,1,0
256,144,4321,1,2
240,184,4434,1,0
256,224,4548,1,2
64,328,5230,5,2
40,296,5343,1,0
64,264,5457,1,2
64,184,5684,1,2
64,104,5911,1,0
136,144,6138,1,2
136,224,6366,1,2
136,224,6479,1,0
208,184,6707,1,0
208,184,6820,1,2
208,104,7047,1,2
208,104,7161,1,0
208,104,7272,1,4
432,80,7726,5,0
432,80,7953,1,0
432,80,8067,1,0
432,80,8180,2,0,B|424:128|352:152,1,80,0|0
344,152,8521,2,0,B|280:120|216:176,1,120
231,163,9089,1,4
104,64,9544,5,0
88,96,9657,1,0
112,120,9771,1,0
88,144,9885,1,0
112,168,9998,2,0,B|112:280,1,80
144,264,10339,2,0,B|120:312|176:344,1,80
208,288,10793,1,0
208,288,10907,1,4
400,272,11361,5,0
400,176,11589,1,0
424,144,11702,1,0
400,112,11816,1,4
168,64,12498,5,0
168,64,12611,1,0
168,64,12725,1,0
168,64,12952,1,0
128,136,13179,1,0
208,136,13406,1,0
168,208,13634,1,0
184,232,13747,1,0
208,248,13861,1,0
232,264,13975,1,0
256,272,14088,1,0
280,280,14202,1,0
312,280,14315,1,0
336,280,14429,1,0
360,272,14543,5,0
432,240,14770,1,0
456,168,14997,1,8
408,104,15224,1,0
408,104,15338,1,0
408,104,15451,1,0
408,104,15679,6,0,B|320:152,1,80,0|8
104,104,16360,2,0,B|192:152,1,80,0|0
174,142,16815,1,8
72,208,17042,5,0
88,240,17156,1,0
112,264,17269,1,0
144,272,17383,1,0
176,272,17496,1,0
208,264,17610,1,0
240,256,17724,1,8
272,248,17837,1,0
304,240,17951,1,0
336,232,18065,1,0
368,248,18178,1,4
480,160,18633,5,8
416,128,18860,1,0
384,112,18973,1,0
352,128,19087,1,0
384,192,19314,2,0,B|345:218|308:191,1,80,0|8
272,128,19769,1,0
232,192,19996,1,0
200,208,20109,1,0
168,192,20223,1,0
200,128,20450,1,8
128,128,20678,1,0
96,192,20905,1,0
64,208,21018,1,0
24,144,21246,1,0
56,128,21359,1,8
96,72,21586,1,0
128,56,21700,1,0
160,72,21814,1,4
216,128,22041,6,0,B|253:154|292:128,1,80,0|8
328,120,22382,2,0,B|365:94|404:120,1,80
432,144,22723,1,0
472,208,22950,2,0,B|435:234|396:208,1,80,0|8
368,192,23291,2,0,B|331:166|292:192,1,80
264,208,23631,1,0
328,280,23859,5,0
328,280,23972,1,0
328,280,24086,1,8
264,320,24313,2,0,B|249:359|189:359,1,80
160,360,24654,2,0,B|110:360|95:321,1,80
88,288,24995,1,8
112,216,25222,1,0
144,200,25336,1,0
176,216,25449,1,0
208,200,25563,1,0
240,216,25676,1,0
256,208,25904,12,4,26813
256,47,27040,5,0
256,64,27153,1,0
256,80,27267,1,0
256,95,27381,1,0
256,112,27494,1,0
256,127,27608,1,0
256,143,27721,1,0
256,160,27835,1,0
256,175,27949,1,0
256,192,28062,1,0
256,208,28176,1,0
256,223,28289,1,0
256,240,28403,1,0
256,256,28517,1,0
256,271,28630,1,0
256,288,28744,1,0
256,303,28858,1,0
256,319,28971,1,0
256,336,29085,5,4
184,336,29312,2,0,B|138:338|114:299,1,80
99,269,29653,2,0,B|83:225|108:190,1,80
130,165,29994,1,0
186,120,30221,1,0
312,48,30675,5,0
328,56,30789,1,0
344,64,30902,1,0
360,72,31016,1,0
376,80,31130,2,0,B|464:80,1,80,0|8
472,152,31584,2,0,B|464:240,1,80
429,224,31925,2,0,B|346:209,1,80
340,244,32266,1,8
328,104,32720,6,0,B|256:55|174:105,1,160,0|8
120,144,33402,1,0
96,208,33629,2,0,B|126:241|171:227,1,80
200,216,33970,2,0,B|238:196|278:218,1,80
307,236,34311,1,0
376,264,34538,1,0
320,304,34765,2,0,B|279:326|239:301,1,80,0|8
184,336,35220,1,0
120,304,35447,2,0,B|79:326|39:301,1,80
43,303,35788,1,0
43,303,35901,1,8
48,160,36356,6,0,B|112:96,1,80
155,52,36810,2,0,B|219:116,1,80,8|0
263,160,37265,1,0
192,160,37492,1,0
160,160,37606,1,0
120,160,37719,1,8
96,232,37946,5,0
112,232,38060,1,0
128,232,38174,1,0
144,232,38287,1,0
160,232,38401,2,0,B|248:232,1,80,0|8
280,296,38855,2,0,B|368:296,1,80
385,321,39196,2,0,B|473:321,1,80
491,347,39537,1,8
374,193,39991,6,0,B|294:169,1,80,0|0
139,193,40446,2,0,B|219:169,1,80,8|0
256,16,40900,5,0
256,88,41127,1,0
256,104,41241,1,0
256,120,41355,2,0,B|256:208,1,80,8|0
190,230,41809,2,0,B|208:269|256:269,1,80
322,293,42264,2,0,B|305:332|257:332,1,80,8|0
187,320,42718,1,0
176,312,42832,1,0
168,304,42945,1,0
160,296,43059,1,0
152,288,43172,1,8
144,280,43286,1,0
136,272,43400,1,0
128,264,43513,1,0
120,256,43627,6,0,B|98:220|112:172,1,80,4|8
392,128,44536,2,0,B|414:164|400:212,1,80,0|8
136,40,45672,6,0,B|72:104,1,80,0|8
130,147,46126,2,0,B|194:211,1,80
135,255,46581,1,0
110,280,46694,1,0
84,305,46808,1,8
256,336,47262,6,0,B|325:351|363:289,1,120
379,259,48171,1,0
405,183,48626,1,8
394,145,48853,1,0
368,114,49080,2,0,B|314:78|250:111,1,120
256,192,49989,1,0
256,192,50103,1,0
256,192,50216,1,0
256,192,50330,1,0
256,192,50444,1,8
176,344,50898,6,0,B|257:301|336:348,1,160,0|8
176,40,51807,2,0,B|257:83|336:36,1,160,0|8
32,144,52943,5,0
104,120,53170,1,8
144,184,53397,1,0
216,160,53625,1,0
224,176,53738,1,0
232,192,53852,1,0
240,208,53965,1,0
248,224,54079,2,0,B|277:257|336:248,1,80,8|0
440,240,54533,6,0,B|432:328|336:272|328:344,1,160,0|8
256,352,55215,1,0
182,336,55442,2,0,B|176:272|80:328|72:240,1,160,0|8
16,192,56124,2,0,B|80:136,1,80
148,139,56578,2,0,B|208:191,1,80,0|8
280,191,57033,2,0,B|344:135,1,80
377,139,57374,2,0,B|438:191,1,80
466,213,57715,1,0
466,213,57942,1,4
456,312,58169,5,0
440,304,58283,1,0
424,296,58396,1,0
408,288,58510,1,0
392,280,58623,1,0
376,272,58737,1,0
360,264,58851,1,0
344,256,58964,1,0
328,248,59078,1,0
312,240,59192,1,0
296,232,59305,1,0
280,224,59419,1,0
264,216,59532,1,0
248,208,59646,1,0
232,200,59760,1,0
216,192,59873,1,0
200,184,59987,5,4
96,280,60441,1,0
40,232,60668,1,0
48,160,60896,2,0,B|72:77|166:60,1,160,0|8
306,60,61805,2,0,B|396:77|420:160,1,160,0|8
430,230,62486,1,0
424,264,62600,2,0,B|424:319|364:319,1,80
352,296,62941,2,0,B|304:272|280:320,1,80,0|8
144,336,63622,5,0
112,328,63736,1,0
96,296,63850,1,0
160,272,64077,2,0,B|208:269|220:224,1,80,8|0
150,206,64531,2,0,B|162:156|213:155,1,80
239,165,64872,2,0,B|290:167|307:119,1,80
320,96,65213,1,0
264,56,65440,1,0
228,64,65554,2,0,B|190:48|152:75,1,80
136,104,65895,2,0,B|126:150|77:159,1,80,8|0
48,216,66349,2,0,B|54:310|154:319,1,160,0|4
296,328,67258,6,0,B|376:276|449:331,1,160,0|8
483,267,67940,2,0,B|453:241|410:235,1,80
375,235,68280,2,0,B|329:230|290:254,1,80
265,266,68621,1,8
344,144,69076,6,0,B|326:54|238:33,1,160,0|8
208,96,69757,2,0,B|160:102|155:158,1,80
184,168,70098,2,0,B|198:214|148:238,1,80
120,232,70439,1,8
32,344,70893,5,0
32,344,71007,1,0
104,320,71234,1,0
176,344,71461,1,0
176,344,71575,1,0
248,320,71802,2,0,B|330:348,1,80
392,320,72257,1,0
456,344,72484,1,0
456,344,72598,1,0
456,344,72711,2,0,B|496:256,1,80
488,232,73052,2,0,B|424:176,1,80
427,179,73393,1,0
296,152,73620,5,0
256,152,73734,1,0
224,152,73847,1,0
256,216,74074,1,0
224,216,74188,1,0
152,216,74415,1,0
184,216,74529,5,4
200,288,74756,1,0
144,328,74983,2,0,B|64:280,1,80,8|0
48,264,75324,2,0,B|72:160,1,80
65,186,75665,1,0
88,120,75892,1,8
208,40,76347,6,0,B|189:138|291:156,1,160,0|8
344,112,77028,2,0,B|432:96,1,80
448,120,77369,2,0,B|432:216,1,80
434,198,77710,1,8
256,344,78164,5,0
256,328,78278,1,0
256,312,78392,1,0
256,296,78505,1,0
256,280,78619,2,0,B|256:192,1,80,0|0
240,128,79073,2,0,B|192:133|180:181,1,80
176,208,79414,2,0,B|165:252|114:260,1,80
88,264,79755,1,0
56,200,79982,2,0,B|36:155|69:120,1,80
96,112,80323,2,0,B|144:119|171:77,1,80
192,56,80664,1,0
256,80,80891,1,0
256,80,81005,1,0
256,80,81118,1,0
296,136,81346,1,4
424,200,81800,6,0,B|456:304|368:336,1,160,0|8
304,328,82482,2,0,B|284:249,1,80
312,232,82823,2,0,B|336:152,1,80
312,128,83163,1,8
88,200,83618,6,0,B|56:304|144:336,1,160,0|8
208,328,84299,2,0,B|228:249,1,80
200,232,84640,2,0,B|176:152,1,80
200,128,84981,1,8
256,24,85436,5,0
256,96,85663,1,0
256,112,85776,1,0
256,128,85890,1,8
308,177,86117,2,0,B|272:254,1,80
238,249,86458,2,0,B|203:175,1,80
204,177,86799,1,8
204,177,87026,1,0
80,136,87253,5,0
81,171,87367,1,0
88,208,87481,1,0
101,241,87594,1,0
117,273,87708,1,0
144,297,87821,1,0
175,316,87935,1,0
209,326,88049,1,0
245,331,88162,1,0
281,327,88276,1,0
315,317,88389,1,0
345,298,88503,1,0
373,274,88617,1,0
389,242,88730,1,0
402,208,88844,1,0
408,172,88957,1,0
410,136,89071,1,4
464,192,103613,5,0
408,240,103840,2,0,B|339:299,1,80,0|0
317,312,104181,2,0,B|246:254,1,80
226,239,104522,1,0
173,191,104749,1,0
48,72,105204,5,0
40,80,105317,1,0
32,88,105431,1,0
24,96,105545,1,0
16,104,105658,2,0,B|0:147|34:184,1,80,0|8
96,144,106113,2,0,B|124:183|95:222,1,80
64,232,106454,2,0,B|46:275|85:308,1,80
120,296,106794,1,8
256,352,107249,6,0,B|416:296,1,160,0|8
475,276,107930,1,0
452,208,108158,2,0,B|368:236,1,80
342,246,108498,2,0,B|260:274,1,80
232,283,108839,1,0
209,215,109067,1,0
277,192,109294,2,0,B|362:162,1,80,0|8
420,142,109748,1,0
397,74,109975,2,0,B|320:101,1,80
287,112,110316,1,0
253,124,110430,1,8
88,72,110884,6,0,B|86:119|40:144,1,80
88,312,111339,2,0,B|86:265|40:240,1,80,8|0
49,245,111793,1,0
49,245,112020,1,0
49,245,112134,1,0
49,245,112248,1,8
128,192,112475,5,0
144,192,112588,1,0
160,192,112702,1,0
176,192,112816,1,0
192,192,112929,2,0,B|280:192,1,80,0|8
239,127,113384,2,0,B|327:127,1,80
344,102,113725,2,0,B|432:102,1,80
450,76,114065,1,8
464,264,114520,6,0,B|422:284|385:262,1,80
425,202,114974,2,0,B|387:183|345:203,1,80,8|0
309,262,115429,1,0
344,328,115656,1,0
344,328,115770,1,0
344,328,115883,2,0,B|306:350|267:327,1,80,8|0
233,263,116338,2,0,B|192:283|152:260,1,80
120,200,116792,2,0,B|78:219|38:196,1,80,8|0
72,136,117247,1,0
64,128,117360,1,0
56,112,117474,1,0
56,96,117587,1,0
64,80,117701,1,0
72,72,117815,1,0
88,64,117928,1,0
104,64,118042,1,0
120,72,118155,6,0,B|164:82|175:129,1,80,4|0
392,312,119064,2,0,B|348:302|337:255,1,80,0|0
224,72,120200,6,0,B|144:104,1,80,0|0
288,72,120655,2,0,B|368:104,1,80
256,192,121109,1,0
256,192,121223,1,0
256,192,121336,1,8
209,304,121791,6,0,B|256:375|305:299,1,120
302,303,122700,1,0
345,245,123154,1,0
354,210,123381,1,0
346,175,123609,2,0,B|301:138|228:142,1,120,0|0
200,152,124518,1,0
184,160,124631,1,0
168,168,124745,1,0
152,176,124858,1,0
136,184,124972,1,4
136,328,125426,6,0,B|147:236|237:213,1,160,0|8
376,56,126335,2,0,B|365:148|275:171,1,160,0|8
448,304,127471,5,0
376,304,127699,1,8
408,240,127926,1,0
336,240,128153,1,0
320,248,128267,1,0
304,256,128380,1,0
288,264,128494,1,0
272,272,128608,2,0,B|176:272,1,80,8|0
80,232,129062,6,0,B|63:141|135:87,1,160,0|8
194,54,129744,1,0
257,89,129971,2,0,B|326:140|309:231,1,160,0|8
360,280,130653,2,0,B|296:344,1,80
272,272,131107,2,0,B|192:304,1,80,0|8
200,232,131561,2,0,B|112:240,1,80
112,200,131902,2,0,B|24:184,1,80
33,185,132243,1,0
56,120,132470,1,0
176,32,132698,5,0
208,48,132811,1,0
240,64,132925,1,0
272,80,133038,1,0
240,96,133152,1,0
208,112,133266,1,0
176,128,133379,1,0
208,144,133493,1,0
240,160,133606,1,0
272,176,133720,1,0
240,192,133834,1,0
208,208,133947,1,0
176,224,134061,1,0
208,248,134174,1,0
240,264,134288,1,0
272,280,134402,1,0
304,296,134515,5,4
440,344,134970,1,0
488,296,135197,1,0
480,224,135424,2,0,B|393:235|332:170,1,160,0|8
192,208,136333,2,0,B|279:197|340:262,1,160,0|8
288,312,137015,1,0
256,328,137128,2,0,B|221:356|171:345,1,80
146,333,137469,2,0,B|110:318|65:332,1,80,0|8
48,96,138151,5,0
88,96,138264,1,0
120,96,138378,1,0
144,168,138605,2,0,B|232:168,1,80,8|0
248,96,139060,2,0,B|336:96,1,80
352,128,139401,2,0,B|440:128,1,80
464,152,139741,1,0
464,223,139969,1,0
432,240,140082,2,0,B|344:240,1,80
328,264,140423,2,0,B|232:264,1,80,8|0
192,224,140877,2,0,B|24:224,1,160,0|4
177,71,141786,6,0,B|256:32|337:75,1,160,0|8
346,142,142468,2,0,B|266:182,1,80
238,178,142809,2,0,B|166:142,1,80
166,142,143150,1,8
177,312,143604,6,0,B|256:351|337:308,1,160,0|8
346,241,144286,2,0,B|266:201,1,80
238,205,144627,2,0,B|166:241,1,80
166,241,144967,1,8
256,128,145422,5,0
256,128,145536,1,0
320,96,145763,1,0
384,64,145990,1,0
384,64,146104,1,0
384,136,146331,2,0,B|384:224,1,80
446,179,146785,1,0
448,248,147012,1,0
448,248,147126,1,0
448,248,147240,2,0,B|376:296,1,80
345,292,147581,2,0,B|274:246,1,80
264,280,147921,1,0
176,192,148149,5,0
160,192,148262,1,0
144,192,148376,1,0
128,192,148489,1,0
112,192,148603,1,0
96,192,148717,1,0
80,192,148830,1,0
64,192,148944,1,0
48,192,149057,6,0,B|4:272|47:350,1,160,4|0
112,320,149739,2,0,B|192:352,1,80
200,320,150080,2,0,B|280:288,1,80
304,312,150421,1,8
464,192,150875,6,0,B|508:112|465:34,1,160,0|8
400,64,151557,2,0,B|320:32,1,80
312,64,151898,2,0,B|232:96,1,80
208,72,152239,1,8
348,200,152693,6,0,B|284:264,1,80
240,308,153147,2,0,B|181:251,1,80,8|0
123,212,153602,1,0
123,212,153715,2,0,B|188:147,1,80
206,130,154056,2,0,B|142:66,1,80,8|0
98,22,154511,1,0
98,22,154624,1,0
98,22,154738,1,0
47,73,154965,2,0,B|114:140,1,80,8|0
53,181,155420,1,0
53,181,155533,1,0
53,181,155647,1,0
104,231,155874,1,4
256,352,156329,6,0,B|353:363|398:287,1,160,0|8
328,264,157010,2,0,B|336:214|384:201,1,80
410,204,157351,2,0,B|458:189|458:142,1,80
448,112,157692,1,8
256,32,158146,6,0,B|159:21|114:97,1,160,0|8
184,120,158828,2,0,B|176:170|128:183,1,80
101,179,159169,2,0,B|54:195|54:242,1,80
64,272,159510,1,8
266,305,159964,5,0
338,292,160191,1,0
338,292,160305,1,0
338,292,160419,1,8
399,256,160646,2,0,B|434:226|428:177,1,80
419,150,160987,2,0,B|408:109|365:91,1,80
334,79,161327,1,0
264,63,161555,1,0
184,72,161782,5,0
158,91,161895,1,0
144,119,162009,1,0
140,151,162123,1,0
146,183,162236,1,0
159,212,162350,1,0
180,236,162464,1,0
207,253,162577,1,0
238,263,162691,1,0
269,259,162804,1,0
300,251,162918,1,0
327,233,163032,1,0
346,208,163145,1,0
362,180,163259,1,0
369,149,163372,1,0
366,117,163486,1,0
355,87,163600,1,4
