osu file format v6

[General]
AudioFilename: Absurd.mp3
AudioLeadIn: 1511
PreviewTime: 59772
Countdown: 0
SampleSet: Normal
StackLeniency: 0.7
Mode: 0
LetterboxInBreaks: 1

[Editor]
Bookmarks: 103862,134999
DistanceSpacing: 0.800000011920929
BeatDivisor: 4
GridSize: 8

[Metadata]
Title:Absurd
Artist:KOTOKO
Creator:Mystearica
Version:Mild
Source:
Tags:J-Pop MegaManEXE

[Difficulty]
HPDrainRate:3
CircleSize:4
OverallDifficulty:4
SliderMultiplier:1.4
SliderTickRate:1

[Events]
//Background and Video events
0,0,"bg2.jpg"
//Break Periods
2,58596,58667
2,91543,102520
2,133125,133195
//Storyboard Layer 0 (Background)
//Storyboard Layer 1 (Fail)
//Storyboard Layer 2 (Pass)
//Storyboard Layer 3 (Foreground)
//Storyboard Sound Samples
//Background Colour Transformations
3,100,0,0,0

[TimingPoints]
4,454.442172233583,4,2,1,100,1,0
7272,454.442172233583,4,1,1,70,1,0
45217,-100,4,1,1,100,0,0
49885,-100,4,1,1,100,0,0
56238,-100,4,1,1,0,0,0
59760,-100,4,1,1,100,0,0
72143,-100,4,1,1,0,0,0
74302,-100,4,1,1,100,0,0
87140,-100,4,1,1,90,0,0
87594,-100,4,1,1,80,0,0
88049,-100,4,1,1,70,0,0
88503,-100,4,1,1,60,0,0
88957,-100,4,1,1,50,0,0
89412,-100,4,1,1,40,0,0
89866,-100,4,1,1,30,0,0
90321,-100,4,1,1,20,0,0
90775,-100,4,1,1,10,0,0
91230,-100,4,1,1,0,0,0
103613,-100,4,1,1,100,0,0
130766,-100,4,1,1,0,0,0
134317,-100,4,1,1,100,0,0
146672,-100,4,1,1,0,0,0
148830,-100,4,1,1,100,0,0
161782,-100,4,1,1,87,0,0
162236,-100,4,1,1,73,0,0
162691,-100,4,1,1,59,0,0
163145,-100,4,1,1,46,0,0
163600,-100,4,1,1,34,0,0
164054,-100,4,1,1,21,0,0
164508,-100,4,1,1,8,0,0
164963,-100,4,1,1,0,0,0

[Colours]
Combo1 : 116,205,181
Combo2 : 70,149,236
Combo3 : 233,107,145
Combo4 : 245,146,71

[HitObjects]
384,261,4,2,0,B|424:192|380:125,2,140,2|0|2
127,261,1821,6,0,B|87:192|131:125,2,140,2|0|2
256,192,3639,5,2
256,56,5230,6,0,B|256:8,2,35,0|0|2
168,128,5911,1,0
256,192,6366,1,2
344,128,6820,1,0
432,56,7272,5,4
344,296,8180,1,0
256,56,9089,1,4
168,296,9998,1,4
80,56,10907,1,4
377,236,12498,6,0,B|412:271,2,35,0|0|4
297,157,13179,1,0
218,236,13634,1,4
139,157,14088,1,0
60,236,14543,5,4
224,344,15451,1,0
384,232,16360,1,0
304,56,17269,1,0
112,64,18178,1,0
256,320,19769,6,0,B|256:360,2,35,0|0|0
160,256,20450,1,0
256,320,20905,1,0
352,256,21359,1,0
256,192,21814,5,4
32,192,22723,1,0
256,192,23631,1,0
480,192,24540,1,0
256,192,25449,1,0
417,93,27040,6,0,B|457:109,2,35,0|0|0
309,63,27721,1,0
201,93,28176,1,0
147,190,28630,1,0
256,192,29085,5,4
360,232,29539,2,0,B|464:272,2,105
256,280,30675,5,0
256,280,30902,1,0
152,232,31357,2,0,B|48:272,2,105
256,192,32720,5,0
152,152,33175,2,0,B|94:125|90:68,2,105
256,120,34311,5,0
256,120,34538,1,0
360,152,34992,2,0,B|417:125|421:68,2,105
256,296,36356,5,0
160,240,36810,2,0,B|128:288|48:272,2,105
56,192,37946,5,0
56,192,38174,1,0
160,144,38628,2,0,B|128:96|48:112,2,105
296,24,39991,5,0
240,120,40446,1,0
296,216,40900,2,0,B|400:264,2,105
256,256,41809,2,0,B|160:304,2,105
296,296,42718,1,0
184,120,43627,5,4
328,120,44081,1,0
328,256,44536,1,0
184,256,44990,1,0
256,32,45672,5,0
256,88,45899,2,0,B|256:232,2,140
361,129,47262,6,0,B|253:316,1,210
256,310,48171,2,0,B|148:123,1,210
151,128,49080,2,0,B|367:128,1,210
360,129,49989,1,0
256,352,50898,5,0
368,288,51352,1,0
256,224,51807,1,0
144,288,52261,1,0
256,160,52943,5,0
256,160,53170,2,0,B|256:16,2,140
229,280,54533,6,0,B|117:336,2,105
285,280,55442,2,0,B|397:336,2,105
256,208,56351,12,0,58396
128,112,59987,5,4
128,112,60441,2,0,B|255:17|391:115,1,280
256,192,61805,5,4
128,272,62259,2,0,B|255:366|391:268,1,280
464,192,63622,5,0
304,40,64531,1,0
232,248,65440,2,0,B|170:248|148:189,2,105
232,248,66349,1,0
456,288,67258,5,4
352,336,67712,2,0,B|248:382|136:336|128:220,1,280
56,96,69076,5,4
160,48,69530,2,0,B|264:2|376:48|384:164,1,280
208,192,70893,6,0,B|157:222|106:191,2,105,4|0|0
256,168,71802,1,0
312,192,72030,1,0
256,208,72257,12,0,73620
56,296,74529,5,4
160,256,74983,2,0,B|236:203|294:259|352:315|434:249,1,280
456,88,76347,5,4
352,128,76801,2,0,B|276:181|218:125|160:69|78:135,1,280
40,232,78164,5,0
256,304,79073,1,0
472,232,79982,2,0,B|472:120,2,105
472,232,80891,1,0
133,124,81800,5,4
133,124,82254,2,0,B|381:260,1,280
378,124,83618,5,4
378,124,84072,2,0,B|130:260,1,280
210,135,85436,6,0,B|226:111|256:100|289:113|300:139,2,105,4|0|0
256,168,86344,2,0,B|256:248,2,70
256,208,87026,12,0,91343
352,96,103840,5,0
352,96,104068,2,0,B|404:117|459:93,2,105
199,48,105204,5,0
160,88,105431,1,0
80,167,105885,2,0,B|160:247,2,105
256,232,107249,5,0
184,320,107703,2,0,B|130:353|79:316,2,105
336,344,108839,5,0
392,328,109067,1,0
375,217,109521,2,0,B|271:255,2,105
256,152,110884,5,0
184,64,111339,2,0,B|72:64,2,105
256,152,112475,5,0
256,152,112702,1,0
328,64,113157,2,0,B|440:64,2,105
456,200,114520,5,0
376,272,114974,1,0
272,304,115429,2,0,B|200:200,2,105
216,288,116338,2,0,B|112:224,2,105
168,312,117247,1,0
194,91,118155,5,4
359,123,118610,1,0
327,288,119064,1,0
162,256,119519,1,0
64,120,120200,5,0
95,74,120428,2,0,B|142:6|222:50,2,140
151,252,121791,6,0,B|253:325|348:250,1,210,0|0
380,208,122700,2,0,B|392:84|280:39,1,210,0|0
228,40,123609,2,0,B|119:83|131:208,1,210,0|0
131,207,124518,1,0
32,312,125426,5,0
176,352,125881,1,0
328,312,126335,1,0
480,352,126790,1,0
408,200,127471,5,0
376,152,127699,2,0,B|304:24,2,140
232,208,129062,6,0,B|182:238|129:205,2,105
280,184,129971,2,0,B|330:154|383:187,2,105
256,208,130880,12,0,132925
256,192,134515,5,4
153,75,134970,2,0,B|292:194|150:311,1,280
256,192,136333,5,4
358,75,136788,2,0,B|219:194|361:311,1,280
352,192,138151,5,0
160,192,139060,1,0
256,360,139969,2,0,B|256:248,2,105
256,360,140877,1,0
448,192,141786,5,4
368,112,142241,2,0,B|246:13|95:91,1,280
64,192,143604,5,4
143,271,144059,2,0,B|265:370|416:292,1,280
256,192,145422,6,0,B|256:80,2,105,4|0|0
256,248,146331,1,0
256,248,146558,1,0
256,208,146785,12,0,148149
48,232,149057,5,4
80,336,149512,2,0,B|192:351|204:276|217:198|319:217,1,280
464,232,150875,5,4
432,336,151330,2,0,B|319:351|307:276|294:198|192:217,1,280
152,32,152693,5,0
360,112,153602,1,0
152,192,154511,2,0,B|80:288,2,105
152,192,155420,1,0
176,320,156329,5,4
176,320,156783,2,0,B|259:192|419:192,1,280
336,64,158146,5,4
336,64,158601,2,0,B|253:192|93:192,1,280
256,160,159964,6,0,B|256:48,2,105,4|0|0
256,216,160873,2,0,B|256:296,2,70
256,208,161555,12,0,165190
