osu file format v5

[General]
AudioFilename: kimi to yume wo shinjite.mp3
AudioLeadIn: 0
PreviewTime: -1
Countdown: 1
SampleSet: Normal
StackLeniency: 0.7
Mode: 0
LetterboxInBreaks: 1

[Metadata]
Title:kimi to yume wo shinjite
Artist:KOTOKO & Utatsuki Kaori
Creator:nomadop
Version:Normal
Source:
Tags:kotoko kaori i-doll

[Difficulty]
HPDrainRate:7
CircleSize:6
OverallDifficulty:6
SliderMultiplier:2
SliderTickRate:4

[Events]
//Background and Video events
//Break Periods
2,36216,40337
2,122624,140488
//Storyboard Layer 0 (Background)
//Storyboard Layer 1 (Failing)
//Storyboard Layer 2 (Passing)
//Storyboard Layer 3 (Foreground)
//Storyboard Sound Samples
//Background Colour Transformations
3,100,163,162,255

[TimingPoints]
96044,631.8449873631,4,1,0,100,1,0

[HitObjects]
96,288,20219,2,0,B|96:160,1,100
96,160,20693,1,0
96,128,20851,1,0
96,64,21167,1,0
160,64,21483,1,0
160,96,21641,1,0
160,128,21799,2,0,B|288:128|288:128|288:160,1,100
256,64,22431,1,0
320,64,22747,2,0,B|288:160|352:192|288:288,1,200
296,328,23695,1,0
296,328,24326,1,0
296,328,24484,1,0
416,96,25906,6,0,B|416:224,1,100
416,224,26380,1,0
416,256,26538,1,0
416,320,26854,1,0
352,320,27170,1,0
352,288,27328,1,0
352,256,27486,2,0,B|224:256,1,100
256,320,28118,1,0
192,320,28434,2,0,B|160:256|224:192|192:96,1,200
192,64,29381,1,0
192,64,30013,1,0
192,64,30171,1,0
96,288,30961,5,0
160,288,31277,1,0
224,288,31593,2,0,B|224:224,4,50
288,288,32857,1,0
352,288,33331,1,0
416,288,33805,1,0
256,192,34752,12,0,36016
96,96,41387,5,0
160,96,41703,1,0
160,160,42019,1,0
96,160,42335,1,0
96,96,42651,1,0
96,96,42809,1,0
416,96,43914,5,0
416,160,44230,1,0
352,160,44546,1,0
352,96,44862,1,0
416,96,45178,1,0
416,96,45336,1,0
96,288,46442,6,0,B|192:288,1,100
256,288,47074,1,0
288,288,47232,1,0
320,288,47390,1,0
384,288,47706,1,0
448,288,48022,2,0,B|480:192|384:160|448:96,1,200
448,96,48969,1,0
448,96,49127,1,0
448,96,49285,1,0
96,288,51497,5,0
160,288,51813,1,0
160,224,52129,1,0
96,224,52445,1,0
96,288,52761,1,0
96,288,52919,1,0
416,288,54024,5,0
416,224,54340,1,0
352,224,54656,1,0
352,288,54972,1,0
416,288,55288,1,0
416,288,55446,1,0
416,288,55762,1,0
416,288,55920,1,0
256,192,56552,12,0,57500
256,192,57816,5,0
256,192,58131,1,0
64,64,59079,5,0
96,64,59237,1,0
128,64,59395,1,0
192,64,59711,2,0,B|320:64,1,100
292,64,60343,1,0
448,320,60659,5,0
416,320,60817,1,0
384,320,60975,1,0
320,320,61291,2,0,B|192:320,1,100
220,320,61765,1,0
384,128,62555,5,0
320,128,62871,1,0
256,128,63186,2,0,B|192:128,3,50
206,128,63976,1,0
206,128,64134,1,0
128,256,64450,5,0
192,256,64766,1,0
256,256,65082,1,0
256,256,65240,1,0
256,256,65398,2,0,B|384:256,1,100
352,256,66346,1,0
352,256,66662,5,0
352,256,66820,2,0,B|448:192|384:96,1,150
358,82,67610,1,0
296,55,67925,1,0
230,55,68241,1,0
167,70,68557,1,0
167,70,68715,1,0
96,160,70137,5,0
96,224,70453,1,0
160,224,70769,1,0
224,224,71085,2,0,B|224:288,1,50
224,320,71717,1,0
224,320,71875,1,0
320,320,72664,5,0
384,320,72980,1,0
448,320,73296,1,0
448,256,73612,2,0,B|448:192,1,50
416,192,74086,2,0,B|352:192,1,50
320,192,74876,5,0
320,128,75192,1,0
320,160,75350,1,0
320,192,75824,5,0
224,192,76298,1,0
128,192,76772,1,0
128,128,77246,1,0
128,64,77719,1,0
128,128,78035,1,0
128,192,78351,1,0
256,192,78509,12,0,80879
416,288,81827,5,0
416,224,82143,1,0
416,160,82458,2,0,B|448:128|352:96,1,100
360,104,83090,1,0
360,104,83248,1,0
96,64,84354,5,0
96,64,84670,2,0,B|32:192|128:288,1,200
99,253,85618,1,0
99,253,85776,1,0
160,288,86882,5,0
160,288,87040,1,0
160,288,87197,2,0,B|288:288,1,100
320,288,87829,1,0
384,288,88145,1,0
416,288,88303,1,0
448,192,89409,5,0
448,128,89725,2,0,B|448:0,1,100
384,32,90357,1,0
384,96,90673,2,0,B|384:224,1,100
384,196,91305,1,0
384,196,91463,1,0
288,192,92884,5,0
288,192,93200,1,0
288,192,93358,2,0,B|224:64|64:128,1,250
64,192,94464,5,0
128,256,94780,1,0
224,288,95096,1,0
320,288,95412,1,0
416,288,95728,2,0,B|416:160,4,100
416,288,97149,1,0
416,160,98255,5,0
416,192,98413,1,0
416,160,98571,1,0
416,160,99519,1,0
416,128,99677,1,0
416,160,99835,1,0
352,160,100151,5,0
288,160,100467,1,0
224,160,100783,1,0
160,160,101098,1,0
128,160,101256,1,0
64,64,102362,6,0,B|128:0|192:128|288:64,1,200
252,80,103310,1,0
252,80,103468,1,0
344,48,104574,5,0
441,73,104890,1,0
486,166,105206,1,0
457,269,105522,1,0
370,304,105837,1,0
340,307,105995,1,0
256,288,107101,6,0,B|192:224|160:320,1,100
160,320,107733,2,0,B|96:352|64:256,1,100
77,288,108365,1,0
77,288,108523,1,0
46,193,109629,5,0
74,104,109945,1,0
146,43,110261,1,0
236,32,110576,1,0
339,53,110892,1,0
424,116,111208,1,0
426,209,111524,1,0
421,241,111682,1,0
421,241,111998,1,0
426,209,112156,1,0
352,64,113104,5,0
352,64,113420,1,0
352,64,113578,1,0
160,64,114368,5,0
224,64,114684,1,0
96,128,115000,1,0
96,192,115316,1,0
96,256,115631,1,0
288,320,116263,1,0
224,320,116579,1,0
224,320,116737,1,0
160,256,117211,6,0,B|256:128|352:256|416:128,1,300
416,126,118475,1,0
416,126,118633,1,0
364,47,119739,5,0
274,37,120055,1,0
184,42,120370,1,0
110,100,120686,1,0
88,187,121002,1,0
124,274,121318,2,0,B|212:342|323:282,1,200
373,234,122266,1,0
357,255,122424,1,0
256,192,141538,12,0,142802
256,192,144066,5,0
96,96,145013,5,0
96,160,145329,2,0,L|224:160,1,100
192,96,145961,1,0
192,160,146277,1,0
192,160,146435,1,0
416,288,147541,5,0
416,224,147857,2,0,L|288:224,1,100
320,288,148489,1,0
320,224,148805,1,0
320,224,148963,1,0
224,64,150068,6,0,L|128:160,4,100
320,128,151648,2,0,L|224:224,2,100
352,96,152596,1,0
320,128,152754,1,0
352,96,152912,1,0
114,70,153228,5,0
48,195,153544,1,0
114,324,153860,1,0
416,96,155123,5,0
416,160,155439,2,0,L|288:160,1,100
320,96,156071,1,0
320,160,156387,1,0
320,160,156545,1,0
96,288,157651,5,0
96,224,157967,2,0,L|224:224,1,100
192,288,158599,1,0
192,224,158915,1,0
192,224,159072,1,0
192,224,159388,1,0
192,224,159546,1,0
256,192,160178,12,0,161758
96,96,162706,6,0,L|224:96,4,100
96,96,164285,1,0
96,192,164917,5,0
96,256,165233,1,0
128,288,165391,1,0
224,320,166181,5,0
288,320,166497,1,0
352,288,166813,1,0
416,256,167129,2,0,L|416:192,1,50
416,64,168077,6,0,L|288:64,4,100
416,128,169972,5,0
352,160,170288,1,0
352,160,170446,1,0
256,160,170920,5,0
160,160,171236,1,0
64,128,171552,1,0
64,32,171868,1,0
64,128,172184,1,0
64,128,172342,1,0
96,288,172816,5,0
192,320,173132,1,0
320,320,173763,6,0,L|320:224|352:224,1,100
384,224,174395,2,0,L|448:224|448:96,1,150
448,64,175343,1,0
448,96,175501,1,0
439,206,176291,5,0
379,284,176607,1,0
282,321,176923,1,0
187,324,177239,1,0
159,323,177397,1,0
159,323,177713,1,0
187,324,177871,1,0
72,107,178502,5,0
146,55,178856,1,0
147,55,179013,1,0
288,32,179450,6,0,L|480:32,1,150
438,32,180240,2,0,L|288:32,1,150
224,32,181346,1,0
128,64,181662,1,0
64,128,181978,1,0
256,192,182136,12,0,183557
256,192,184189,5,0
256,192,184347,1,0
256,192,184505,1,0
96,96,185453,5,0
64,160,185769,2,0,L|32:224|64:256,1,100
96,288,186401,1,0
160,320,186717,1,0
160,320,186875,1,0
288,320,187981,5,0
352,256,188296,2,0,L|384:192|384:128,1,100
352,96,188928,1,0
288,32,189244,1,0
288,32,189402,1,0
64,96,190508,5,0
64,192,190824,1,0
128,192,191140,1,0
128,96,191456,1,0
192,96,191772,1,0
192,192,191930,1,0
256,192,193035,12,0,194299
256,192,194536,5,0
256,192,194852,1,0
256,192,195010,1,0
416,288,196432,5,0
416,160,196748,1,0
448,192,196906,1,0
480,96,198011,5,0
416,42,198327,1,0
320,37,198643,1,0
232,35,198959,1,0
137,50,199275,1,0
68,122,199591,2,0,L|52:236|52:236|64:235,3,100
54,221,200697,1,0
192,288,201803,5,0
256,320,201961,1,0
320,288,202119,1,0
320,288,203066,1,0
256,320,203224,1,0
192,288,203382,1,0
192,224,204014,5,0
256,160,204330,1,0
352,128,204646,1,0
352,128,204804,1,0
128,64,205910,5,0
128,64,206226,1,0
128,64,206542,2,0,C|64:160|64:256|128:320,1,300
242,326,208038,5,0
339,300,208399,1,0
424,241,208713,1,0
475,149,209027,1,0
467,59,209341,1,0
443,36,209499,1,0
422,318,210570,5,0
422,318,210886,1,0
422,318,211202,2,0,C|487:206|459:95|384:48,1,300
72,174,213251,5,0
79,267,213567,1,0
153,338,213883,1,0
257,356,214199,1,0
352,324,214514,1,0
429,261,214830,1,0
465,171,215146,1,0
466,141,215304,1,0
466,141,215620,1,0
465,174,215778,1,0
171,55,216726,5,0
114,95,217042,1,0
171,55,217200,1,0
287,40,218306,5,0
366,79,218621,1,0
398,156,218937,1,0
350,249,219253,1,0
267,277,219569,1,0
179,257,219885,1,0
131,192,220201,1,0
128,162,220359,1,0
156,82,220833,5,0
128,162,221149,1,0
159,249,221465,1,0
237,303,221781,1,0
342,279,222097,1,0
371,257,222255,1,0
380,145,223360,6,0,C|286:89|287:88|287:88|287:95,1,100
250,150,223992,2,0,C|356:212,1,100
336,200,224466,1,0
392,123,224940,6,0,C|315:62|230:160|140:94,1,300
256,192,226204,12,0,227467
