osu file format v9

[General]
AudioFilename: KOTOKO and Utatsuki Kaori - Double HarmoniZe Shock!!.mp3
AudioLeadIn: 2000
PreviewTime: 75131
Countdown: 0
SampleSet: Normal
StackLeniency: 0.7
Mode: 0
LetterboxInBreaks: 0
EpilepsyWarning: 1

[Editor]
DistanceSpacing: 1
BeatDivisor: 4
GridSize: 8

[Metadata]
Title:Double HarmoniZe Shock!!
Artist:KOTOKO & Utatsuki Kaori
Creator:DarknessAngel
Version:PalBoss
Source:
Tags:SHORT CIRCUIT II Natteke bossandy palmolive Collab

[Difficulty]
HPDrainRate:3
CircleSize:3
OverallDifficulty:3
ApproachRate:4
SliderMultiplier:1
SliderTickRate:1

[Events]
//Background and Video events
0,0,"55165928.jpg"
//Break Periods
2,665,8478
2,112664,123811
//Storyboard Layer 0 (Background)
//Storyboard Layer 1 (Fail)
//Storyboard Layer 2 (Pass)
//Storyboard Layer 3 (Foreground)
Sprite,Foreground,Centre,"SB\BG effect.jpg",320,240 F,0,298,465,0,1 F,0,465,1131,1,0 S,0,465,1131,0.8,0.912 F,0,1131,10964,0 S,0,1131,11131,0.912,0.8 F,0,10964,11131,0,1 F,0,11131,11798,1,0 S,0,11131,11798,0.8,0.912 F,0,11798,21631,0 S,0,11798,21798,0.912,0.801895 F,0,21631,21798,0,1 F,0,21798,22464,1,0 S,0,21798,22464,0.801895,0.913895 F,0,22464,32298,0 S,0,22464,32464,0.913895,0.8018948 F,0,32298,32464,0,1 F,0,32464,33131,1,0 S,0,32464,33131,0.8018948,0.9218948 S,0,33131,,0.9218948 F,0,33131,53631,0 S,0,33131,53798,0.9218948,0.8021446 F,0,53631,53798,0,1 F,0,53798,54464,1,0 S,0,53798,54464,0.8021446,0.913895 F,0,54464,64298,0 S,0,54464,64464,0.913895,0.8003848 F,0,64298,64464,0,1 F,0,64464,65131,1,0 S,0,64464,65131,0.8003848,0.9203848 F,0,65131,74964,0 S,0,65131,75131,0.9203848,0.8067659 F,0,74964,75131,0,1 F,0,75131,75798,1,0 S,0,75131,75798,0.8067659,0.9107656 F,0,75798,85631,0 S,0,75798,85798,0.9107656,0.7982978 F,0,85631,85798,0,1 F,0,85798,86464,1,0 S,0,85798,86464,0.7982978,0.9102979 F,0,86464,104298,0 S,0,86464,104464,0.9102979,0.8054572 F,0,104298,104464,0,1 F,0,104464,105131,1,0 S,0,104464,105131,0.8054572,0.925457 F,0,105131,114964,0 S,0,105131,115131,0.925457,0.8078558 F,0,114964,115131,0,1 F,0,115131,115798,1,0 S,0,115131,115798,0.8078558,0.9118558 F,0,115798,125631,0 S,0,115798,125798,0.9118558,0.8073881 F,0,125631,125798,0,1 F,0,125798,126464,1,0 S,0,125798,126464,0.8073881,0.9113882 F,0,126464,146964,0 S,0,126464,147131,0.9113882,0.8066073 F,0,146964,147131,0,1 F,0,147131,147798,1,0 S,0,147131,147798,0.8066073,0.9106074 F,0,147798,157631,0 S,0,147798,157798,0.9106074,0.8066075 F,0,157631,157798,0,1 F,0,157798,158464,1,0 S,0,157798,158464,0.8066075,0.9186076 F,0,158464,168298,0 S,0,158464,168464,0.9186076,0.7986076 F,0,168298,168464,0,1 F,0,168464,169131,1,0 S,0,168464,169131,0.7986076,0.9106077 F,0,169131,178964,0 S,0,169131,179131,0.9106077,0.7986077 F,0,178964,179131,0,1 F,0,179131,179798,1,0 S,0,179131,179798,0.7986077,0.9106077 F,0,179798,197631,0 S,0,179798,197833,0.9106077,0.7986077 F,0,197631,197833,0,0.7720001 F,0,197833,198499,0.7720001,0 S,0,197833,198499,0.7986077,0.9186076 F,0,198499,218999,0 S,0,198499,219166,0.9186076,0.7986075 F,0,218999,219166,0,0.8799999 F,0,219166,219832,0.8799999,0 S,0,219166,219832,0.7986075,0.9186075
Sprite,Foreground,Centre,"Extra\palmolive.png",320,240 M,0,11131,,172,77 S,0,11131,,0.6319995 F,0,11131,11464,0,1 R,0,11131,11464,0,6.288001 R,0,11464,31964,6.288001 F,0,11464,32131,1 R,0,31964,32464,6.288001,0.09600124 F,0,32131,32464,1,0
Sprite,Foreground,Centre,"Extra\title.png",320,240 M,0,1798,,320,195 S,0,1798,,0.6160001 F,0,1798,2131,0,1 F,0,2131,8131,1 F,0,8131,8798,1,0
Sprite,Foreground,Centre,"SB\White Effect.png",320,240 M,0,1798,,320,226 F,0,1798,1964,0,0.5309671 S,0,1798,2131,0.288,0.8640001 F,0,1964,2131,0.5309671,0
Sprite,Foreground,Centre,"Extra\singer.png",320,240 M,0,4464,,320,387 S,0,4464,,0.7760004 F,0,4464,4798,0,1 F,0,4798,8131,1 F,0,8131,8464,1,0
Sprite,Foreground,Centre,"SB\Font effect.png",320,240 M,0,4464,,315,388 F,0,4464,4631,0,0.712 S,0,4464,4798,0.1,1.24 F,0,4631,4798,0.712,0 S,0,4798,4964,1.24,1.384
Sprite,Foreground,Centre,"SB\001.png",320,240 S,0,1798,,0.9440001 F,0,1798,2131,0,1 M,0,1798,8464,648,212,273,215 F,0,2131,8131,1 F,0,8131,8464,1,0
Sprite,Foreground,Centre,"SB\001.png",320,240 S,0,4464,,0.5119998 F,0,4464,4798,0.07600006,1 M,0,4464,8464,205,382,388,387 F,0,4798,8131,1 F,0,8131,8464,1,0
Sprite,Foreground,Centre,"SB\White Effect.png",320,240 M,0,9798,,526,125 F,0,9798,9881,0,1 S,0,9798,9964,0.1,0.5247088 F,0,9881,10131,1,0
Sprite,Foreground,Centre,"SB\White Effect.png",320,240 M,0,10131,,460,350 F,0,10131,10214,0,1 S,0,10131,10298,0.2640002,0.6080005 F,0,10214,10464,1,0
Sprite,Foreground,Centre,"SB\White Effect.png",320,240 M,0,10464,,150,208 F,0,10464,10548,0,1 S,0,10464,10631,0.2479999,0.5520001 F,0,10548,10798,1,0
Sprite,Foreground,Centre,"SB\White Effect.png",320,240 M,0,10631,,376,120 F,0,10631,10714,0,1 S,0,10631,10964,0.2239999,0.5439999 F,0,10714,10964,1,0
Sprite,Foreground,Centre,"SB\White Effect.png",320,240 M,0,10798,,315,389 F,0,10798,10881,0.01199982,1 S,0,10798,10964,0.232,0.712 F,0,10881,11131,1,0
Sprite,Foreground,Centre,"SB\White Effect.png",320,240 M,0,10964,,514,249 F,0,10964,11048,0,1 S,0,10964,11131,0.208,0.5999997 F,0,11048,11298,1,0
Sprite,Foreground,Centre,"SB\Kira Kira.png",320,240 F,0,11131,11214,0,1 S,0,11131,11214,0.208,1.12 F,0,11214,11464,1 S,0,11214,11798,1.12,1.424 F,0,11464,11798,1,0
Sprite,Foreground,Centre,"SB\004.png",320,240 S,0,11464,,1.608 F,0,11464,11798,0,1 M,0,11464,21798,691,247,18,230 F,0,11798,21464,1 F,0,21464,21798,1,0 M,0,21798,,18,230
Sprite,Foreground,Centre,"SB\White Effect.png",320,240 M,0,20964,,260,368 F,0,20964,21048,0,1 S,0,20964,21131,0.1760001,0.6079999 F,0,21048,21298,1,0
Sprite,Foreground,Centre,"SB\White Effect.png",320,240 M,0,20798,,157,141 F,0,20798,20881,0,1 S,0,20798,20964,0.2720003,0.5600003 F,0,20881,21131,1,0
Sprite,Foreground,Centre,"SB\White Effect.png",320,240 M,0,21131,,522,118 F,0,21131,21214,0,1 S,0,21131,21298,0.1679999,0.6320001 F,0,21214,21464,1,0
Sprite,Foreground,Centre,"SB\White Effect.png",320,240 M,0,21298,,482,374 F,0,21298,21381,0,1 S,0,21298,21464,0.2479999,0.6639996 F,0,21381,21631,1,0
Sprite,Foreground,Centre,"SB\White Effect.png",320,240 M,0,21464,,332,152 F,0,21464,21548,0,1 S,0,21464,21631,0.2640001,0.5519999 F,0,21548,21798,1,0
Sprite,Foreground,Centre,"SB\White Effect.png",320,240 M,0,21631,,144,376 F,0,21631,21714,0,1 S,0,21631,21798,0.248,0.6960002 F,0,21714,21964,1,0
Sprite,Foreground,Centre,"SB\Kira Kira.png",320,240 F,0,21798,21881,0,1 S,0,21798,21881,0.1,1.188 F,0,21881,22464,1,0 S,0,21881,22464,1.188,1.356
Sprite,Foreground,Centre,"SB\001.png",320,240 S,0,22131,,1.72 F,0,22131,22464,0,1 M,0,22131,31131,-76,244,728,236 F,0,22464,30798,1 F,0,30798,31131,1,0
Sprite,Foreground,Centre,"SB\Black.png",320,240 M,0,31131,,320,240 S,0,31131,,1.608 F,0,31131,32131,0,0.62 F,0,32131,32464,0.62,0 F,0,32464,124464,0 F,0,124464,125464,0,0.6080001 F,0,125464,125798,0.6080001,0
Sprite,Foreground,Centre,"SB\spotlight.png",320,240 M,0,32464,,117,296 F,0,32464,,0 F,0,32464,32631,0,1 S,0,32464,73214,5 F,0,32631,36964,1 F,0,36964,37298,1,0 F,0,37298,,0 F,0,37298,,0 F,0,37298,,0 F,0,37298,,0 F,0,37298,,0 F,0,37298,42131,0 F,0,42131,42464,0,1 F,0,42464,43631,1 F,0,43631,,1 F,0,43631,43964,1,0 F,0,43964,44798,0 F,0,44798,45131,0,1 F,0,45131,47631,1 F,0,47631,47964,1,0 F,0,47964,69464,0 F,0,69464,69798,0,1 F,0,69798,74131,1 F,0,74131,74464,1,0 F,0,74464,,0 F,0,74464,99131,0 F,0,99131,99464,0,1 F,0,99464,101798,1 F,0,101798,102131,1,0 F,0,102131,130131,0 F,0,130131,,0 F,0,130131,130464,0,1 F,0,130464,135631,1 F,0,135631,135964,1,0 F,0,135964,136798,0 F,0,136798,137131,0,1 F,0,137131,138298,1 F,0,138298,138631,1,0 F,0,138631,140798,0 F,0,140798,141131,0,1 F,0,141131,143964,1 F,0,143964,144298,1,0 F,0,144298,157631,0 F,0,157631,157964,0,1 F,0,157964,162964,1 F,0,162964,163298,1,0 F,0,163298,192464,0 F,0,192464,192798,0,1 F,0,192798,195298,1 F,0,195298,195631,1,0
Sprite,Foreground,Centre,"SB\spotlight.png",320,240 F,0,36798,37131,0,1 F,0,36798,37131,0,1 M,0,36798,37464,462,241,425,249 S,0,36798,37464,5,4.352 F,0,37131,,1 F,0,37131,,1 F,0,37131,,1 F,0,37131,37464,1 M,0,37464,,425,249 F,0,37464,,1 F,0,37464,,1 F,0,37464,42298,1 F,0,42298,42631,1,0 F,0,42631,43464,0 F,0,43464,43798,0,1 F,0,43798,44964,1 F,0,44964,45298,1,0 F,0,45298,,0 F,0,45298,47464,0 F,0,47464,47798,0,1 F,0,47798,50631,1 F,0,50631,,1 F,0,50631,50964,1,0 F,0,50964,,0 F,0,50964,,0 F,0,50964,64298,0,0.08 F,0,64298,64631,0.08,1 F,0,64631,69631,1 F,0,69631,69964,1,0 F,0,69964,96631,0 F,0,96631,96964,0,1 F,0,96964,99298,1 F,0,99298,99631,1,0 F,0,99631,125464,0 F,0,125464,125798,0,1 F,0,125798,130298,1 F,0,130298,130631,1,0 F,0,130631,135464,0 F,0,135464,135798,0,1 F,0,135798,136964,1 F,0,136964,137298,1,0 F,0,137298,138131,0 F,0,138131,138464,0,1 F,0,138464,140964,1 F,0,140964,141298,1,0 F,0,141298,162798,0 F,0,162798,163131,0,1 F,0,163131,167131,1 F,0,167131,167464,1,0 F,0,167464,189964,0 F,0,189964,190298,0,1 F,0,190298,192631,1 F,0,192631,192964,1,0
Sprite,Foreground,Centre,"SB\Black Ring.png",320,240 F,0,50464,50798,0,1 S,0,50631,,0.8000001 F,0,50798,53631,1 F,0,53631,54131,1,0 F,0,54131,,0 F,0,54131,83464,0 F,0,83464,83798,0,1 F,0,83798,85464,1 F,0,85464,,1 F,0,85464,85798,1,0 F,0,85798,89055,0,0.008982062
Sprite,Foreground,Centre,"SB\001.png",320,240 S,0,53798,,0.864 F,0,53798,54131,0,1 M,0,53798,64464,521,354,218,361 F,0,54131,64131,1 F,0,64131,64464,1,0
Sprite,Foreground,Centre,"SB\White Effect.png",320,240 M,0,74464,,128,117 F,0,74464,74548,0,1 S,0,74464,74631,0.224,0.6479999 F,0,74548,74798,1,0
Sprite,Foreground,Centre,"SB\White Effect.png",320,240 M,0,74631,,462,371 F,0,74631,74714,0.01600006,1 S,0,74631,74798,0.2479999,0.6159998 F,0,74714,74964,1,0
Sprite,Foreground,Centre,"SB\White Effect.png",320,240 M,0,74798,,184,357 F,0,74798,74881,0.2760001,1 S,0,74798,74964,0.3199998,0.5759999 F,0,74881,75131,1,0.04799972
Sprite,Foreground,Centre,"SB\White Effect.png",320,240 M,0,74964,,468,101 F,0,74964,75048,0,0.88 S,0,74964,75131,0.248,0.5680001 F,0,75048,75298,0.88,0
Sprite,Foreground,Centre,"SB\Black Ring.png",320,240 F,0,93798,94131,0,1 F,0,94131,96131,1 F,0,96131,96464,1,0 F,0,96464,143798,0 F,0,143798,144131,0,1 S,0,144131,,0.7999998 F,0,144131,147131,1 F,0,147131,147464,1,0 F,0,147464,176798,0 F,0,176798,177131,0,1 F,0,177131,178798,1 F,0,178798,179131,1,0 F,0,179131,187131,0 F,0,187131,187464,0,1 F,0,187464,189464,1 F,0,189464,189798,1,0
Sprite,Foreground,Centre,"SB\spotlight.png",320,240 F,0,74964,75298,0,0.824 S,0,74964,75298,1.288,2.136 M,0,74964,77964,409,108 F,0,75298,83631,0.824,0.827411 M,0,77964,78131,409,108,131,263 M,0,78131,80631,131,263,132,263 M,0,80631,80798,132,263,412,119 M,0,80798,85798,412,119,422,117 F,0,83631,83964,0.827411,0 F,0,83964,85964,0 M,0,85798,85964,422,117,121,277 F,0,85964,86298,0,0.8361725 M,0,85964,88631,121,277,120,276 F,0,86298,93964,0.8361725,0.784 M,0,88631,88798,120,276,416,112 M,0,88798,91298,416,112,417,105 M,0,91298,91464,417,105,131,279 M,0,91464,168631,131,279,425,102 F,0,93964,94298,0.784,0 F,0,94298,168631,0 F,0,168631,168964,0,0.808 M,0,168631,171298,425,102,424,100 F,0,168964,176964,0.808,0.8140754 M,0,171298,171464,424,100,139,279 M,0,171464,173964,139,279,136,276 M,0,173964,174131,136,276,411,116 M,0,174131,,411,116 M,0,174131,178964,411,116,405,102 F,0,176964,177298,0.8140754,0 F,0,177298,,0 F,0,177298,179298,0 M,0,178964,179131,405,102,136,271 M,0,179131,181964,136,271,135,270 F,0,179298,179631,0,0.808 F,0,179631,187298,0.808,0.8240001 M,0,181964,182131,135,270,411,115 M,0,182131,184631,411,115,409,115 M,0,184631,184798,409,115,139,280 F,0,187298,187631,0.8240001,0
Sprite,Foreground,Centre,"Extra\palmolive.png",320,240 S,0,74964,,0.7039999 F,0,74964,75298,0.08400009,1 R,0,74964,75298,6.32,12.592 M,0,74964,99399,151,423 F,0,75298,112298,1 F,0,112298,112631,1,0
Sprite,Foreground,Centre,"Extra\bossandy.png",320,240 M,0,168298,,159,164 S,0,168298,168464,0.5599998,0.9039998 F,0,168298,168631,0,1 S,0,168464,168631,0.9039998,0.5439998 F,0,168631,218999,1 F,0,218999,219332,1,0
Sprite,Foreground,Centre,"SB\Light2.png",320,240 M,0,75298,,317,336 S,0,75298,,1.384 F,0,75298,75548,0,1 R,0,75298,96464,-12.464,-18.752 F,0,75548,75798,1 F,0,75798,79172,1,0.9680001 F,0,75798,96131,1 F,0,75798,96131,1 F,0,96131,96464,1,0 F,0,96464,104631,0 R,0,96464,168631,-18.752,-18.768 F,0,104631,168631,0 F,0,168631,168964,0,1 R,0,168631,189798,-18.768,-25.792 F,0,168964,189464,1 F,0,168964,189464,1 F,0,189464,189798,1,0
Sprite,Foreground,Centre,"SB\004.png",320,240 F,0,96631,96964,0,1 M,0,96631,103298,459,249,157,245 F,0,96964,102964,1 F,0,102964,103298,1,0
Sprite,Foreground,Centre,"SB\001.png",320,240 F,0,104631,104964,0,1 M,0,104631,112464,184,244,477,232 F,0,104964,112131,1 F,0,112131,112464,1,0
Sprite,Foreground,Centre,"Extra\DarknessAngel.png",320,240 F,0,114964,115298,0,1 F,0,115298,124131,1 F,0,124131,124464,1,0
Sprite,Foreground,Centre,"SB\Font effect.png",320,240 F,0,115131,115214,0,1 S,0,115131,115214,0.6640001,1.256 F,0,115214,115464,1,0 S,0,115214,115464,1.256,1.608
Sprite,Foreground,Centre,"Lrc\0v.png",320,240 M,0,101964,102214,307,508,315,250 F,0,101964,102214,0.03600034,1 F,0,102214,,1 R,0,102214,102464,-0.01600037,-6.272 F,0,102214,106964,1 S,0,102464,102631,0.9760002,1.368 S,0,102631,102798,1.368,1.048 S,0,102798,103298,1.048,1.04 S,0,103298,103464,1.04,1.392 S,0,103464,103631,1.392,1.016 S,0,103631,104464,1.016,1.024 S,0,104464,107298,1.024,1.392 F,0,106964,107298,1,0
Sprite,Foreground,Centre,"SB\Kira Kira.png",320,240 M,0,85798,,318,249 F,0,85798,85881,0,1 S,0,85798,85881,0.208,1.064 F,0,85881,86298,1 S,0,85881,86464,1.064,1.384 F,0,86298,86464,1,0
Sprite,Foreground,Centre,"SB\wakka.png",320,240 M,0,102131,,320,251 F,0,102131,102214,0,1 S,0,102131,102214,0.3360001,1.592 F,0,102214,102631,1 S,0,102214,102798,1.592,1.704 F,0,102631,102798,1,0
Sprite,Foreground,Centre,"SB\White Effect.png",320,240 F,0,102798,102881,0,1 S,0,102798,103131,0.5039999,2.784 F,0,102881,103131,1,0
Sprite,Foreground,Centre,"SB\White Effect.png",320,240 F,0,103381,103464,0,1 S,0,103381,103548,0.3520005,2.248 F,0,103464,103714,1,0
Sprite,Foreground,Centre,"SB\001.png",320,240 S,0,114964,,0.72 F,0,114964,115298,0,1 M,0,114964,124464,459,235,174,235 F,0,115298,124131,1 F,0,124131,124464,1,0
Sprite,Foreground,Centre,"Lrc\0a.png",320,240 S,0,31798,,0.8080002 F,0,31798,32131,0,1 M,0,31798,37131,255,137,326,133 F,0,32131,36798,1,0.8906 F,0,36798,37131,0.8906,0
Sprite,Foreground,Centre,"Lrc\0b.png",320,240 S,0,36798,,0.7839999 F,0,36798,37131,0,1 M,0,36798,42464,420,372,312,379 F,0,37131,42131,1 F,0,42131,42464,1,0
Sprite,Foreground,Centre,"Lrc\0c.png",320,240 F,0,42131,42464,0,1 M,0,42131,45131,112,69,199,77 F,0,42464,44798,1 F,0,44798,45131,1,0
Sprite,Foreground,Centre,"Lrc\0d.png",320,240 F,0,43464,43798,0,1 M,0,43464,47798,386,155,276,155 F,0,43798,47464,1,0.992 F,0,47464,47798,0.992,0
Sprite,Foreground,Centre,"Lrc\0e.png",320,240 F,0,45131,45464,0,1 M,0,45131,47798,152,403,230,401 F,0,45464,47464,1 F,0,47464,47798,1,0
Sprite,Foreground,Centre,"Lrc\0f.png",320,240 F,0,47631,47964,0,1 M,0,47631,50798,478,272,408,266 F,0,47964,50464,1 F,0,50464,50798,1,0
Sprite,Foreground,Centre,"Lrc\0g.png",320,240 S,0,50631,,1.352 F,0,50631,50964,0,1 M,0,50631,54131,311,173,322,249 F,0,50964,,1 F,0,50964,53964,1 R,0,53798,54798,-0.01600006,-8.16 F,0,53964,54798,1,0
Sprite,Foreground,Centre,"Lrc\0h.png",320,240 R,0,57798,,0 F,0,57798,58131,0,1 S,0,57798,61964,1.016,1.288 F,0,58131,61631,1 F,0,61631,61964,1,0
Sprite,Foreground,Centre,"Lrc\0i.png",320,240 S,0,64298,,0.816 F,0,64298,64631,0,1 M,0,64298,69964,454,248,356,249 F,0,64631,69631,1 F,0,69631,69964,1,0
Sprite,Foreground,Centre,"Lrc\0j.png",320,240 S,0,69798,,0.808 F,0,69798,70131,0,1 M,0,69798,74631,170,126,235,134 F,0,70131,74298,1 F,0,74298,74631,1,0
Sprite,Foreground,Centre,"Lrc\0k.png",320,240 M,0,74631,,312,250 F,0,74631,74964,0,1 S,0,74631,74964,1.168,1.368 F,0,74964,,1 F,0,74964,,1 F,0,74964,75298,1 S,0,74964,75464,1.368,2.848 F,0,75298,75464,1,0
Sprite,Foreground,Centre,"Lrc\0l.png",320,240 S,0,75298,,1 F,0,75381,75548,0,1 M,0,75381,75631,840,68,393,71 F,0,75548,77964,1 M,0,75631,78298,393,71,331,70 F,0,77964,78298,1,0
Sprite,Foreground,Centre,"Lrc\0m.png",320,240 M,0,77964,78214,-143,205,344,212 F,0,77964,78214,0,1 F,0,78214,80631,1 M,0,78214,80964,344,212,442,224 F,0,80631,80964,1,0
Sprite,Foreground,Centre,"SB\OP effect.png",320,240 M,0,83048,,256,356 F,0,83048,83131,0,1 S,0,83048,83131,0.4880004,2.006219 F,0,83131,83798,1,0 S,0,83131,83798,2.006219,2.384
Sprite,Foreground,Centre,"Lrc\0n.png",320,240 M,0,80631,80881,872,361,310,354 F,0,80631,80881,0,1 F,0,80881,83631,1 M,0,80881,83964,310,354,225,356 F,0,83631,83964,1,0
Sprite,Foreground,Centre,"SB\Font effect.png",320,240 M,0,83048,,250,356 F,0,83048,83214,0,1 S,0,83048,83214,0.76,1.784 F,0,83214,83464,1,0
Sprite,Foreground,Centre,"Lrc\0o.png",320,240 M,0,83631,83881,-193,247,315,248 F,0,83631,83881,0,1 M,0,83881,85798,315,248,366,246 F,0,83881,85964,1 M,0,85798,85964,366,246,842,255 F,0,85964,86298,1,0
Sprite,Foreground,Centre,"Lrc\0p.png",320,240 M,0,85964,86214,821,96,367,90 F,0,85964,86298,0,1 M,0,86214,88964,367,90,271,94 F,0,86298,88631,1 F,0,88631,88964,1,0
Sprite,Foreground,Centre,"Lrc\0q.png",320,240 M,0,88631,88881,-209,212,356,206 F,0,88631,88964,0,1 M,0,88881,91631,356,206,432,197 F,0,88964,91298,1 F,0,91298,91631,1,0
Sprite,Foreground,Centre,"Lrc\0r.png",320,240 M,0,91298,91548,873,338,333,336 F,0,91298,91631,0,1 M,0,91548,94298,333,336,229,340 F,0,91631,93964,1 F,0,93964,94298,1,0
Sprite,Foreground,Centre,"SB\OP effect.png",320,240 M,0,93548,,264,332 F,0,93548,93631,0.08399994,1 S,0,93548,93631,0.3040003,1.84 F,0,93631,94464,1,0 S,0,93631,94464,1.84,2.344
Sprite,Foreground,Centre,"SB\Font effect.png",320,240 M,0,93548,,263,337 F,0,93548,93631,0,1 S,0,93548,93631,1,1.896 F,0,93631,93964,1,0 S,0,93631,93964,1.896,2.424
Sprite,Foreground,Centre,"Lrc\0s.png",320,240 S,0,93964,,1 M,0,93964,94214,-184,125,304,117 F,0,93964,94298,0,0.936 M,0,94214,96298,304,117,380,114 F,0,94298,96464,0.936,1 M,0,96298,96548,380,114,819,107 F,0,96464,96798,1,0
Sprite,Foreground,Centre,"Lrc\0t.png",320,240 F,0,96631,96964,0,1 M,0,96631,99631,434,354,374,348 F,0,96964,99298,1 F,0,99298,99631,1,0
Sprite,Foreground,Centre,"Lrc\0u.png",320,240 F,0,99298,99631,0,1 M,0,99298,102298,146,191,218,189 F,0,99631,101964,1 F,0,101964,102298,1,0
Sprite,Foreground,Centre,"SB\OP effect.png",320,240 M,0,103714,,332,252 F,0,103714,103798,0,1 S,0,103714,103798,0.4799998,1.776 F,0,103798,104464,1,0 S,0,103798,104464,1.776,2.112
Sprite,Foreground,Centre,"SB\Font effect.png",320,240 M,0,104381,,312,253 F,0,104381,104464,0,1 S,0,104381,104464,1,1.472 F,0,104464,104881,1,0 S,0,104464,104881,1.472,2.12
Sprite,Foreground,Centre,"Lrc\0w.png",320,240 M,0,108631,,318,249 F,0,108631,108964,0,1 S,0,108631,112631,0.9439998,1.752 F,0,108964,112298,1 F,0,112298,112631,1,0
Sprite,Foreground,Centre,"SB\Kira Kira.png",320,240 M,0,102798,,319,253 F,0,102798,102881,0,1 S,0,102798,102881,0.1759999,1.184 F,0,102881,103464,1,0 S,0,102881,103464,1.184,1.4
Sprite,Foreground,Centre,"SB\OP effect.png",320,240 M,0,9798,,254,311 F,0,9798,9881,0,1 S,0,9798,9881,0.32,1.28 F,0,9881,10131,1,0 S,0,9881,10131,1.28,1.496
Sprite,Foreground,Centre,"SB\OP effect.png",320,240 M,0,10131,,468,247 F,0,10131,10214,0,1 S,0,10131,10214,0.352,1.328 F,0,10214,10464,1,0 S,0,10214,10464,1.328,1.744
Sprite,Foreground,Centre,"SB\wakka.png",320,240 M,0,10798,,319,250 F,0,10798,10881,0,1 S,0,10798,10881,0.2960002,0.656 F,0,10881,11131,1,0 S,0,10881,11131,0.656,0.968
Sprite,Foreground,Centre,"SB\OP effect.png",320,240 M,0,10464,,220,143 F,0,10464,10548,0,1 S,0,10464,10548,0.4640001,1.248 F,0,10548,10798,1,0 S,0,10548,10798,1.248,1.84
Sprite,Foreground,Centre,"SB\004.png",320,240 M,0,64381,,474,244 F,0,64381,64464,0,1 S,0,64381,64464,0.16,0.7119998 F,0,64464,65048,1,0 S,0,64464,65048,0.7119998,0.8239998
Sprite,Foreground,Centre,"SB\OP effect.png",320,240 M,0,74464,,237,341 F,0,74464,74548,0,1 S,0,74464,74548,0.3280002,1.12 F,0,74548,74798,1,0 S,0,74548,74798,1.12,1.68
Sprite,Foreground,Centre,"SB\OP effect.png",320,240 M,0,74798,,496,124 F,0,74798,74881,0,0.948 S,0,74798,74881,0.392,1.176 F,0,74881,75131,0.948,0 S,0,74881,75131,1.176,1.664
Sprite,Foreground,Centre,"SB\OP effect.png",320,240 M,0,85798,,317,250 F,0,85798,85881,0,1 S,0,85798,85881,0.448,2.64 F,0,85881,86464,1,0 S,0,85881,86464,2.64,3.8
Sprite,Foreground,Centre,"SB\002.png",320,240 M,0,83048,,276,356 F,0,83048,83131,0,1 S,0,83048,83131,0.1919998,0.6479996 F,0,83131,83714,1,0 S,0,83131,83714,0.6479996,0.9039996
Sprite,Foreground,Centre,"SB\004.png",320,240 M,0,32381,,280,136 F,0,32381,32464,0,1 S,0,32381,32464,0.1999999,0.376 F,0,32464,33048,1,0 S,0,32464,33048,0.376,0.5439999
Sprite,Foreground,Centre,"SB\002.png",320,240 M,0,93548,,260,336 F,0,93548,93631,0,1 S,0,93548,93631,0.2559999,0.7199998 F,0,93631,94214,1,0 S,0,93631,94214,0.7199998,0.912
Sprite,Foreground,Centre,"SB\Kira Kira.png",320,240 F,0,465,631,0,1 S,0,465,631,0.1679999,0.9542342 F,0,631,1131,1,0 S,0,631,1131,0.9542342,1.464
Sprite,Foreground,Centre,"SB\OP effect.png",320,240 M,0,20798,,487,162 F,0,20798,20881,0,1 S,0,20798,20881,0.5039998,1.32 F,0,20881,21131,1,0 S,0,20881,21131,1.32,1.584
Sprite,Foreground,Centre,"SB\OP effect.png",320,240 M,0,21131,,476,342 F,0,21131,21214,0,1 S,0,21131,21214,0.5039999,1.224 F,0,21214,21464,1,0 S,0,21214,21464,1.224,1.592
Sprite,Foreground,Centre,"SB\OP effect.png",320,240 M,0,21464,,194,253 F,0,21464,21548,0,1 S,0,21464,21548,0.44,1.232 F,0,21548,21798,1,0 S,0,21548,21798,1.232,1.52
Sprite,Foreground,Centre,"SB\wakka.png",320,240 M,0,21631,,319,252 F,0,21631,21714,0.05599991,1 S,0,21631,21714,0.2959999,1.072 F,0,21714,21964,1,0 S,0,21714,21964,1.072,1.256
Sprite,Foreground,Centre,"SB\White Effect.png",320,240 M,0,167798,,456,312 F,0,167798,167881,0.08799988,1 S,0,167798,167881,0.272,0.5359999 F,0,167881,168131,1,0 S,0,167881,168131,0.5359999,0.6240001
Sprite,Foreground,Centre,"SB\White Effect.png",320,240 M,0,167964,,192,239 F,0,167964,168048,0.1640001,1 S,0,167964,168048,0.2160002,0.576 F,0,168048,168298,1,0 S,0,168048,168298,0.576,0.6879998
Sprite,Foreground,Centre,"SB\White Effect.png",320,240 M,0,168131,,466,147 F,0,168131,168214,0,1 S,0,168131,168214,0.12,0.52 F,0,168214,168464,1,0 S,0,168214,168464,0.52,0.688
Sprite,Foreground,Centre,"SB\White Effect.png",320,240 M,0,168298,,199,100 F,0,168298,168381,0,1 S,0,168298,168381,0.1680002,0.6880002 F,0,168381,168631,1,0 S,0,168381,168631,0.6880002,0.8160002
Sprite,Foreground,Centre,"SB\OP effect.png",320,240 M,0,167798,,159,346 F,0,167798,167881,0.02800018,1 S,0,167798,167881,0.3680002,1.464 F,0,167881,168131,1,0 S,0,167881,168131,1.464,2.072
Sprite,Foreground,Centre,"SB\OP effect.png",320,240 F,0,168131,,0.156 M,0,168131,168214,492,112,216,99 F,0,168131,168214,0.156,1 S,0,168131,168214,0.3839999,1.112 F,0,168214,168464,1,0 S,0,168214,168464,1.112,1.6
Sprite,Foreground,Centre,"SB\OP effect.png",320,240 M,0,168298,,444,283 F,0,168298,168381,0,1 S,0,168298,168381,0.3360001,1.267363 F,0,168381,168631,1,0 S,0,168381,168631,1.267363,1.68
Sprite,Foreground,Centre,"Extra\palmolive.png",320,240 M,0,146964,,508,411 S,0,146964,,0.5679999 F,0,146964,147298,0.08400024,1 R,0,146964,147298,0,6.304 F,0,147298,168298,1 R,0,147298,168298,6.304,6.288001 F,0,168298,168631,1,0 R,0,168298,168631,6.288001,12.592
Sprite,Foreground,Centre,"SB\Kira Kira.png",320,240 M,0,75131,,318,250 F,0,75131,75214,0,1 S,0,75131,75214,0.1,1.116 F,0,75214,75798,1,0 S,0,75214,75798,1.116,1.508
Sprite,Foreground,Centre,"SB\002.png",320,240 M,0,103714,,324,249 F,0,103714,103798,0,1 S,0,103714,103798,0.2560001,0.7600002 F,0,103798,104381,1,0 S,0,103798,104381,0.7600002,1.088
Sprite,Foreground,Centre,"SB\Kira Kira.png",320,240 M,0,147131,,318,248 F,0,147131,147214,0,1 S,0,147131,147214,0.2080002,1.112 F,0,147214,147798,1,0 S,0,147214,147798,1.112,1.408
Sprite,Foreground,Centre,"SB\001.png",320,240 F,0,147131,147464,0,1 M,0,147131,157798,495,345,164,344 F,0,147464,157464,1 F,0,157464,157798,1,0
Sprite,Foreground,Centre,"SB\Kira Kira.png",320,240 M,0,168464,,320,250 F,0,168464,168548,0,1 S,0,168464,168548,0.1840002,1.352 F,0,168548,169131,1,0 S,0,168548,169131,1.352,1.512
Sprite,Foreground,Centre,"SB\004.png",320,240 F,0,189798,190131,0,1 M,0,189798,195464,817,244,256,236 S,0,189964,,1.544 F,0,190131,195131,1 F,0,195131,195464,1,0
Sprite,Foreground,Centre,"SB\Kira Kira.png",320,240 M,0,179131,,319,247 F,0,179131,179214,0,1 S,0,179131,179214,0.1839998,1.24 F,0,179214,179798,1,0 S,0,179214,179798,1.24,1.512
Sprite,Foreground,Centre,"SB\OP effect.png",320,240 M,0,179131,,320,248 F,0,179131,179214,0.03199997,1 S,0,179131,179214,0.4080002,2.848 F,0,179214,179798,1,0 S,0,179214,179798,2.848,3.896
Sprite,Foreground,Centre,"SB\001.png",320,240 S,0,197631,,1.632 F,0,197631,197999,0.01599991,1 M,0,197631,207666,-89,241,501,246 F,0,197999,207333,1 F,0,207333,207666,1,0
Sprite,Foreground,Centre,"SB\002.png",320,240 S,0,207333,,1.792 F,0,207333,207666,0,1 M,0,207333,218166,820,237,168,246 F,0,207666,217832,1 F,0,217832,218166,1,0
Sprite,Foreground,Centre,"Lrc\1s.png",320,240 M,0,195298,195548,317,513,309,250 F,0,195298,195548,0,1 S,0,195298,195798,0.8320003,0.8400002 R,0,195548,195798,0,-6.272 F,0,195548,200166,1 S,0,195798,195964,0.8400002,1.144 S,0,195964,196131,1.144,0.8480003 S,0,196131,196631,0.8480003 S,0,196631,196798,0.8480003,1.168 S,0,196798,196964,1.168,0.8640004 S,0,196964,197833,0.8640004,0.8720004 S,0,197833,200499,0.8720004,1.200001 F,0,200166,200499,1,0
Sprite,Foreground,Centre,"SB\White.jpg",320,240 S,0,11131,,1.616 F,0,11131,11298,0,0.5719997 F,0,11298,11798,0.5719997,0 F,0,11798,21798,0 F,0,21798,21964,0,0.788 F,0,21964,22464,0.788,0 F,0,22464,,0 F,0,22464,74131,0 F,0,74131,74298,0,0.46 F,0,74298,74464,0.46,0 F,0,74464,74964,0 F,0,74964,75131,0,0.64 F,0,75131,75464,0.64,0 F,0,75464,85798,0 F,0,85798,85964,0,0.744 F,0,85964,86298,0.744,0 F,0,86298,96464,0 F,0,96464,96631,0,0.616 F,0,96631,96798,0.616,0 F,0,96798,103131,0 F,0,103131,,0 F,0,103131,,0 F,0,103131,103298,0,0.716 F,0,103298,103464,0.716,0 F,0,103464,167464,0 M,0,167464,,320,240 F,0,167464,167631,0,0.7320001 F,0,167631,167798,0.7320001,0 F,0,167798,168464,0 F,0,168464,168631,0,0.72 F,0,168631,168964,0.72,0 F,0,168964,179131,0 F,0,179131,179298,0,0.7560002 F,0,179298,179464,0.7560002,0 F,0,179464,189798,0 F,0,189798,189964,0,0.6 F,0,189964,190131,0.6,0 F,0,190131,196464,0 F,0,196464,196631,0,0.5759999 F,0,196631,196798,0.5759999,0 F,0,196798,218832,0 F,0,218832,218999,0,0.6680001 F,0,218999,219166,0.6680001,0
Sprite,Foreground,Centre,"SB\wakka.png",320,240 F,0,195464,195548,0,1 S,0,195464,195548,0.2879999,1.664 F,0,195548,196131,1,0 S,0,195548,196131,1.664,1.816 M,0,195798,,320,252
Sprite,Foreground,Centre,"SB\White Effect.png",320,240 M,0,196131,,316,252 F,0,196131,196214,0.04800003,1 S,0,196131,196214,0.2319998,1.104 F,0,196214,196464,1,0 S,0,196214,196464,1.104,1.216
Sprite,Foreground,Centre,"SB\White Effect.png",320,240 M,0,196631,,316,253 F,0,196631,196714,0.08,1 S,0,196631,196714,0.3120001,1.136 F,0,196714,196964,1,0 S,0,196714,196964,1.136,1.256
Sprite,Foreground,Centre,"SB\Kira Kira.png",320,240 M,0,196131,,316,248 F,0,196131,196214,0,1 S,0,196131,196214,0.2159998,1.248 F,0,196214,196464,1,0 S,0,196214,196464,1.248,1.368
Sprite,Foreground,Centre,"Lrc\0x.png",320,240 S,0,125298,,0.8079998 F,0,125298,125631,0,1 M,0,125298,130631,439,383,321,383 F,0,125631,130298,1 F,0,130298,130631,1,0
Sprite,Foreground,Centre,"Lrc\0y.png",320,240 S,0,130298,,0.72 F,0,130298,130631,0,1 M,0,130298,135964,189,112,312,108 F,0,130631,135631,1 F,0,135631,135964,1,0
Sprite,Foreground,Centre,"Lrc\0z.png",320,240 F,0,135631,135964,0,1 M,0,135631,138131,540,190,470,190 F,0,135964,137798,1 F,0,137798,138131,1,0
Sprite,Foreground,Centre,"Lrc\1a.png",320,240 F,0,136964,137298,0,1 M,0,136964,140964,160,315,280,313 F,0,137298,140631,1 F,0,140631,140964,1,0 M,0,140964,,280,313
Sprite,Foreground,Centre,"Lrc\1b.png",320,240 F,0,138131,138464,0,1 M,0,138131,140964,464,400,351,395 F,0,138464,140631,1 F,0,140631,140964,1,0 M,0,140964,,351,395
Sprite,Foreground,Centre,"Lrc\1c.png",320,240 F,0,140964,141298,0,1 M,0,140964,144131,148,223,252,220 F,0,141298,143798,1 F,0,143798,144131,1,0
Sprite,Foreground,Centre,"Lrc\1d.png",320,240 S,0,144131,,1.264 F,0,144131,144464,0,1 M,0,144131,147464,311,111,314,248 F,0,144464,147298,1 R,0,147131,148131,0.01600006,-7.168 F,0,147298,148131,1,0
Sprite,Foreground,Centre,"SB\004.png",320,240 M,0,125798,,427,380 F,0,125798,125881,0,1 S,0,125798,125881,0.1999997,0.5439999 F,0,125881,126464,1,0 S,0,125881,126464,0.5439999,0.7039996
Sprite,Foreground,Centre,"Lrc\1e.png",320,240 M,0,151131,,319,248 F,0,151131,151464,0,1 S,0,151131,155131,1.008,1.352 F,0,151464,154798,1 F,0,154798,155131,1,0
Sprite,Foreground,Centre,"Lrc\1f.png",320,240 S,0,157631,,0.816 F,0,157631,157964,0,0.988 M,0,157631,163131,180,149,322,157 F,0,157964,162798,0.988,1 F,0,162798,163131,1,0
Sprite,Foreground,Centre,"Lrc\1g.png",320,240 S,0,162964,,0.8239998 F,0,162964,163298,0,1 M,0,162964,167464,491,352,360,355 F,0,163298,167131,1 F,0,167131,167464,1,0
Sprite,Foreground,Centre,"SB\004.png",320,240 M,0,157798,,195,147 F,0,157798,157881,0,0.9960001 S,0,157798,157881,0.1920001,0.5200001 F,0,157881,158464,0.9960001,0 S,0,157881,158464,0.5200001,0.6560001
Sprite,Foreground,Centre,"Lrc\1h.png",320,240 M,0,167964,,310,250 F,0,167964,168298,0,1 S,0,167964,168298,0.9840001,1.376 F,0,168298,168631,1 S,0,168298,168798,1.376,3.344 F,0,168631,168798,1,0
Sprite,Foreground,Centre,"Lrc\1j.png",320,240 M,0,171298,171548,863,232,386,237 F,0,171298,171631,0,1 M,0,171548,174131,386,237,289,240 F,0,171631,173798,1 F,0,173798,174131,1,0
Sprite,Foreground,Centre,"Lrc\1i.png",320,240 F,0,168631,168798,0,0.96 M,0,168631,168881,-178,100,203,98 F,0,168798,171131,0.96,1 M,0,168881,171464,203,98,324,98 F,0,171131,171464,1,0
Sprite,Foreground,Centre,"Lrc\1k.png",320,240 M,0,173964,174214,-266,398,274,391 F,0,173964,174298,0.03199997,1 M,0,174214,177131,274,391,374,391 F,0,174298,176798,1 F,0,176798,177131,1,0
Sprite,Foreground,Centre,"Lrc\1l.png",320,240 M,0,176964,177214,778,220,323,225 F,0,176964,177298,0,1 M,0,177214,178964,323,225,267,228 F,0,177298,,1 F,0,177298,178881,1 F,0,178881,179214,1,0 M,0,178964,179214,267,228,-136,223
Sprite,Foreground,Centre,"SB\OP effect.png",320,240 M,0,176381,,382,387 F,0,176381,176464,0,1 S,0,176381,176464,0.3039999,1.416 F,0,176464,177048,1,0 S,0,176464,177048,1.416,1.744
Sprite,Foreground,Centre,"SB\Font effect.png",320,240 M,0,176381,,350,392 F,0,176381,176464,0,1 S,0,176381,176464,0.4479999,1.216 F,0,176464,177048,1,0 S,0,176464,177048,1.216,1.544
Sprite,Foreground,Centre,"SB\002.png",320,240 M,0,176381,,366,391 F,0,176381,176464,0,1 S,0,176381,176464,0.208,0.688 F,0,176464,177048,1,0 S,0,176464,177048,0.688,0.9120002
Sprite,Foreground,Centre,"Lrc\1m.png",320,240 M,0,179298,179548,-199,72,264,72 F,0,179298,179548,0,1 F,0,179548,181631,1 M,0,179548,181964,264,72,350,69 F,0,181631,181964,1,0
Sprite,Foreground,Centre,"Lrc\1n.png",320,240 M,0,181964,182214,877,224,332,222 F,0,181964,182298,0,1 M,0,182214,184631,332,222,240,223 F,0,182298,184298,1 F,0,184298,184631,1,0
Sprite,Foreground,Centre,"Lrc\1o.png",320,240 M,0,184631,184881,-256,347,282,357 F,0,184631,184964,0,1 M,0,184881,187464,282,357,383,353 F,0,184964,187131,1 F,0,187131,187464,1,0
Sprite,Foreground,Centre,"SB\OP effect.png",320,240 M,0,186881,,373,352 F,0,186881,186964,0,1 S,0,186881,186964,0.4959999,1.536 F,0,186964,187548,1,0 S,0,186964,187548,1.536,2.032
Sprite,Foreground,Centre,"SB\Font effect.png",320,240 M,0,186881,,356,356 F,0,186881,186964,0,1 S,0,186881,186964,0.4480002,1.16 F,0,186964,187548,1,0 S,0,186964,187548,1.16,1.536
Sprite,Foreground,Centre,"SB\002.png",320,240 M,0,186881,,365,356 F,0,186881,186964,0,1 S,0,186881,186964,0.1439999,0.816 F,0,186964,187548,1,0 S,0,186964,187548,0.816,1.168
Sprite,Foreground,Centre,"Lrc\1p.png",320,240 M,0,187298,187548,819,246,333,250 F,0,187298,187631,0,1 M,0,187548,189798,333,250,241,250 F,0,187631,189464,1 F,0,189464,189798,1,0
Sprite,Foreground,Centre,"Lrc\1q.png",320,240 F,0,189964,190298,0,1 M,0,189964,192798,366,324,463,325 F,0,190298,192464,1 F,0,192464,192798,1,0
Sprite,Foreground,Centre,"Lrc\1r.png",320,240 F,0,192631,192964,0,1 M,0,192631,195298,240,107,178,108 F,0,192964,194964,1 F,0,194964,195298,1,0
Sprite,Foreground,Centre,"SB\OP effect.png",320,240 M,0,197048,,322,243 F,0,197048,197131,0,1 S,0,197048,197131,0.4879999,1.296 F,0,197131,197714,1,0 S,0,197131,197714,1.296,1.824
Sprite,Foreground,Centre,"SB\002.png",320,240 M,0,197048,,322,249 F,0,197048,197131,0,1 S,0,197048,197131,0.2959999,0.7279997 F,0,197131,197714,1,0 S,0,197131,197714,0.7279997,0.9039996
Sprite,Foreground,Centre,"SB\Font effect.png",320,240 M,0,197714,,322,251 F,0,197714,197833,0,1 S,0,197714,197833,0.3440003,1.123619 F,0,197833,198333,1,0 S,0,197833,198333,1.123619,1.528
Sprite,Foreground,Centre,"Lrc\2i.png",320,240 M,0,201999,,320,251 F,0,201999,202333,0,1 S,0,201999,205833,0.9840001,1.48 F,0,202333,205499,1 F,0,205499,205833,1,0
Sprite,Foreground,Centre,"Lrc\2j.png",320,240 M,0,207333,,324,250 F,0,207333,207666,0,1 S,0,207333,212332,0.9759999,1.616 F,0,207666,211999,1 F,0,211999,212332,1,0
Sprite,Foreground,Centre,"SB\Black.png",320,240 F,0,217666,217999,0,0.5620002 S,0,217832,,1.6 F,0,217999,218499,0.5620002,0.5332117 F,0,218499,219166,0.5332117,0
Sprite,Foreground,Centre,"SB\OP effect.png",320,240 M,0,217832,,226,308 F,0,217832,217916,0,1 S,0,217832,217916,0.3840001,1.56 F,0,217916,218166,1,0 S,0,217916,218166,1.56,1.896
Sprite,Foreground,Centre,"SB\OP effect.png",320,240 M,0,218166,,321,138 F,0,218166,218249,0,1 S,0,218166,218249,0.464,1.336 F,0,218249,218499,1,0 S,0,218249,218499,1.336,1.504
Sprite,Foreground,Centre,"SB\OP effect.png",320,240 M,0,218499,,450,296 F,0,218499,218582,0,1 S,0,218499,218582,0.4799997,2.112 F,0,218582,218832,1,0 S,0,218582,218832,2.112,2.344
Sprite,Foreground,Centre,"SB\White Effect.png",320,240 M,0,218666,,169,157 F,0,218666,218749,0,1 S,0,218666,218749,0.4000002,0.8880003 F,0,218749,218999,1,0 S,0,218749,218999,0.8880003,1.192
Sprite,Foreground,Centre,"SB\Kira Kira.png",320,240 M,0,53798,,320,247 F,0,53798,53881,0,1 S,0,53798,53881,0.2479999,1.032 F,0,53881,54464,1,0 S,0,53881,54464,1.032,1.168
Sprite,Foreground,Centre,"SB\002.png",320,240 M,0,11131,,187,72 F,0,11131,11214,0,1 S,0,11131,11214,0.1839999,0.4159994 F,0,11214,11798,1,0 S,0,11214,11798,0.4159994,0.5039993
Sprite,Foreground,Centre,"SB\OP effect.png",320,240 M,0,11131,,182,75 F,0,11131,11214,0,1 S,0,11131,11214,0.3200003,1.44 F,0,11214,11798,1,0 S,0,11214,11798,1.44,1.912
Sprite,Foreground,Centre,"Extra\bossandy.png",320,240 M,0,32298,32381,479,64,479,90 S,0,32298,32464,0.576,0.9439999 F,0,32298,32631,0,0.976 S,0,32464,32631,0.9439999,0.64 F,0,32631,74798,0.976,1 S,0,32631,74798,0.64 S,0,74798,74964,0.64,0.952 F,0,74798,75131,1,0 S,0,74964,75131,0.952,0.464
Sprite,Foreground,Centre,"SB\Font effect.png",320,240 R,0,32298,,0 M,0,32298,32381,479,64,470,93 F,0,32298,32381,0,1 S,0,32298,32381,0.3120004,0.6960005 F,0,32381,32964,1,0 S,0,32381,32964,0.6960005,1.104
Sprite,Foreground,Centre,"Extra\bossandy.png",320,240 M,0,124964,125048,143,48,142,59 S,0,124964,125131,0.5999999,0.9119999 F,0,124964,125298,0,1 S,0,125131,125298,0.9119999,0.6319999 F,0,125298,,1 F,0,125298,146964,1 S,0,125298,146964,0.6319999,0.6079999 S,0,146964,147131,0.6079999,0.88 F,0,146964,147298,1,0 S,0,147131,147298,0.88,0.312 F,0,147298,,0
Sprite,Foreground,Centre,"SB\OP effect.png",320,240 M,0,74964,,155,417 F,0,75048,75131,0,1 S,0,75048,75131,0.4560004,1.898676 F,0,75131,75631,1,0 S,0,75131,75631,1.898676,1.992
Sprite,Foreground,Centre,"SB\002.png",320,240 M,0,75048,,148,422 F,0,75048,75131,0.1000002,1 S,0,75048,75131,0.2479999,0.4639999 F,0,75131,75714,1,0.05200012 S,0,75131,75714,0.4639999,0.6560001
Sprite,Foreground,Centre,"SB\Font effect.png",320,240 F,0,124964,125048,0,1 S,0,124964,125048,0.3679999,0.7599999 M,0,125048,,147,63 F,0,125048,125631,1,0 S,0,125048,125631,0.7599999,1.008
Sprite,Foreground,Centre,"SB\OP effect.png",320,240 M,0,146964,,509,408 F,0,147048,147131,0,1 S,0,147048,147131,0.5359998,1.615999 F,0,147131,147798,1,0.01199997 S,0,147131,147798,1.615999,1.872
Sprite,Foreground,Centre,"SB\002.png",320,240 M,0,147048,,507,412 F,0,147048,147131,0.04400009,1 S,0,147048,147131,0.1759999,0.4640001 F,0,147131,147714,1,0.00800003 S,0,147131,147714,0.4640001,0.696
Sprite,Foreground,Centre,"SB\Font effect.png",320,240 M,0,168381,,177,166 F,0,168381,168464,0,1 S,0,168381,168464,0.512,0.864 F,0,168464,169048,1,0 S,0,168464,169048,0.864,1.408
Sprite,Foreground,Centre,"Extra\palmolive & bossandy.png",320,240 M,0,114964,,317,369 S,0,114964,,0.8879999 F,0,114964,115298,0,1 F,0,115298,124131,1 F,0,124131,124464,1,0
Sprite,Foreground,Centre,"SB\Font effect.png",320,240 M,0,115131,,320,369 F,0,115131,115214,0,1 S,0,115131,115214,0.456,1.344 F,0,115214,115798,1,0 S,0,115214,115798,1.344,1.512
Sprite,Foreground,Centre,"SB\001.png",320,240 S,0,114964,,0.5599998 F,0,114964,115298,0,1 M,0,114964,124464,158,370,419,370 F,0,115298,124131,1 F,0,124131,124464,1,0
//Storyboard Sound Samples
//Background Colour Transformations
3,100,163,162,255

[TimingPoints]
465,333.333333333333,4,1,1,50,1,0
20131,-100,4,1,2,50,0,0
20464,-100,4,1,1,50,0,0
24798,-100,4,1,2,50,0,0
25798,-100,4,1,1,50,0,0
30798,-100,4,1,2,50,0,0
31798,-100,4,1,1,50,0,0
36131,-100,4,1,2,50,0,0
36298,-100,4,1,1,50,0,0
40798,-100,4,1,2,50,0,0
41131,-100,4,1,1,50,0,0
46131,-100,4,1,2,50,0,0
46298,-100,4,1,1,50,0,0
50131,-100,4,1,2,50,0,0
50298,-100,4,1,1,50,0,0
52798,-100,4,1,2,50,0,0
53131,-100,4,1,1,50,0,0
57464,-100,4,1,2,50,0,0
57631,-100,4,1,1,50,0,0
59464,-100,4,1,2,50,0,0
59798,-100,4,1,1,50,0,0
62798,-100,4,1,2,50,0,0
62964,-100,4,1,1,50,0,0
75131,-100,4,1,1,60,0,1
77464,-100,4,1,2,60,0,1
77631,-100,4,1,1,60,0,1
78798,-100,4,1,2,60,0,1
79131,-100,4,1,1,60,0,1
82131,-100,4,1,2,60,0,1
83131,-100,4,1,1,60,0,1
84798,-100,4,1,2,60,0,1
84964,-100,4,1,1,60,0,1
85714,-100,4,1,1,60,0,0
85798,-100,4,1,1,60,0,1
88131,-100,4,1,2,60,0,1
88298,-100,4,1,1,60,0,1
89464,-100,4,1,2,60,0,1
89798,-100,4,1,1,60,0,1
96464,-100,4,1,1,60,0,0
104464,-100,4,1,1,30,0,0
108798,-100,4,1,1,60,0,0
110548,-100,4,2,1,30,0,0
112464,-100,4,1,1,60,0,0
125131,-100,4,1,1,50,0,0
128798,-100,4,1,2,50,0,0
129131,-100,4,1,1,50,0,0
143464,-100,4,1,2,50,0,0
143631,-100,4,1,1,50,0,0
144798,-100,4,1,2,50,0,0
145131,-100,4,1,1,50,0,0
146131,-100,4,1,2,50,0,0
146464,-100,4,1,1,50,0,0
150131,-100,4,1,2,50,0,0
150464,-100,4,1,1,50,0,0
153464,-100,4,1,2,50,0,0
153631,-100,4,1,1,50,0,0
156798,-100,4,1,2,50,0,0
157131,-100,4,1,1,50,0,0
168464,-100,4,1,1,60,0,1
168798,-100,4,1,2,60,0,1
169131,-100,4,1,1,60,0,1
178131,-100,4,1,2,60,0,1
178464,-100,4,1,1,60,0,1
179048,-100,4,1,1,60,0,0
179131,-100,4,1,1,60,0,1
186131,-100,4,1,2,60,0,1
186464,-100,4,1,1,60,0,1
189798,-100,4,1,1,60,0,0
197833,333.333333333333,4,1,1,50,1,0
203499,-100,4,1,2,50,0,0
203833,-100,4,1,1,50,0,0
208833,-100,4,1,2,50,0,0
209166,-100,4,1,1,50,0,0
209499,-100,4,1,2,50,0,0
209833,-100,4,1,1,50,0,0
216832,-100,4,1,2,50,0,0
217166,-100,4,1,1,50,0,0
218166,-100,4,1,2,50,0,0
218499,-100,4,1,1,50,0,0

[Colours]
Combo1 : 203,52,203
Combo2 : 6,238,238
Combo3 : 128,222,22
Combo4 : 227,85,17

[HitObjects]
256,80,465,1,4
88,168,9798,5,0
136,80,10131,1,8
204,152,10464,2,0,B|204:252,2,100,8|8|4
304,136,11464,1,8
428,292,12131,6,0,B|388:236|324:232,1,100,8|0
264,292,12798,1,8
188,108,13464,6,0,B|184:172|140:220,1,100,8|0
72,260,14131,1,8
152,320,14464,2,0,B|204:280|276:292,1,100,0|8
340,252,15131,6,0,B|356:308|320:368,2,100,0|8|0
272,176,16131,1,8
352,120,16464,2,0,B|288:108|256:40,1,100,4|8
128,204,17464,6,0,B|148:140|200:108,2,100,8|0|8
80,288,18464,2,0,B|176:316,1,100,0|8
272,328,19131,1,0
368,296,19464,1,8
464,324,19798,6,0,B|476:264|436:224|436:224|440:172|392:144,1,200
424,52,20798,2,0,B|364:40|324:80,1,100,8|0
296,168,21464,1,8
228,240,21798,2,0,B|276:256|300:312,1,100,4|8
212,128,22798,6,0,B|164:112|140:56,1,100,8|0
44,36,23464,1,8
72,132,23798,2,0,B|68:188|36:224,1,100,0|8
96,304,24464,6,0,B|196:288|288:360,2,200
128,208,26131,2,0,B|160:164|152:104,1,100,8|0
236,56,26798,1,8
268,152,27131,6,0,B|320:136|336:80,2,100,4|8|0
188,212,28131,2,0,B|224:252|228:312,1,100,8|0
148,364,28798,1,8
48,192,29464,6,0,B|48:88,1,100,8|0
124,28,30131,1,8
160,120,30464,2,0,B|260:128|344:52,2,200
188,216,32131,1,8
92,188,32464,6,0,B|52:148|64:96,1,100,4|8
160,120,33131,1,0
252,96,33464,2,0,B|308:84|332:40,1,100,8|0
432,56,34131,2,0,B|422:110|457:148|457:148|492:187|482:241,1,200,8|8
424,320,35131,6,0,B|368:296|360:240,1,100,0|8
348,148,35798,2,8,B|296:140|276:160|276:160|256:140|204:148,2,150,0|0|8
444,172,37131,5,0
420,76,37464,1,8
348,148,37798,1,0
320,52,38131,1,8
124,100,38798,6,0,B|88:64|32:68,2,100,8|0|8
52,168,39798,1,0
132,232,40131,1,8
40,272,40464,6,0,B|68:336|160:352|208:296,1,200
256,208,41464,1,8
180,140,41798,1,4
204,44,42131,1,8
300,72,42464,2,0,B|380:88|440:32,1,150,8|0
480,176,43464,5,8
380,160,43798,2,0,B|372:240|428:296,1,150,8|0
280,284,44798,1,8
184,296,45131,2,0,B|131:304|91:268,1,100,0|8
132,180,45798,6,0,B|132:124|92:84|36:88,2,150,0|0|8
40,216,47131,2,0,B|51:266|107:283,1,100,0|8
204,268,47798,2,0,B|280:272|336:336,1,150,8|0
464,256,48798,6,0,B|416:224|424:168,1,100,8|0
456,76,49464,1,8
356,96,49798,2,0,B|272:96|224:32,2,150,0|0|8
456,76,51131,5,0
428,172,51464,1,8
456,268,51798,2,0,B|428:320|372:308,1,100,0|8
292,248,52464,2,0,B|238:233|197:265|197:265|156:296|102:282,1,200,0|0
28,212,53464,1,8
56,116,53798,5,4
152,92,54131,2,0,B|208:88|236:36,1,100,8|0
332,32,54798,2,0,B|380:32,1,50,8|0
268,128,55464,5,8
364,156,55798,1,0
424,236,56131,1,8
356,308,56464,6,0,B|304:300|264:340,1,100,0|8
180,288,57131,2,0,B|128:224|48:228,1,150
100,84,58131,6,0,B|52:92|16:136,2,100,8|0|8
200,76,59131,2,0,B|164:164|236:212|256:184|276:212|348:164|312:76,1,300,4|8
352,44,60298,1,0
428,172,60798,5,8
472,260,61131,1,0
388,312,61464,1,8
304,256,61798,6,0,B|256:276|208:256,1,100,0|8
108,232,62464,2,0,B|88:288|120:340|172:344,2,150,0|0|8
100,132,63798,2,0,B|80:84|24:68,2,100,0|8|4
244,92,64964,6,0,B|352:120|424:36,1,200,8|4
376,180,66131,1,8
292,236,66464,2,0,B|324:280|384:276,1,100,0|8
464,220,67131,5,4
400,84,67631,2,0,B|360:72|328:92|328:92|296:112|256:100,1,150,0|8
168,52,68464,2,0,B|132:88|76:80,1,100,0|8
28,168,69131,2,0,B|20:224|56:260,1,100,0|8
156,256,69798,5,4
292,192,70298,1,0
348,276,70631,1,8
408,356,70964,2,0,B|460:328|456:276,1,100,4|8
388,200,71631,2,0,B|380:118|448:72,1,150,0|8
492,164,72464,6,0,B|441:175|417:170|405:132|393:94|370:89|319:101,1,200,4|8
244,284,73798,1,4
160,340,74131,2,0,B|116:308|60:324,1,100,8|8
16,236,74798,1,8
96,180,75131,6,0,B|140:212|196:196,1,100,4|8
288,172,75798,2,0,B|296:228|260:268,2,100,0|8|0
252,80,76798,1,8
348,104,77131,2,0,B|432:72|480:148,2,150,0|4|8
392,192,78464,6,0,B|288:236|276:364,1,200
196,292,79464,1,8
100,316,79798,2,0,B|76:272,1,50,0|8
68,172,80298,1,4
172,64,80798,6,0,B|232:108|312:96|356:36,1,200,8|8
428,108,81798,2,0,B|360:148|348:220|388:292,2,200,0|0|4
232,136,83798,5,0
148,192,84131,1,8
124,288,84464,2,0,B|204:284|256:356,2,150,0|0|8
44,228,85798,6,0,B|80:192|88:136,1,100,4|8
128,48,86464,2,0,B|72:32|32:60,2,100,0|8|0
184,132,87464,1,8
256,64,87798,2,0,B|296:104|296:160|260:204,1,150,0|4
140,288,88798,5,8
208,364,89131,2,0,B|268:292|384:276,1,200
464,332,90131,1,8
488,236,90464,2,0,B|468:192,1,50,0|8
448,92,90964,1,4
308,36,91464,6,0,B|344:104|344:104|348:172|300:216,1,200,8|8
212,172,92464,2,0,B|192:224|224:272,1,100,0|8
300,332,93131,2,0,B|244:360,1,50,0|8
156,340,93631,1,4
44,240,94131,6,0,B|92:184|84:104|24:60,1,200,8|8
128,52,95131,2,0,B|172:92|240:76,1,100,0|8
312,36,95798,1,0
364,120,96131,2,0,B|376:176|348:228,1,100,8|4
152,224,97131,5,0
76,288,97464,2,0,B|124:316|136:368,1,100,8|0
228,332,98131,2,0,B|264:276|336:252|404:272,2,200,8|8|8
180,244,99798,5,0
88,204,100131,2,0,B|136:116,1,100,8|0
232,128,100798,2,0,B|240:56|164:-4|96:28,2,200,8|8|8
204,224,102464,5,0
284,284,102798,2,0,B|332:248,1,50,8|0
424,252,103298,2,0,B|432:200,1,50,8|0
360,132,103798,2,0,B|388:92,1,50,8|0
256,192,104464,12,0,107798
248,116,108798,5,8
168,176,109132,2,0,B|128:216|72:208,1,100,0|8
28,196,109631,2,0,B|68:260|64:340,1,150,0|8
160,316,110464,2,0,B|268:268|340:356|340:356|468:320|508:196|464:76|348:64,1,600
436,112,125131,5,0
340,84,125464,1,8
240,96,125798,2,0,B|176:80|160:32,2,100,4|8|0
308,176,126798,2,0,B|268:212|272:268,2,100,8|0|8
400,212,127798,2,0,B|412:268|456:292,1,100,0|8
368,340,128464,6,0,B|320:316|272:336|272:336|228:316|172:340,1,200
92,284,129464,1,8
176,228,129798,2,0,B|228:188|220:124,1,100,0|8
124,116,130464,2,0,B|116:68,1,50,0|8
212,44,130964,6,0,B|380:76,1,150,4|8
420,152,131798,2,0,B|464:132|464:68,2,100,0|8|0
320,164,132798,1,8
372,248,133131,2,0,B|428:248,1,50,0|8
384,340,133631,6,0,B|280:340,1,100,8|0
256,244,134298,2,0,B|152:244,1,100,8|0
68,288,134964,2,0,B|32:196,1,100,8|0
31,194,135464,1,8
48,96,135798,1,8
132,152,136131,1,8
180,144,136298,6,0,B|264:128|280:44,1,150,4|8
376,80,137131,2,0,B|428:72,1,50,0|8
448,172,137631,2,0,B|416:252|460:324,1,150,0|8
360,288,138464,2,0,B|340:272|304:268,1,50,0|8
220,308,138964,5,0
136,184,139464,1,8
124,284,139797,1,0
40,228,140130,1,8
48,128,140464,2,0,B|88:88|88:88|108:48,1,100,0|8
208,56,141131,2,0,B|256:72|308:56,1,100,8|8
348,84,141631,5,4
268,212,142131,1,8
180,164,142464,2,0,B|128:156|104:104,1,100,0|8
52,20,143131,2,0,B|0:84|28:168,1,150
44,312,144131,1,8
100,232,144464,6,0,B|200:204|296:256,1,200
256,348,145464,1,8
160,320,145798,2,0,B|224:224|156:128,1,200
224,56,146798,2,0,B|276:60|324:32,1,100,8|4
392,100,147464,5,8
308,156,147798,1,0
396,208,148131,2,0,B|456:212|492:260,2,100,8|0|8
408,308,149131,1,0
316,352,149464,1,8
220,328,149798,6,0,B|184:260|216:188|292:168,1,200
388,172,150798,2,0,B|392:112|344:64|288:68,1,150,8|0
204,40,151631,2,0,B|104:56,1,100,0|8
52,140,152298,6,0,B|136:148|188:212,1,150,0|8
256,136,153131,2,0,B|300:204|288:280,2,150,0|0|8
160,172,154464,1,0
104,256,154798,1,8
168,332,155131,6,0,B|264:352,1,100,0|8
276,252,155798,2,0,B|352:316,1,100,0|8
444,352,156464,2,0,B|488:256|440:156,1,200
372,88,157464,1,8
308,164,157798,6,0,B|224:140|200:60,1,150,4|0
104,48,158631,1,8
60,140,158964,2,0,B|88:184|84:240,1,100,4|8
76,336,159631,2,0,B|140:276|224:284,1,150,8|0
204,184,160464,6,0,B|288:188|312:272,2,150,4|8|8
136,108,161798,1,0
272,44,162298,2,0,B|356:60|412:8,1,150,8|0
492,68,163131,6,0,B|480:144|400:180,1,150,4|8
312,132,163964,1,0
332,232,164298,2,0,B|384:256|412:296,1,100,4|8
324,348,164964,2,0,B|256:312|176:328,1,150,0|8
80,340,165798,6,0,B|36:280|76:188|152:184,2,200,4|8|0
176,316,167464,1,8
256,256,167798,2,0,B|312:260|352:228,1,100,8|8
384,324,168464,6,0,B|460:304|480:220|464:164,1,200,4|0
392,92,169464,2,0,B|388:32|436:0,2,100,8|0|8
300,136,170464,1,8
172,60,170964,1,4
28,100,171464,5,8
116,152,171798,1,0
216,144,172131,2,0,B|268:116|264:64,2,100,8|0|8
168,232,173131,2,0,B|248:260|304:196,1,150,8|4
352,56,174131,5,8
420,128,174464,2,0,B|512:84,2,100,0|8|0
384,220,175464,2,0,B|392:276|440:300,1,100,8|0
480,272,175964,2,0,B|435:325|348:340,1,150,8|4
188,224,177131,5,0
272,280,177464,1,8
180,320,177798,2,0,B|112:316|64:260|100:172,1,200
192,136,178798,1,8
124,64,179131,5,4
220,44,179464,2,0,B|320:28,1,100,8|0
416,48,180131,1,8
356,128,180464,2,0,B|448:164,1,100,0|8
380,236,181131,2,0,B|416:276,1,50,0|8
480,348,181631,1,4
336,312,182131,6,0,B|288:288|240:296,1,100,8|0
148,336,182798,2,0,B|100:296|88:256,1,100,8|0
104,160,183464,1,8
40,84,183798,2,0,B|80:40,1,50,4|8
172,64,184298,1,4
320,68,184798,6,0,B|408:116|408:116|408:168|452:200,1,200,8|8
500,112,185798,2,0,B|500:312,1,200,0|0
500,312,186631,1,8
400,312,186964,1,4
292,208,187464,6,0,B|252:180|196:188,1,100,8|0
132,264,188131,1,8
36,240,188464,2,0,B|28:292|56:336,2,100,0|8|8
60,196,189298,2,0,B|68:136|8:112|20:52,1,150,0|4
116,76,190131,5,8
168,164,190464,1,0
220,80,190798,1,8
268,80,190964,2,0,B|308:68|340:88|340:88|372:108|412:96,1,150,0|8
476,288,192131,2,0,B|436:260|432:200,1,100,8|4
368,280,192798,6,0,B|328:320|280:320,1,100,8|0
180,340,193464,1,8
128,340,193631,2,0,B|96:312|96:274|96:274|96:236|65:209,1,150,0|8
192,52,194798,1,8
100,96,195131,5,4
184,152,195464,2,0,B|232:172|280:152,1,100,8|0
320,120,195964,2,0,B|368:139|387:187,1,100,8|0
364,284,196631,2,0,B|316:264,1,50,8|8
256,192,197833,12,0,200499
208,132,201166,5,0
112,156,201499,2,0,B|88:208|40:228,2,100,8|0|8
208,132,202499,1,0
308,152,202833,1,8
308,52,203166,6,0,B|416:68|452:212|364:284,1,300,0|8
264,284,204499,2,0,B|208:288|184:336,2,100,0|8|0
364,284,205499,1,8
444,228,205833,6,0,B|488:196|488:140,1,100,0|8
388,140,206499,2,0,B|396:86|356:46,1,100,0|8
288,120,207166,2,0,B|256:76|200:76,1,100,0|8
116,128,207833,2,0,B|147:172|203:172,1,100,0|8
288,120,208499,6,0,B|360:76|428:112|460:168|460:212|428:272|360:308|288:264,1,400,4|0
192,292,210166,2,0,B|192:92,1,200,8|8
100,52,211166,6,0,B|52:140,1,100,0|8
52,244,211833,2,0,B|100:332,1,100,0|8
184,280,212499,1,0
276,320,212832,2,0,B|328:344|372:336,2,100,8|0|8
340,244,213832,5,0
440,252,214166,2,0,B|488:164,1,100,8|0
388,148,214832,2,0,B|385:47,1,100,8|0
300,100,215499,2,0,B|247:14,2,100,8|0|8
256,192,216499,6,0,B|148:184|96:88,1,200
168,20,217499,1,8
240,88,217832,2,0,B|187:184|79:192,1,200
116,284,218832,2,0,B|216:284,1,100,8|4
