osu file format v9

[General]
AudioFilename: KOTOKO and Utatsuki Kaori - Double HarmoniZe Shock!!.mp3
AudioLeadIn: 2000
PreviewTime: 75131
Countdown: 0
SampleSet: Normal
StackLeniency: 0.7
Mode: 0
LetterboxInBreaks: 0
EpilepsyWarning: 1

[Editor]
Bookmarks: 65631
DistanceSpacing: 1.2
BeatDivisor: 2
GridSize: 4

[Metadata]
Title:Double HarmoniZe Shock!!
Artist:KOTOKO & Utatsuki Kaori
Creator:DarknessAngel
Version:Easy
Source:
Tags:SHORT CIRCUIT II Natteke bossandy palmolive Collab

[Difficulty]
HPDrainRate:2
CircleSize:3
OverallDifficulty:2
ApproachRate:3
SliderMultiplier:0.8
SliderTickRate:1

[Events]
//Background and Video events
0,0,"55165928.jpg"
//Break Periods
2,665,8358
2,112664,123691
//Storyboard Layer 0 (Background)
//Storyboard Layer 1 (Fail)
//Storyboard Layer 2 (Pass)
//Storyboard Layer 3 (Foreground)
Sprite,Foreground,Centre,"SB\BG effect.jpg",320,240 F,0,298,465,0,1 F,0,465,1131,1,0 S,0,465,1131,0.8,0.912 F,0,1131,10964,0 S,0,1131,11131,0.912,0.8 F,0,10964,11131,0,1 F,0,11131,11798,1,0 S,0,11131,11798,0.8,0.912 F,0,11798,21631,0 S,0,11798,21798,0.912,0.801895 F,0,21631,21798,0,1 F,0,21798,22464,1,0 S,0,21798,22464,0.801895,0.913895 F,0,22464,32298,0 S,0,22464,32464,0.913895,0.8018948 F,0,32298,32464,0,1 F,0,32464,33131,1,0 S,0,32464,33131,0.8018948,0.9218948 S,0,33131,,0.9218948 F,0,33131,53631,0 S,0,33131,53798,0.9218948,0.8021446 F,0,53631,53798,0,1 F,0,53798,54464,1,0 S,0,53798,54464,0.8021446,0.913895 F,0,54464,64298,0 S,0,54464,64464,0.913895,0.8003848 F,0,64298,64464,0,1 F,0,64464,65131,1,0 S,0,64464,65131,0.8003848,0.9203848 F,0,65131,74964,0 S,0,65131,75131,0.9203848,0.8067659 F,0,74964,75131,0,1 F,0,75131,75798,1,0 S,0,75131,75798,0.8067659,0.9107656 F,0,75798,85631,0 S,0,75798,85798,0.9107656,0.7982978 F,0,85631,85798,0,1 F,0,85798,86464,1,0 S,0,85798,86464,0.7982978,0.9102979 F,0,86464,104298,0 S,0,86464,104464,0.9102979,0.8054572 F,0,104298,104464,0,1 F,0,104464,105131,1,0 S,0,104464,105131,0.8054572,0.925457 F,0,105131,114964,0 S,0,105131,115131,0.925457,0.8078558 F,0,114964,115131,0,1 F,0,115131,115798,1,0 S,0,115131,115798,0.8078558,0.9118558 F,0,115798,125631,0 S,0,115798,125798,0.9118558,0.8073881 F,0,125631,125798,0,1 F,0,125798,126464,1,0 S,0,125798,126464,0.8073881,0.9113882 F,0,126464,146964,0 S,0,126464,147131,0.9113882,0.8066073 F,0,146964,147131,0,1 F,0,147131,147798,1,0 S,0,147131,147798,0.8066073,0.9106074 F,0,147798,157631,0 S,0,147798,157798,0.9106074,0.8066075 F,0,157631,157798,0,1 F,0,157798,158464,1,0 S,0,157798,158464,0.8066075,0.9186076 F,0,158464,168298,0 S,0,158464,168464,0.9186076,0.7986076 F,0,168298,168464,0,1 F,0,168464,169131,1,0 S,0,168464,169131,0.7986076,0.9106077 F,0,169131,178964,0 S,0,169131,179131,0.9106077,0.7986077 F,0,178964,179131,0,1 F,0,179131,179798,1,0 S,0,179131,179798,0.7986077,0.9106077 F,0,179798,197631,0 S,0,179798,197833,0.9106077,0.7986077 F,0,197631,197833,0,0.7720001 F,0,197833,198499,0.7720001,0 S,0,197833,198499,0.7986077,0.9186076 F,0,198499,218999,0 S,0,198499,219166,0.9186076,0.7986075 F,0,218999,219166,0,0.8799999 F,0,219166,219832,0.8799999,0 S,0,219166,219832,0.7986075,0.9186075
Sprite,Foreground,Centre,"Extra\title.png",320,240 M,0,1798,,320,195 S,0,1798,,0.6160001 F,0,1798,2131,0,1 F,0,2131,8131,1 F,0,8131,8798,1,0
Sprite,Foreground,Centre,"SB\White Effect.png",320,240 M,0,1798,,320,226 F,0,1798,1964,0,0.5309671 S,0,1798,2131,0.288,0.8640001 F,0,1964,2131,0.5309671,0
Sprite,Foreground,Centre,"Extra\singer.png",320,240 M,0,4464,,320,387 S,0,4464,,0.7760004 F,0,4464,4798,0,1 F,0,4798,8131,1 F,0,8131,8464,1,0
Sprite,Foreground,Centre,"SB\Font effect.png",320,240 M,0,4464,,315,388 F,0,4464,4631,0,0.712 S,0,4464,4798,0.1,1.24 F,0,4631,4798,0.712,0 S,0,4798,4964,1.24,1.384
Sprite,Foreground,Centre,"SB\001.png",320,240 S,0,1798,,0.9440001 F,0,1798,2131,0,1 M,0,1798,8464,648,212,273,215 F,0,2131,8131,1 F,0,8131,8464,1,0
Sprite,Foreground,Centre,"SB\001.png",320,240 S,0,4464,,0.5119998 F,0,4464,4798,0.07600006,1 M,0,4464,8464,205,382,388,387 F,0,4798,8131,1 F,0,8131,8464,1,0
Sprite,Foreground,Centre,"SB\White Effect.png",320,240 M,0,9798,,526,125 F,0,9798,9881,0,1 S,0,9798,9964,0.1,0.5247088 F,0,9881,10131,1,0
Sprite,Foreground,Centre,"SB\White Effect.png",320,240 M,0,10131,,460,350 F,0,10131,10214,0,1 S,0,10131,10298,0.2640002,0.6080005 F,0,10214,10464,1,0
Sprite,Foreground,Centre,"SB\White Effect.png",320,240 M,0,10464,,150,208 F,0,10464,10548,0,1 S,0,10464,10631,0.2479999,0.5520001 F,0,10548,10798,1,0
Sprite,Foreground,Centre,"SB\White Effect.png",320,240 M,0,10631,,376,120 F,0,10631,10714,0,1 S,0,10631,10964,0.2239999,0.5439999 F,0,10714,10964,1,0
Sprite,Foreground,Centre,"SB\White Effect.png",320,240 M,0,10798,,315,389 F,0,10798,10881,0.01199982,1 S,0,10798,10964,0.232,0.712 F,0,10881,11131,1,0
Sprite,Foreground,Centre,"SB\White Effect.png",320,240 M,0,10964,,514,249 F,0,10964,11048,0,1 S,0,10964,11131,0.208,0.5999997 F,0,11048,11298,1,0
Sprite,Foreground,Centre,"SB\Kira Kira.png",320,240 F,0,11131,11214,0,1 S,0,11131,11214,0.208,1.12 F,0,11214,11464,1 S,0,11214,11798,1.12,1.424 F,0,11464,11798,1,0
Sprite,Foreground,Centre,"SB\004.png",320,240 S,0,11464,,1.608 F,0,11464,11798,0,1 M,0,11464,21798,691,247,18,230 F,0,11798,21464,1 F,0,21464,21798,1,0 M,0,21798,,18,230
Sprite,Foreground,Centre,"SB\White Effect.png",320,240 M,0,20964,,260,368 F,0,20964,21048,0,1 S,0,20964,21131,0.1760001,0.6079999 F,0,21048,21298,1,0
Sprite,Foreground,Centre,"SB\White Effect.png",320,240 M,0,20798,,157,141 F,0,20798,20881,0,1 S,0,20798,20964,0.2720003,0.5600003 F,0,20881,21131,1,0
Sprite,Foreground,Centre,"SB\White Effect.png",320,240 M,0,21131,,522,118 F,0,21131,21214,0,1 S,0,21131,21298,0.1679999,0.6320001 F,0,21214,21464,1,0
Sprite,Foreground,Centre,"SB\White Effect.png",320,240 M,0,21298,,482,374 F,0,21298,21381,0,1 S,0,21298,21464,0.2479999,0.6639996 F,0,21381,21631,1,0
Sprite,Foreground,Centre,"SB\White Effect.png",320,240 M,0,21464,,332,152 F,0,21464,21548,0,1 S,0,21464,21631,0.2640001,0.5519999 F,0,21548,21798,1,0
Sprite,Foreground,Centre,"SB\White Effect.png",320,240 M,0,21631,,144,376 F,0,21631,21714,0,1 S,0,21631,21798,0.248,0.6960002 F,0,21714,21964,1,0
Sprite,Foreground,Centre,"SB\Kira Kira.png",320,240 F,0,21798,21881,0,1 S,0,21798,21881,0.1,1.188 F,0,21881,22464,1,0 S,0,21881,22464,1.188,1.356
Sprite,Foreground,Centre,"SB\001.png",320,240 S,0,22131,,1.72 F,0,22131,22464,0,1 M,0,22131,31131,-76,244,728,236 F,0,22464,30798,1 F,0,30798,31131,1,0
Sprite,Foreground,Centre,"SB\Black.png",320,240 M,0,31131,,320,240 S,0,31131,,1.608 F,0,31131,32131,0,0.62 F,0,32131,32464,0.62,0 F,0,32464,124464,0 F,0,124464,125464,0,0.6080001 F,0,125464,125798,0.6080001,0
Sprite,Foreground,Centre,"SB\spotlight.png",320,240 M,0,32464,,117,296 F,0,32464,,0 F,0,32464,32631,0,1 S,0,32464,73214,5 F,0,32631,36964,1 F,0,36964,37298,1,0 F,0,37298,,0 F,0,37298,,0 F,0,37298,,0 F,0,37298,,0 F,0,37298,,0 F,0,37298,42131,0 F,0,42131,42464,0,1 F,0,42464,43631,1 F,0,43631,,1 F,0,43631,43964,1,0 F,0,43964,44798,0 F,0,44798,45131,0,1 F,0,45131,47631,1 F,0,47631,47964,1,0 F,0,47964,69464,0 F,0,69464,69798,0,1 F,0,69798,74131,1 F,0,74131,74464,1,0 F,0,74464,,0 F,0,74464,99131,0 F,0,99131,99464,0,1 F,0,99464,101798,1 F,0,101798,102131,1,0 F,0,102131,130131,0 F,0,130131,,0 F,0,130131,130464,0,1 F,0,130464,135631,1 F,0,135631,135964,1,0 F,0,135964,136798,0 F,0,136798,137131,0,1 F,0,137131,138298,1 F,0,138298,138631,1,0 F,0,138631,140798,0 F,0,140798,141131,0,1 F,0,141131,143964,1 F,0,143964,144298,1,0 F,0,144298,157631,0 F,0,157631,157964,0,1 F,0,157964,162964,1 F,0,162964,163298,1,0 F,0,163298,192464,0 F,0,192464,192798,0,1 F,0,192798,195298,1 F,0,195298,195631,1,0
Sprite,Foreground,Centre,"SB\spotlight.png",320,240 F,0,36798,37131,0,1 F,0,36798,37131,0,1 M,0,36798,37464,462,241,425,249 S,0,36798,37464,5,4.352 F,0,37131,,1 F,0,37131,,1 F,0,37131,,1 F,0,37131,37464,1 M,0,37464,,425,249 F,0,37464,,1 F,0,37464,,1 F,0,37464,42298,1 F,0,42298,42631,1,0 F,0,42631,43464,0 F,0,43464,43798,0,1 F,0,43798,44964,1 F,0,44964,45298,1,0 F,0,45298,,0 F,0,45298,47464,0 F,0,47464,47798,0,1 F,0,47798,50631,1 F,0,50631,,1 F,0,50631,50964,1,0 F,0,50964,,0 F,0,50964,,0 F,0,50964,64298,0,0.08 F,0,64298,64631,0.08,1 F,0,64631,69631,1 F,0,69631,69964,1,0 F,0,69964,96631,0 F,0,96631,96964,0,1 F,0,96964,99298,1 F,0,99298,99631,1,0 F,0,99631,125464,0 F,0,125464,125798,0,1 F,0,125798,130298,1 F,0,130298,130631,1,0 F,0,130631,135464,0 F,0,135464,135798,0,1 F,0,135798,136964,1 F,0,136964,137298,1,0 F,0,137298,138131,0 F,0,138131,138464,0,1 F,0,138464,140964,1 F,0,140964,141298,1,0 F,0,141298,162798,0 F,0,162798,163131,0,1 F,0,163131,167131,1 F,0,167131,167464,1,0 F,0,167464,189964,0 F,0,189964,190298,0,1 F,0,190298,192631,1 F,0,192631,192964,1,0
Sprite,Foreground,Centre,"SB\Black Ring.png",320,240 F,0,50464,50798,0,1 S,0,50631,,0.8000001 F,0,50798,53631,1 F,0,53631,54131,1,0 F,0,54131,,0 F,0,54131,83464,0 F,0,83464,83798,0,1 F,0,83798,85464,1 F,0,85464,,1 F,0,85464,85798,1,0 F,0,85798,89055,0,0.008982062
Sprite,Foreground,Centre,"SB\001.png",320,240 S,0,53798,,0.864 F,0,53798,54131,0,1 M,0,53798,64464,521,354,218,361 F,0,54131,64131,1 F,0,64131,64464,1,0
Sprite,Foreground,Centre,"SB\White Effect.png",320,240 M,0,74464,,128,117 F,0,74464,74548,0,1 S,0,74464,74631,0.224,0.6479999 F,0,74548,74798,1,0
Sprite,Foreground,Centre,"SB\White Effect.png",320,240 M,0,74631,,462,371 F,0,74631,74714,0.01600006,1 S,0,74631,74798,0.2479999,0.6159998 F,0,74714,74964,1,0
Sprite,Foreground,Centre,"SB\White Effect.png",320,240 M,0,74798,,184,357 F,0,74798,74881,0.2760001,1 S,0,74798,74964,0.3199998,0.5759999 F,0,74881,75131,1,0.04799972
Sprite,Foreground,Centre,"SB\White Effect.png",320,240 M,0,74964,,468,101 F,0,74964,75048,0,0.88 S,0,74964,75131,0.248,0.5680001 F,0,75048,75298,0.88,0
Sprite,Foreground,Centre,"SB\Black Ring.png",320,240 F,0,93798,94131,0,1 F,0,94131,96131,1 F,0,96131,96464,1,0 F,0,96464,143798,0 F,0,143798,144131,0,1 S,0,144131,,0.7999998 F,0,144131,147131,1 F,0,147131,147464,1,0 F,0,147464,176798,0 F,0,176798,177131,0,1 F,0,177131,178798,1 F,0,178798,179131,1,0 F,0,179131,187131,0 F,0,187131,187464,0,1 F,0,187464,189464,1 F,0,189464,189798,1,0
Sprite,Foreground,Centre,"SB\spotlight.png",320,240 F,0,74964,75298,0,0.824 S,0,74964,75298,1.288,2.136 M,0,74964,77964,409,108 F,0,75298,83631,0.824,0.827411 M,0,77964,78131,409,108,131,263 M,0,78131,80631,131,263,132,263 M,0,80631,80798,132,263,412,119 M,0,80798,85798,412,119,422,117 F,0,83631,83964,0.827411,0 F,0,83964,85964,0 M,0,85798,85964,422,117,121,277 F,0,85964,86298,0,0.8361725 M,0,85964,88631,121,277,120,276 F,0,86298,93964,0.8361725,0.784 M,0,88631,88798,120,276,416,112 M,0,88798,91298,416,112,417,105 M,0,91298,91464,417,105,131,279 M,0,91464,168631,131,279,425,102 F,0,93964,94298,0.784,0 F,0,94298,168631,0 F,0,168631,168964,0,0.808 M,0,168631,171298,425,102,424,100 F,0,168964,176964,0.808,0.8140754 M,0,171298,171464,424,100,139,279 M,0,171464,173964,139,279,136,276 M,0,173964,174131,136,276,411,116 M,0,174131,,411,116 M,0,174131,178964,411,116,405,102 F,0,176964,177298,0.8140754,0 F,0,177298,,0 F,0,177298,179298,0 M,0,178964,179131,405,102,136,271 M,0,179131,181964,136,271,135,270 F,0,179298,179631,0,0.808 F,0,179631,187298,0.808,0.8240001 M,0,181964,182131,135,270,411,115 M,0,182131,184631,411,115,409,115 M,0,184631,184798,409,115,139,280 F,0,187298,187631,0.8240001,0
Sprite,Foreground,Centre,"SB\Light2.png",320,240 M,0,75298,,317,336 S,0,75298,,1.384 F,0,75298,75548,0,1 R,0,75298,96464,-12.464,-18.752 F,0,75548,75798,1 F,0,75798,79172,1,0.9680001 F,0,75798,96131,1 F,0,75798,96131,1 F,0,96131,96464,1,0 F,0,96464,104631,0 R,0,96464,168631,-18.752,-18.768 F,0,104631,168631,0 F,0,168631,168964,0,1 R,0,168631,189798,-18.768,-25.792 F,0,168964,189464,1 F,0,168964,189464,1 F,0,189464,189798,1,0
Sprite,Foreground,Centre,"SB\004.png",320,240 F,0,96631,96964,0,1 M,0,96631,103298,459,249,157,245 F,0,96964,102964,1 F,0,102964,103298,1,0
Sprite,Foreground,Centre,"SB\001.png",320,240 F,0,104631,104964,0,1 M,0,104631,112464,184,244,477,232 F,0,104964,112131,1 F,0,112131,112464,1,0
Sprite,Foreground,Centre,"Extra\DarknessAngel.png",320,240 F,0,114964,115298,0,1 F,0,115298,124131,1 F,0,124131,124464,1,0
Sprite,Foreground,Centre,"SB\Font effect.png",320,240 F,0,115131,115214,0,1 S,0,115131,115214,0.6640001,1.256 F,0,115214,115464,1,0 S,0,115214,115464,1.256,1.608
Sprite,Foreground,Centre,"Lrc\0v.png",320,240 M,0,101964,102214,307,508,315,250 F,0,101964,102214,0.03600034,1 F,0,102214,,1 R,0,102214,102464,-0.01600037,-6.272 F,0,102214,106964,1 S,0,102464,102631,0.9760002,1.368 S,0,102631,102798,1.368,1.048 S,0,102798,103298,1.048,1.04 S,0,103298,103464,1.04,1.392 S,0,103464,103631,1.392,1.016 S,0,103631,104464,1.016,1.024 S,0,104464,107298,1.024,1.392 F,0,106964,107298,1,0
Sprite,Foreground,Centre,"SB\Kira Kira.png",320,240 M,0,85798,,318,249 F,0,85798,85881,0,1 S,0,85798,85881,0.208,1.064 F,0,85881,86298,1 S,0,85881,86464,1.064,1.384 F,0,86298,86464,1,0
Sprite,Foreground,Centre,"SB\wakka.png",320,240 M,0,102131,,320,251 F,0,102131,102214,0,1 S,0,102131,102214,0.3360001,1.592 F,0,102214,102631,1 S,0,102214,102798,1.592,1.704 F,0,102631,102798,1,0
Sprite,Foreground,Centre,"SB\White Effect.png",320,240 F,0,102798,102881,0,1 S,0,102798,103131,0.5039999,2.784 F,0,102881,103131,1,0
Sprite,Foreground,Centre,"SB\White Effect.png",320,240 F,0,103381,103464,0,1 S,0,103381,103548,0.3520005,2.248 F,0,103464,103714,1,0
Sprite,Foreground,Centre,"SB\001.png",320,240 S,0,114964,,0.72 F,0,114964,115298,0,1 M,0,114964,124464,459,235,174,235 F,0,115298,124131,1 F,0,124131,124464,1,0
Sprite,Foreground,Centre,"Lrc\0a.png",320,240 S,0,31798,,0.8080002 F,0,31798,32131,0,1 M,0,31798,37131,255,137,326,133 F,0,32131,36798,1,0.8906 F,0,36798,37131,0.8906,0
Sprite,Foreground,Centre,"Lrc\0b.png",320,240 S,0,36798,,0.7839999 F,0,36798,37131,0,1 M,0,36798,42464,420,372,312,379 F,0,37131,42131,1 F,0,42131,42464,1,0
Sprite,Foreground,Centre,"Lrc\0c.png",320,240 F,0,42131,42464,0,1 M,0,42131,45131,112,69,199,77 F,0,42464,44798,1 F,0,44798,45131,1,0
Sprite,Foreground,Centre,"Lrc\0d.png",320,240 F,0,43464,43798,0,1 M,0,43464,47798,386,155,276,155 F,0,43798,47464,1,0.992 F,0,47464,47798,0.992,0
Sprite,Foreground,Centre,"Lrc\0e.png",320,240 F,0,45131,45464,0,1 M,0,45131,47798,152,403,230,401 F,0,45464,47464,1 F,0,47464,47798,1,0
Sprite,Foreground,Centre,"Lrc\0f.png",320,240 F,0,47631,47964,0,1 M,0,47631,50798,478,272,408,266 F,0,47964,50464,1 F,0,50464,50798,1,0
Sprite,Foreground,Centre,"Lrc\0g.png",320,240 S,0,50631,,1.352 F,0,50631,50964,0,1 M,0,50631,54131,311,173,322,249 F,0,50964,,1 F,0,50964,53964,1 R,0,53798,54798,-0.01600006,-8.16 F,0,53964,54798,1,0
Sprite,Foreground,Centre,"Lrc\0h.png",320,240 R,0,57798,,0 F,0,57798,58131,0,1 S,0,57798,61964,1.016,1.288 F,0,58131,61631,1 F,0,61631,61964,1,0
Sprite,Foreground,Centre,"Lrc\0i.png",320,240 S,0,64298,,0.816 F,0,64298,64631,0,1 M,0,64298,69964,454,248,356,249 F,0,64631,69631,1 F,0,69631,69964,1,0
Sprite,Foreground,Centre,"Lrc\0j.png",320,240 S,0,69798,,0.808 F,0,69798,70131,0,1 M,0,69798,74631,170,126,239,120 F,0,70131,74298,1 F,0,74298,74631,1,0
Sprite,Foreground,Centre,"Lrc\0k.png",320,240 M,0,74631,,312,250 F,0,74631,74964,0,1 S,0,74631,74964,1.168,1.368 F,0,74964,,1 F,0,74964,,1 F,0,74964,75298,1 S,0,74964,75464,1.368,2.848 F,0,75298,75464,1,0
Sprite,Foreground,Centre,"Lrc\0l.png",320,240 S,0,75298,,1 F,0,75381,75548,0,1 M,0,75381,75631,840,68,393,71 F,0,75548,77964,1 M,0,75631,78298,393,71,331,70 F,0,77964,78298,1,0
Sprite,Foreground,Centre,"Lrc\0m.png",320,240 M,0,77964,78214,-143,205,344,212 F,0,77964,78214,0,1 F,0,78214,80631,1 M,0,78214,80964,344,212,442,224 F,0,80631,80964,1,0
Sprite,Foreground,Centre,"SB\OP effect.png",320,240 M,0,83048,,256,356 F,0,83048,83131,0,1 S,0,83048,83131,0.4880004,2.006219 F,0,83131,83798,1,0 S,0,83131,83798,2.006219,2.384
Sprite,Foreground,Centre,"Lrc\0n.png",320,240 M,0,80631,80881,872,361,310,354 F,0,80631,80881,0,1 F,0,80881,83631,1 M,0,80881,83964,310,354,225,356 F,0,83631,83964,1,0
Sprite,Foreground,Centre,"SB\Font effect.png",320,240 M,0,83048,,250,356 F,0,83048,83214,0,1 S,0,83048,83214,0.76,1.784 F,0,83214,83464,1,0
Sprite,Foreground,Centre,"Lrc\0o.png",320,240 M,0,83631,83881,-193,247,315,248 F,0,83631,83881,0,1 M,0,83881,85798,315,248,366,246 F,0,83881,85964,1 M,0,85798,85964,366,246,842,255 F,0,85964,86298,1,0
Sprite,Foreground,Centre,"Lrc\0p.png",320,240 M,0,85964,86214,821,96,367,90 F,0,85964,86298,0,1 M,0,86214,88964,367,90,271,94 F,0,86298,88631,1 F,0,88631,88964,1,0
Sprite,Foreground,Centre,"Lrc\0q.png",320,240 M,0,88631,88881,-209,212,356,206 F,0,88631,88964,0,1 M,0,88881,91631,356,206,432,197 F,0,88964,91298,1 F,0,91298,91631,1,0
Sprite,Foreground,Centre,"Lrc\0r.png",320,240 M,0,91298,91548,873,338,333,336 F,0,91298,91631,0,1 M,0,91548,94298,333,336,229,340 F,0,91631,93964,1 F,0,93964,94298,1,0
Sprite,Foreground,Centre,"SB\OP effect.png",320,240 M,0,93548,,264,332 F,0,93548,93631,0.08399994,1 S,0,93548,93631,0.3040003,1.84 F,0,93631,94464,1,0 S,0,93631,94464,1.84,2.344
Sprite,Foreground,Centre,"SB\Font effect.png",320,240 M,0,93548,,263,337 F,0,93548,93631,0,1 S,0,93548,93631,1,1.896 F,0,93631,93964,1,0 S,0,93631,93964,1.896,2.424
Sprite,Foreground,Centre,"Lrc\0s.png",320,240 S,0,93964,,1 M,0,93964,94214,-184,125,304,117 F,0,93964,94298,0,0.936 M,0,94214,96298,304,117,380,114 F,0,94298,96464,0.936,1 M,0,96298,96548,380,114,819,107 F,0,96464,96798,1,0
Sprite,Foreground,Centre,"Lrc\0t.png",320,240 F,0,96631,96964,0,1 M,0,96631,99631,434,354,374,348 F,0,96964,99298,1 F,0,99298,99631,1,0
Sprite,Foreground,Centre,"Lrc\0u.png",320,240 F,0,99298,99631,0,1 M,0,99298,102298,146,191,218,189 F,0,99631,101964,1 F,0,101964,102298,1,0
Sprite,Foreground,Centre,"SB\OP effect.png",320,240 M,0,103714,,332,252 F,0,103714,103798,0,1 S,0,103714,103798,0.4799998,1.776 F,0,103798,104464,1,0 S,0,103798,104464,1.776,2.112
Sprite,Foreground,Centre,"SB\Font effect.png",320,240 M,0,104381,,312,253 F,0,104381,104464,0,1 S,0,104381,104464,1,1.472 F,0,104464,104881,1,0 S,0,104464,104881,1.472,2.12
Sprite,Foreground,Centre,"Lrc\0w.png",320,240 M,0,108631,,318,249 F,0,108631,108964,0,1 S,0,108631,112631,0.9439998,1.752 F,0,108964,112298,1 F,0,112298,112631,1,0
Sprite,Foreground,Centre,"SB\Kira Kira.png",320,240 M,0,102798,,319,253 F,0,102798,102881,0,1 S,0,102798,102881,0.1759999,1.184 F,0,102881,103464,1,0 S,0,102881,103464,1.184,1.4
Sprite,Foreground,Centre,"SB\OP effect.png",320,240 M,0,9798,,254,311 F,0,9798,9881,0,1 S,0,9798,9881,0.32,1.28 F,0,9881,10131,1,0 S,0,9881,10131,1.28,1.496
Sprite,Foreground,Centre,"SB\OP effect.png",320,240 M,0,10131,,468,247 F,0,10131,10214,0,1 S,0,10131,10214,0.352,1.328 F,0,10214,10464,1,0 S,0,10214,10464,1.328,1.744
Sprite,Foreground,Centre,"SB\wakka.png",320,240 M,0,10798,,319,250 F,0,10798,10881,0,1 S,0,10798,10881,0.2960002,0.656 F,0,10881,11131,1,0 S,0,10881,11131,0.656,0.968
Sprite,Foreground,Centre,"SB\OP effect.png",320,240 M,0,10464,,220,143 F,0,10464,10548,0,1 S,0,10464,10548,0.4640001,1.248 F,0,10548,10798,1,0 S,0,10548,10798,1.248,1.84
Sprite,Foreground,Centre,"SB\004.png",320,240 M,0,64381,,474,244 F,0,64381,64464,0,1 S,0,64381,64464,0.16,0.7119998 F,0,64464,65048,1,0 S,0,64464,65048,0.7119998,0.8239998
Sprite,Foreground,Centre,"SB\OP effect.png",320,240 M,0,74464,,237,341 F,0,74464,74548,0,1 S,0,74464,74548,0.3280002,1.12 F,0,74548,74798,1,0 S,0,74548,74798,1.12,1.68
Sprite,Foreground,Centre,"SB\OP effect.png",320,240 M,0,74798,,496,124 F,0,74798,74881,0,0.948 S,0,74798,74881,0.392,1.176 F,0,74881,75131,0.948,0 S,0,74881,75131,1.176,1.664
Sprite,Foreground,Centre,"SB\OP effect.png",320,240 M,0,85798,,317,250 F,0,85798,85881,0,1 S,0,85798,85881,0.448,2.64 F,0,85881,86464,1,0 S,0,85881,86464,2.64,3.8
Sprite,Foreground,Centre,"SB\002.png",320,240 M,0,83048,,276,356 F,0,83048,83131,0,1 S,0,83048,83131,0.1919998,0.6479996 F,0,83131,83714,1,0 S,0,83131,83714,0.6479996,0.9039996
Sprite,Foreground,Centre,"SB\004.png",320,240 M,0,32381,,280,136 F,0,32381,32464,0,1 S,0,32381,32464,0.1999999,0.5839999 F,0,32464,33048,1,0 S,0,32464,33048,0.5839999,0.6959998
Sprite,Foreground,Centre,"SB\Kira Kira.png",320,240 M,0,53798,,320,247 F,0,53798,53881,0,1 S,0,53798,53881,0.2479999,1.032 F,0,53881,54464,1,0 S,0,53881,54464,1.032,1.168
Sprite,Foreground,Centre,"SB\002.png",320,240 M,0,93548,,260,336 F,0,93548,93631,0,1 S,0,93548,93631,0.2559999,0.7199998 F,0,93631,94214,1,0 S,0,93631,94214,0.7199998,0.912
Sprite,Foreground,Centre,"SB\Kira Kira.png",320,240 F,0,465,631,0,1 S,0,465,631,0.1679999,0.9542342 F,0,631,1131,1,0 S,0,631,1131,0.9542342,1.464
Sprite,Foreground,Centre,"SB\OP effect.png",320,240 M,0,20798,,487,162 F,0,20798,20881,0,1 S,0,20798,20881,0.5039998,1.32 F,0,20881,21131,1,0 S,0,20881,21131,1.32,1.584
Sprite,Foreground,Centre,"SB\OP effect.png",320,240 M,0,21131,,476,342 F,0,21131,21214,0,1 S,0,21131,21214,0.5039999,1.224 F,0,21214,21464,1,0 S,0,21214,21464,1.224,1.592
Sprite,Foreground,Centre,"SB\OP effect.png",320,240 M,0,21464,,194,253 F,0,21464,21548,0,1 S,0,21464,21548,0.44,1.232 F,0,21548,21798,1,0 S,0,21548,21798,1.232,1.52
Sprite,Foreground,Centre,"SB\wakka.png",320,240 M,0,21631,,319,252 F,0,21631,21714,0.05599991,1 S,0,21631,21714,0.2959999,1.072 F,0,21714,21964,1,0 S,0,21714,21964,1.072,1.256
Sprite,Foreground,Centre,"SB\White Effect.png",320,240 M,0,167798,,456,312 F,0,167798,167881,0.08799988,1 S,0,167798,167881,0.272,0.5359999 F,0,167881,168131,1,0 S,0,167881,168131,0.5359999,0.6240001
Sprite,Foreground,Centre,"SB\White Effect.png",320,240 M,0,167964,,192,239 F,0,167964,168048,0.1640001,1 S,0,167964,168048,0.2160002,0.576 F,0,168048,168298,1,0 S,0,168048,168298,0.576,0.6879998
Sprite,Foreground,Centre,"SB\White Effect.png",320,240 M,0,168131,,466,147 F,0,168131,168214,0,1 S,0,168131,168214,0.12,0.52 F,0,168214,168464,1,0 S,0,168214,168464,0.52,0.688
Sprite,Foreground,Centre,"SB\White Effect.png",320,240 M,0,168298,,199,100 F,0,168298,168381,0,1 S,0,168298,168381,0.1680002,0.6880002 F,0,168381,168631,1,0 S,0,168381,168631,0.6880002,0.8160002
Sprite,Foreground,Centre,"SB\OP effect.png",320,240 M,0,167798,,159,346 F,0,167798,167881,0.02800018,1 S,0,167798,167881,0.3680002,1.464 F,0,167881,168131,1,0 S,0,167881,168131,1.464,2.072
Sprite,Foreground,Centre,"SB\OP effect.png",320,240 F,0,168131,,0.156 M,0,168131,168214,492,112,216,99 F,0,168131,168214,0.156,1 S,0,168131,168214,0.3839999,1.112 F,0,168214,168464,1,0 S,0,168214,168464,1.112,1.6
Sprite,Foreground,Centre,"SB\OP effect.png",320,240 M,0,168298,,444,283 F,0,168298,168381,0,1 S,0,168298,168381,0.3360001,1.267363 F,0,168381,168631,1,0 S,0,168381,168631,1.267363,1.68
Sprite,Foreground,Centre,"SB\Kira Kira.png",320,240 M,0,75131,,318,250 F,0,75131,75214,0,1 S,0,75131,75214,0.1,1.116 F,0,75214,75798,1,0 S,0,75214,75798,1.116,1.508
Sprite,Foreground,Centre,"SB\002.png",320,240 M,0,103714,,324,249 F,0,103714,103798,0,1 S,0,103714,103798,0.2560001,0.7600002 F,0,103798,104381,1,0 S,0,103798,104381,0.7600002,1.088
Sprite,Foreground,Centre,"SB\Kira Kira.png",320,240 M,0,147131,,318,248 F,0,147131,147214,0,1 S,0,147131,147214,0.2080002,1.112 F,0,147214,147798,1,0 S,0,147214,147798,1.112,1.408
Sprite,Foreground,Centre,"SB\001.png",320,240 F,0,147131,147464,0,1 M,0,147131,157798,495,345,164,344 F,0,147464,157464,1 F,0,157464,157798,1,0
Sprite,Foreground,Centre,"SB\Kira Kira.png",320,240 M,0,168464,,320,250 F,0,168464,168548,0,1 S,0,168464,168548,0.1840002,1.352 F,0,168548,169131,1,0 S,0,168548,169131,1.352,1.512
Sprite,Foreground,Centre,"SB\004.png",320,240 F,0,189798,190131,0,1 M,0,189798,195464,817,244,256,236 S,0,189964,,1.544 F,0,190131,195131,1 F,0,195131,195464,1,0
Sprite,Foreground,Centre,"SB\Kira Kira.png",320,240 M,0,179131,,319,247 F,0,179131,179214,0,1 S,0,179131,179214,0.1839998,1.24 F,0,179214,179798,1,0 S,0,179214,179798,1.24,1.512
Sprite,Foreground,Centre,"SB\OP effect.png",320,240 M,0,179131,,320,248 F,0,179131,179214,0.03199997,1 S,0,179131,179214,0.4080002,2.848 F,0,179214,179798,1,0 S,0,179214,179798,2.848,3.896
Sprite,Foreground,Centre,"SB\001.png",320,240 S,0,197631,,1.632 F,0,197631,197999,0.01599991,1 M,0,197631,207666,-89,241,501,246 F,0,197999,207333,1 F,0,207333,207666,1,0
Sprite,Foreground,Centre,"SB\002.png",320,240 S,0,207333,,1.792 F,0,207333,207666,0,1 M,0,207333,218166,820,237,168,246 F,0,207666,217832,1 F,0,217832,218166,1,0
Sprite,Foreground,Centre,"Lrc\1s.png",320,240 M,0,195298,195548,317,513,309,250 F,0,195298,195548,0,1 S,0,195298,195798,0.8320003,0.8400002 R,0,195548,195798,0,-6.272 F,0,195548,200166,1 S,0,195798,195964,0.8400002,1.144 S,0,195964,196131,1.144,0.8480003 S,0,196131,196631,0.8480003 S,0,196631,196798,0.8480003,1.168 S,0,196798,196964,1.168,0.8640004 S,0,196964,197833,0.8640004,0.8720004 S,0,197833,200499,0.8720004,1.200001 F,0,200166,200499,1,0
Sprite,Foreground,Centre,"SB\White.jpg",320,240 S,0,11131,,1.616 F,0,11131,11298,0,0.5719997 F,0,11298,11798,0.5719997,0 F,0,11798,21798,0 F,0,21798,21964,0,0.788 F,0,21964,22464,0.788,0 F,0,22464,,0 F,0,22464,74131,0 F,0,74131,74298,0,0.46 F,0,74298,74464,0.46,0 F,0,74464,74964,0 F,0,74964,75131,0,0.64 F,0,75131,75464,0.64,0 F,0,75464,85798,0 F,0,85798,85964,0,0.744 F,0,85964,86298,0.744,0 F,0,86298,96464,0 F,0,96464,96631,0,0.616 F,0,96631,96798,0.616,0 F,0,96798,103131,0 F,0,103131,,0 F,0,103131,,0 F,0,103131,103298,0,0.716 F,0,103298,103464,0.716,0 F,0,103464,167464,0 M,0,167464,,320,240 F,0,167464,167631,0,0.7320001 F,0,167631,167798,0.7320001,0 F,0,167798,168464,0 F,0,168464,168631,0,0.72 F,0,168631,168964,0.72,0 F,0,168964,179131,0 F,0,179131,179298,0,0.7560002 F,0,179298,179464,0.7560002,0 F,0,179464,189798,0 F,0,189798,189964,0,0.6 F,0,189964,190131,0.6,0 F,0,190131,196464,0 F,0,196464,196631,0,0.5759999 F,0,196631,196798,0.5759999,0 F,0,196798,218832,0 F,0,218832,218999,0,0.6680001 F,0,218999,219166,0.6680001,0
Sprite,Foreground,Centre,"SB\wakka.png",320,240 F,0,195464,195548,0,1 S,0,195464,195548,0.2879999,1.664 F,0,195548,196131,1,0 S,0,195548,196131,1.664,1.816 M,0,195798,,320,252
Sprite,Foreground,Centre,"SB\White Effect.png",320,240 M,0,196131,,316,252 F,0,196131,196214,0.04800003,1 S,0,196131,196214,0.2319998,1.104 F,0,196214,196464,1,0 S,0,196214,196464,1.104,1.216
Sprite,Foreground,Centre,"SB\White Effect.png",320,240 M,0,196631,,316,253 F,0,196631,196714,0.08,1 S,0,196631,196714,0.3120001,1.136 F,0,196714,196964,1,0 S,0,196714,196964,1.136,1.256
Sprite,Foreground,Centre,"SB\Kira Kira.png",320,240 M,0,196131,,316,248 F,0,196131,196214,0,1 S,0,196131,196214,0.2159998,1.248 F,0,196214,196464,1,0 S,0,196214,196464,1.248,1.368
Sprite,Foreground,Centre,"Lrc\0x.png",320,240 S,0,125298,,0.8079998 F,0,125298,125631,0,1 M,0,125298,130631,439,383,321,383 F,0,125631,130298,1 F,0,130298,130631,1,0
Sprite,Foreground,Centre,"Lrc\0y.png",320,240 S,0,130298,,0.72 F,0,130298,130631,0,1 M,0,130298,135964,189,85,311,79 F,0,130631,135631,1 F,0,135631,135964,1,0
Sprite,Foreground,Centre,"Lrc\0z.png",320,240 F,0,135631,135964,0,1 M,0,135631,138131,540,190,470,190 F,0,135964,137798,1 F,0,137798,138131,1,0
Sprite,Foreground,Centre,"Lrc\1a.png",320,240 F,0,136964,137298,0,1 M,0,136964,140964,160,315,280,313 F,0,137298,140631,1 F,0,140631,140964,1,0 M,0,140964,,280,313
Sprite,Foreground,Centre,"Lrc\1b.png",320,240 F,0,138131,138464,0,1 M,0,138131,140964,464,400,351,395 F,0,138464,140631,1 F,0,140631,140964,1,0 M,0,140964,,351,395
Sprite,Foreground,Centre,"Lrc\1c.png",320,240 F,0,140964,141298,0,1 M,0,140964,144131,148,223,252,220 F,0,141298,143798,1 F,0,143798,144131,1,0
Sprite,Foreground,Centre,"Lrc\1d.png",320,240 S,0,144131,,1.264 F,0,144131,144464,0,1 M,0,144131,147464,311,111,314,248 F,0,144464,147298,1 R,0,147131,148131,0.01600006,-7.168 F,0,147298,148131,1,0
Sprite,Foreground,Centre,"SB\004.png",320,240 M,0,125798,,427,380 F,0,125798,125881,0,1 S,0,125798,125881,0.1999997,0.5439999 F,0,125881,126464,1,0 S,0,125881,126464,0.5439999,0.7039996
Sprite,Foreground,Centre,"Lrc\1e.png",320,240 M,0,151131,,319,248 F,0,151131,151464,0,1 S,0,151131,155131,1.008,1.352 F,0,151464,154798,1 F,0,154798,155131,1,0
Sprite,Foreground,Centre,"Lrc\1f.png",320,240 S,0,157631,,0.816 F,0,157631,157964,0,0.988 M,0,157631,163131,180,149,322,157 F,0,157964,162798,0.988,1 F,0,162798,163131,1,0
Sprite,Foreground,Centre,"Lrc\1g.png",320,240 S,0,162964,,0.8239998 F,0,162964,163298,0,1 M,0,162964,167464,491,352,360,355 F,0,163298,167131,1 F,0,167131,167464,1,0
Sprite,Foreground,Centre,"SB\004.png",320,240 M,0,157798,,195,147 F,0,157798,157881,0,0.9960001 S,0,157798,157881,0.1920001,0.5200001 F,0,157881,158464,0.9960001,0 S,0,157881,158464,0.5200001,0.6560001
Sprite,Foreground,Centre,"Lrc\1h.png",320,240 M,0,167964,,310,250 F,0,167964,168298,0,1 S,0,167964,168298,0.9840001,1.376 F,0,168298,168631,1 S,0,168298,168798,1.376,3.344 F,0,168631,168798,1,0
Sprite,Foreground,Centre,"Lrc\1j.png",320,240 M,0,171298,171548,863,232,386,237 F,0,171298,171631,0,1 M,0,171548,174131,386,237,289,240 F,0,171631,173798,1 F,0,173798,174131,1,0
Sprite,Foreground,Centre,"Lrc\1i.png",320,240 F,0,168631,168798,0,0.96 M,0,168631,168881,-178,100,203,98 F,0,168798,171131,0.96,1 M,0,168881,171464,203,98,324,98 F,0,171131,171464,1,0
Sprite,Foreground,Centre,"Lrc\1k.png",320,240 M,0,173964,174214,-266,398,274,391 F,0,173964,174298,0.03199997,1 M,0,174214,177131,274,391,374,391 F,0,174298,176798,1 F,0,176798,177131,1,0
Sprite,Foreground,Centre,"Lrc\1l.png",320,240 M,0,176964,177214,778,220,323,225 F,0,176964,177298,0,1 M,0,177214,178964,323,225,267,228 F,0,177298,,1 F,0,177298,178881,1 F,0,178881,179214,1,0 M,0,178964,179214,267,228,-136,223
Sprite,Foreground,Centre,"SB\OP effect.png",320,240 M,0,176381,,382,387 F,0,176381,176464,0,1 S,0,176381,176464,0.3039999,1.416 F,0,176464,177048,1,0 S,0,176464,177048,1.416,1.744
Sprite,Foreground,Centre,"SB\Font effect.png",320,240 M,0,176381,,350,392 F,0,176381,176464,0,1 S,0,176381,176464,0.4479999,1.216 F,0,176464,177048,1,0 S,0,176464,177048,1.216,1.544
Sprite,Foreground,Centre,"SB\002.png",320,240 M,0,176381,,366,391 F,0,176381,176464,0,1 S,0,176381,176464,0.208,0.688 F,0,176464,177048,1,0 S,0,176464,177048,0.688,0.9120002
Sprite,Foreground,Centre,"Lrc\1m.png",320,240 M,0,179298,179548,-199,72,264,72 F,0,179298,179548,0,1 F,0,179548,181631,1 M,0,179548,181964,264,72,350,69 F,0,181631,181964,1,0
Sprite,Foreground,Centre,"Lrc\1n.png",320,240 M,0,181964,182214,877,224,332,222 F,0,181964,182298,0,1 M,0,182214,184631,332,222,240,223 F,0,182298,184298,1 F,0,184298,184631,1,0
Sprite,Foreground,Centre,"Lrc\1o.png",320,240 M,0,184631,184881,-256,347,282,357 F,0,184631,184964,0,1 M,0,184881,187464,282,357,383,353 F,0,184964,187131,1 F,0,187131,187464,1,0
Sprite,Foreground,Centre,"SB\OP effect.png",320,240 M,0,186881,,373,352 F,0,186881,186964,0,1 S,0,186881,186964,0.4959999,1.536 F,0,186964,187548,1,0 S,0,186964,187548,1.536,2.032
Sprite,Foreground,Centre,"SB\Font effect.png",320,240 M,0,186881,,356,356 F,0,186881,186964,0,1 S,0,186881,186964,0.4480002,1.16 F,0,186964,187548,1,0 S,0,186964,187548,1.16,1.536
Sprite,Foreground,Centre,"SB\002.png",320,240 M,0,186881,,365,356 F,0,186881,186964,0,1 S,0,186881,186964,0.1439999,0.816 F,0,186964,187548,1,0 S,0,186964,187548,0.816,1.168
Sprite,Foreground,Centre,"Lrc\1p.png",320,240 M,0,187298,187548,819,246,333,250 F,0,187298,187631,0,1 M,0,187548,189798,333,250,241,250 F,0,187631,189464,1 F,0,189464,189798,1,0
Sprite,Foreground,Centre,"Lrc\1q.png",320,240 F,0,189964,190298,0,1 M,0,189964,192798,366,324,463,325 F,0,190298,192464,1 F,0,192464,192798,1,0
Sprite,Foreground,Centre,"Lrc\1r.png",320,240 F,0,192631,192964,0,1 M,0,192631,195298,240,107,178,108 F,0,192964,194964,1 F,0,194964,195298,1,0
Sprite,Foreground,Centre,"SB\OP effect.png",320,240 M,0,197048,,322,243 F,0,197048,197131,0,1 S,0,197048,197131,0.4879999,1.296 F,0,197131,197714,1,0 S,0,197131,197714,1.296,1.824
Sprite,Foreground,Centre,"SB\002.png",320,240 M,0,197048,,322,249 F,0,197048,197131,0,1 S,0,197048,197131,0.2959999,0.7279997 F,0,197131,197714,1,0 S,0,197131,197714,0.7279997,0.9039996
Sprite,Foreground,Centre,"SB\Font effect.png",320,240 M,0,197714,,322,251 F,0,197714,197833,0,1 S,0,197714,197833,0.3440003,1.123619 F,0,197833,198333,1,0 S,0,197833,198333,1.123619,1.528
Sprite,Foreground,Centre,"Lrc\2i.png",320,240 M,0,201999,,320,251 F,0,201999,202333,0,1 S,0,201999,205833,0.9840001,1.48 F,0,202333,205499,1 F,0,205499,205833,1,0
Sprite,Foreground,Centre,"Lrc\2j.png",320,240 M,0,207333,,324,250 F,0,207333,207666,0,1 S,0,207333,212332,0.9759999,1.616 F,0,207666,211999,1 F,0,211999,212332,1,0
Sprite,Foreground,Centre,"SB\Black.png",320,240 F,0,217666,217999,0,0.5620002 S,0,217832,,1.6 F,0,217999,218499,0.5620002,0.5332117 F,0,218499,219166,0.5332117,0
Sprite,Foreground,Centre,"SB\OP effect.png",320,240 M,0,217832,,226,308 F,0,217832,217916,0,1 S,0,217832,217916,0.3840001,1.56 F,0,217916,218166,1,0 S,0,217916,218166,1.56,1.896
Sprite,Foreground,Centre,"SB\OP effect.png",320,240 M,0,218166,,321,138 F,0,218166,218249,0,1 S,0,218166,218249,0.464,1.336 F,0,218249,218499,1,0 S,0,218249,218499,1.336,1.504
Sprite,Foreground,Centre,"SB\OP effect.png",320,240 M,0,218499,,450,296 F,0,218499,218582,0,1 S,0,218499,218582,0.4799997,2.112 F,0,218582,218832,1,0 S,0,218582,218832,2.112,2.344
Sprite,Foreground,Centre,"SB\White Effect.png",320,240 M,0,218666,,169,157 F,0,218666,218749,0,1 S,0,218666,218749,0.4000002,0.8880003 F,0,218749,218999,1,0 S,0,218749,218999,0.8880003,1.192
//Storyboard Sound Samples
//Background Colour Transformations
3,100,163,162,255

[TimingPoints]
465,333.333333333333,4,1,1,50,1,0
75131,-100,4,1,0,60,0,1
85714,-100,4,1,0,60,0,0
85798,-100,4,1,0,60,0,1
96464,-100,4,1,1,60,0,0
125131,-100,4,1,1,50,0,0
135131,-100,4,1,1,40,0,0
135464,-100,4,1,1,50,0,0
168464,-100,4,1,0,60,0,1
179048,-100,4,1,0,60,0,0
179131,-100,4,1,0,60,0,1
189798,-100,4,1,1,60,0,0
197833,333.333333333333,4,1,1,50,1,0

[Colours]
Combo1 : 203,52,203
Combo2 : 6,238,238
Combo3 : 128,222,22
Combo4 : 227,85,17

[HitObjects]
256,80,465,1,4
128,132,9798,6,0,B|168:112|208:112,2,79.9999999999999,8|8|0
80,216,10798,1,8
108,308,11131,6,0,B|140:340|180:348|224:340|256:308,1,160,4|0
328,252,12131,2,0,B|356:223|400:215|440:223|472:255,2,160,8|0|0
240,212,13798,5,8
160,156,14131,2,0,B|124:132|116:88,2,79.9999999999999,8|0|0
220,80,15131,2,0,B|256:56|296:48|344:56|376:76,1,160,8|0
452,124,16131,1,0
432,216,16465,6,0,B|412:256|384:280|340:280|300:256,1,160,8|0
224,196,17465,2,0,B|184:172|144:168|108:184|84:224,1,160
164,280,18465,6,0,B|152:320|120:344,2,79.9999999999999,8|0|0
260,272,19464,2,0,B|300:256|324:212|320:172|292:136,1,160,8|0
234,62,20464,2,0,B|190:46|150:50|122:86|118:130|146:178|212:176,1,240,0|0
294,140,21798,5,4
388,160,22131,2,0,B|428:156|456:124|460:76|424:36,2,160,8|0|0
320,228,23798,6,0,B|324:272|360:300,2,79.9999999999999,8|0|0
264,152,24798,2,0,B|220:136|184:148|148:172|144:220,2,160,8|0|0
232,244,26464,1,8
164,308,26798,6,0,B|128:328|88:312,1,79.9999999999999,8|0
48,224,27464,2,0,B|48:64,1,160,8|0
144,64,28464,1,0
236,92,28798,2,0,B|280:100|312:68,2,79.9999999999999,8|0|0
168,160,29798,6,0,B|176:200|208:232|256:232|292:200,1,160,8|0
372,148,30798,1,0
452,200,31131,2,0,B|488:172|492:124|472:88|428:72,2,160,8|8|4
368,244,32798,6,0,B|332:264|288:272|252:264|216:236,1,160
172,152,33798,1,0
88,104,34131,2,0,B|48:116|20:148|8:188|16:236,1,160
64,316,35131,2,0,B|88:360|128:368,1,79.9999999999999
156,276,35798,2,0,B|184:248|200:204|196:164,2,120
232,332,37131,6,0,B|264:343|294:340|320:323|335:296,2,120
316,160,38798,2,0,B|304:120|276:88|244:68|200:60,2,160
220,156,40465,2,0,B|184:172|168:220,2,79.9999999999999
268,240,41465,1,0
348,292,41798,2,0,B|384:312|424:312|464:296|488:256,2,160,4|0|0
348,196,43465,6,0,B|344:152|316:125|269:117|230:152,2,160
264,240,45131,2,0,B|240:276|208:296|156:292|120:272,1,160
180,88,46465,2,0,B|216:68|224:24,2,79.9999999999999
84,96,47465,1,0
140,172,47798,5,0
236,168,48131,2,0,B|280:168|320:180|352:204|372:240,1,160
464,264,49131,2,0,B|448:308|412:324,2,79.9999999999999
468,168,50131,2,0,B|472:128|456:88|416:68|368:80,1,160
272,96,51131,6,0,B|219:116|162:111|120:80,2,160,0|0|0
340,164,52798,1,0
280,240,53131,2,0,B|252:272|212:276,2,79.9999999999999,0|0|4
376,252,54131,5,0
468,228,54465,2,0,B|456:184|420:168,2,79.9999999999999,8|0|0
444,320,55465,1,0
352,340,55798,1,8
284,272,56131,1,8
252,180,56465,6,0,B|225:129|180:95|128:90,1,160
120,184,57465,2,0,B|100:221|66:247|26:251,2,120,8|0|0
188,252,58798,2,0,B|206:308|242:320|286:324|330:308|346:272|342:224,2,240,0|0|8
256,184,61131,5,0
324,116,61465,2,0,B|305:59|268:44|225:43|181:59|165:95|169:143,2,240,8|0|0
372,200,63798,1,8
368,296,64131,1,8
288,348,64465,6,0,B|208:372|132:340,1,160,4|0
36,232,65631,2,0,B|116:208|192:240,1,160,4|0
336,252,66798,1,0
432,236,67131,6,0,B|446:191|443:150|425:115|394:91,1,160,4|0
300,52,68131,2,0,B|248:28|180:32|128:56|100:92|92:124,1,240
84,216,69465,1,0
172,260,69798,6,0,B|156:304|120:320|72:312,1,120,4|0
208,172,70965,2,0,B|261:152|318:157|360:188,1,160,4|0
456,296,72131,5,0
372,340,72465,2,0,B|319:360|262:355|220:324,2,160,4|0|0
376,244,74131,2,0,B|397:191|440:153|491:143,1,160,0|8
440,64,75131,5,4
344,60,75464,2,0,B|344:104|332:140|296:168|256:176|212:152,1,200,8|0
132,96,76631,2,2,B|14:120|243:244|125:281,1,240,2|6
260,336,78131,6,0,B|324:348|380:312|392:260|384:220,2,200,8|8|8
288,196,80298,2,0,B|231:167|171:187,1,120,6|0
104,256,81131,6,0,B|80:292|88:336,2,79.9999999999999,8|0|8
196,280,82131,1,0
288,300,82464,2,2,B|368:332|444:312,1,160,0|6
476,120,83798,5,0
404,56,84131,1,0
380,148,84464,2,0,B|412:200|472:220,2,120,2|8|8
308,84,85798,6,0,B|212:43|112:84,1,200,4|0
36,144,86964,2,2,B|1:200|40:257,1,120,2|8
116,316,87798,2,2,B|144:250|116:200,1,120,2|6
260,176,88798,5,8
328,244,89131,1,8
424,256,89464,2,0,B|420:300|380:324,2,79.9999999999999,0|2|0
420,160,90464,2,2,B|400:100|344:72,1,120,2|6
200,56,91464,5,8
124,112,91798,2,0,B|152:152|196:152,1,79.9999999999999,0|8
280,120,92464,2,2,B|297:165|292:199|267:233|220:243,1,160,0|0
88,304,93631,6,0,B|132:348|196:356,1,120,6|2
288,360,94464,2,0,B|376:360|436:304,1,160,0|2
396,220,95464,2,2,B|334:227|290:271,1,120,8|2
340,136,96464,6,0,B|265:80|164:71|71:107,1,280,4|2
64,204,97964,2,2,B|138:259|239:268|332:232,1,280,0|4
388,156,99464,6,0,B|468:176|480:268|404:304,1,200
268,336,100798,2,2,B|223:356|151:368|75:356|31:336,1,240,2|4
96,264,102131,6,0,B|96:171|207:171|207:264,1,200,8|8
420,148,103798,1,0
256,192,104464,12,0,108798
156,64,109631,6,2,B|184:112|250:136,1,120,8|0
315,66,110464,2,0,B|368:38|431:56|467:122|460:253|351:323|275:326|228:280|226:218,1,480
432,84,125131,5,8
340,60,125464,1,8
244,48,125798,6,0,B|184:52|148:88|136:140|168:196,1,200,4|0
172,288,126964,2,0,B|124:332|64:332,2,120
252,236,128298,2,0,B|304:196|368:208,1,120
460,200,129131,2,0,B|456:264|396:300,2,120
436,108,130464,6,0,B|397:56|335:49,2,120
252,48,132131,2,0,B|208:36|172:56,2,79.9999999999999
216,136,133131,2,0,B|160:160|96:136,2,120
312,128,134464,2,0,B|344:204|312:284,1,160,0|4
216,280,135464,6,0,B|216:324|248:356,2,79.9999999999999
144,216,136464,2,0,B|56:212|4:284,1,160,4|0
48,144,137631,2,0,B|80:92|68:28,1,120
160,56,138464,6,0,B|224:80|280:52,2,120
152,152,139798,1,0
240,264,140298,1,0
320,316,140631,2,0,B|360:336|404:332|440:316,1,120
424,224,141464,6,0,B|396:144|440:68,1,160
344,52,142464,2,0,B|280:72|224:52,2,120
168,128,144131,6,0,B|104:188|24:192,1,160
40,96,145131,2,0,B|80:48|144:40,1,120
236,60,145964,1,0
268,152,146298,2,0,B|264:212|224:264|164:288|132:280,1,200,0|4
332,296,147798,6,0,B|288:320|276:364,2,79.9999999999999,8|0|0
416,344,148798,1,0
468,268,149131,2,0,B|500:192|476:112,1,160,8|0
404,48,150131,2,0,B|364:32|324:48,2,79.9999999999999,0|8|8
332,172,151298,6,0,B|280:204|216:184,1,120,8|0
140,128,152131,2,0,B|61:88|9:193|87:236,2,200,0|8|0
180,216,154131,1,8
152,308,154464,2,0,B|132:348|92:356,2,79.9999999999999,8|0|0
244,288,155464,6,0,B|320:256|400:280,2,160,8|8|0
180,216,157131,1,8
224,132,157465,1,8
300,76,157798,6,0,B|360:52|424:64,1,120,4|0
304,220,158965,2,0,B|288:264|304:304,2,79.9999999999999,4|0|0
444,260,160131,1,0
404,172,160465,6,0,B|336:128|248:136,1,160,4|0
156,156,161465,2,0,B|101:170|76:215|81:274|126:314,1,200
220,340,162631,6,0,B|280:360|340:332,2,120,0|4|0
196,248,163965,1,0
260,176,164298,2,0,B|296:152|340:156,2,79.9999999999999,4|0|0
376,260,165465,1,0
436,184,165798,6,0,B|464:148|476:112|472:68|448:32,2,160,4|0|0
340,172,167465,2,0,B|260:144|180:156,1,160,0|8
88,168,168465,6,0,B|108:252|184:288,1,160,4|2
280,308,169465,1,8
420,268,169964,2,0,B|444:324|496:360,2,120,8|2|6
396,124,171465,5,8
332,52,171798,1,8
244,88,172131,2,0,B|208:116|200:152|212:196|248:224,1,160,0|8
328,276,173131,2,0,B|372:320|436:320,2,120,2|6|8
244,320,174465,5,0
156,284,174798,1,8
60,264,175131,2,0,B|24:292|24:336,2,79.9999999999999,2|0|2
80,72,176465,6,0,B|132:136|216:148,1,160,4|2
312,152,177465,1,0
384,88,177798,2,2,B|428:36|488:24,2,120,2|8|2
412,180,179131,6,0,B|432:264|388:336,2,160,4|8|2
316,184,180798,1,0
224,212,181131,2,0,B|160:236|104:208,2,120,8|6|0
168,136,182465,5,0
104,64,182798,2,0,B|72:32|36:24,2,79.9999999999999,2|0|0
200,44,183798,2,2,B|264:52|320:28,2,120,2|6|2
168,136,185131,6,0,B|160:176|180:216,2,79.9999999999999,8|8|0
260,164,186131,2,2,B|365:190|471:153,1,200,0|6
340,76,187465,6,0,B|280:52|220:64,2,120,2|8|2
436,84,188798,2,0,B|480:68|500:32,1,79.9999999999999,2|2
380,188,189798,5,4
324,268,190131,2,2,B|296:296|256:312|212:308|176:292,1,160,0|0
40,336,191298,2,2,B|178:292|-89:147|48:119,1,280,0|4
136,84,192798,5,2
232,72,193131,1,0
312,124,193465,2,2,B|352:200|316:280,2,160,0|2|0
232,72,195131,5,4
140,52,195465,2,0,B|96:67|77:104|73:144|93:184|143:202,1,200,8|8
384,188,197131,1,0
248,52,197833,6,0,B|169:80|331:162|244:198|331:229|173:300|256:335,3,320,4|8|0|8
352,340,202166,6,0,B|400:336|428:312|444:264|436:228|400:192,2,200,0|8|8
160,340,204499,6,0,B|102:335|69:306|50:249|60:206|102:163,2,240
256,324,206833,2,0,B|312:268|304:176,1,160,0|0
256,92,207833,1,8
160,84,208166,1,0
256,192,208499,12,0,212499
456,100,213166,6,0,B|460:148|448:180|412:208|364:200,1,160,8|8
196,108,214499,2,0,B|144:76|80:80,2,120,0|8|8
264,176,215833,5,0
168,284,216333,2,0,B|124:328|60:332,2,120,8|8|0
264,284,217666,2,0,B|223:360|299:396|466:180|551:212|488:284,1,360,0|4
