osu file format v9

[General]
AudioFilename: KOTOKO and Utatsuki Kaori - Double HarmoniZe Shock!!.mp3
AudioLeadIn: 2000
PreviewTime: 75131
Countdown: 0
SampleSet: Normal
StackLeniency: 0.7
Mode: 0
LetterboxInBreaks: 0
EpilepsyWarning: 1

[Editor]
DistanceSpacing: 1.2
BeatDivisor: 4
GridSize: 16

[Metadata]
Title:Double HarmoniZe Shock!!
Artist:KOTOKO & Utatsuki Kaori
Creator:DarknessAngel
Version:D.N.Angel
Source:
Tags:SHORT CIRCUIT II Natteke bossandy palmolive Collab

[Difficulty]
HPDrainRate:7
CircleSize:4
OverallDifficulty:7
ApproachRate:9
SliderMultiplier:1.7
SliderTickRate:1

[Events]
//Background and Video events
0,0,"55165928.jpg"
//Break Periods
2,665,9198
2,112664,124531
//Storyboard Layer 0 (Background)
//Storyboard Layer 1 (Fail)
//Storyboard Layer 2 (Pass)
//Storyboard Layer 3 (Foreground)
Sprite,Foreground,Centre,"SB\BG effect.jpg",320,240 F,0,298,465,0,1 F,0,465,1131,1,0 S,0,465,1131,0.8,0.912 F,0,1131,10964,0 S,0,1131,11131,0.912,0.8 F,0,10964,11131,0,1 F,0,11131,11798,1,0 S,0,11131,11798,0.8,0.912 F,0,11798,21631,0 S,0,11798,21798,0.912,0.801895 F,0,21631,21798,0,1 F,0,21798,22464,1,0 S,0,21798,22464,0.801895,0.913895 F,0,22464,32298,0 S,0,22464,32464,0.913895,0.8018948 F,0,32298,32464,0,1 F,0,32464,33131,1,0 S,0,32464,33131,0.8018948,0.9218948 S,0,33131,,0.9218948 F,0,33131,53631,0 S,0,33131,53798,0.9218948,0.8021446 F,0,53631,53798,0,1 F,0,53798,54464,1,0 S,0,53798,54464,0.8021446,0.913895 F,0,54464,64298,0 S,0,54464,64464,0.913895,0.8003848 F,0,64298,64464,0,1 F,0,64464,65131,1,0 S,0,64464,65131,0.8003848,0.9203848 F,0,65131,74964,0 S,0,65131,75131,0.9203848,0.8067659 F,0,74964,75131,0,1 F,0,75131,75798,1,0 S,0,75131,75798,0.8067659,0.9107656 F,0,75798,85631,0 S,0,75798,85798,0.9107656,0.7982978 F,0,85631,85798,0,1 F,0,85798,86464,1,0 S,0,85798,86464,0.7982978,0.9102979 F,0,86464,104298,0 S,0,86464,104464,0.9102979,0.8054572 F,0,104298,104464,0,1 F,0,104464,105131,1,0 S,0,104464,105131,0.8054572,0.925457 F,0,105131,114964,0 S,0,105131,115131,0.925457,0.8078558 F,0,114964,115131,0,1 F,0,115131,115798,1,0 S,0,115131,115798,0.8078558,0.9118558 F,0,115798,125631,0 S,0,115798,125798,0.9118558,0.8073881 F,0,125631,125798,0,1 F,0,125798,126464,1,0 S,0,125798,126464,0.8073881,0.9113882 F,0,126464,146964,0 S,0,126464,147131,0.9113882,0.8066073 F,0,146964,147131,0,1 F,0,147131,147798,1,0 S,0,147131,147798,0.8066073,0.9106074 F,0,147798,157631,0 S,0,147798,157798,0.9106074,0.8066075 F,0,157631,157798,0,1 F,0,157798,158464,1,0 S,0,157798,158464,0.8066075,0.9186076 F,0,158464,168298,0 S,0,158464,168464,0.9186076,0.7986076 F,0,168298,168464,0,1 F,0,168464,169131,1,0 S,0,168464,169131,0.7986076,0.9106077 F,0,169131,178964,0 S,0,169131,179131,0.9106077,0.7986077 F,0,178964,179131,0,1 F,0,179131,179798,1,0 S,0,179131,179798,0.7986077,0.9106077 F,0,179798,197631,0 S,0,179798,197833,0.9106077,0.7986077 F,0,197631,197833,0,0.7720001 F,0,197833,198499,0.7720001,0 S,0,197833,198499,0.7986077,0.9186076 F,0,198499,218999,0 S,0,198499,219166,0.9186076,0.7986075 F,0,218999,219166,0,0.8799999 F,0,219166,219832,0.8799999,0 S,0,219166,219832,0.7986075,0.9186075
Sprite,Foreground,Centre,"Extra\title.png",320,240 M,0,1798,,320,195 S,0,1798,,0.6160001 F,0,1798,2131,0,1 F,0,2131,8131,1 F,0,8131,8798,1,0
Sprite,Foreground,Centre,"SB\White Effect.png",320,240 M,0,1798,,320,226 F,0,1798,1964,0,0.5309671 S,0,1798,2131,0.288,0.8640001 F,0,1964,2131,0.5309671,0
Sprite,Foreground,Centre,"Extra\singer.png",320,240 M,0,4464,,320,387 S,0,4464,,0.7760004 F,0,4464,4798,0,1 F,0,4798,8131,1 F,0,8131,8464,1,0
Sprite,Foreground,Centre,"SB\Font effect.png",320,240 M,0,4464,,315,388 F,0,4464,4631,0,0.712 S,0,4464,4798,0.1,1.24 F,0,4631,4798,0.712,0 S,0,4798,4964,1.24,1.384
Sprite,Foreground,Centre,"SB\001.png",320,240 S,0,1798,,0.9440001 F,0,1798,2131,0,1 M,0,1798,8464,648,212,273,215 F,0,2131,8131,1 F,0,8131,8464,1,0
Sprite,Foreground,Centre,"SB\001.png",320,240 S,0,4464,,0.5119998 F,0,4464,4798,0.07600006,1 M,0,4464,8464,205,382,388,387 F,0,4798,8131,1 F,0,8131,8464,1,0
Sprite,Foreground,Centre,"SB\White Effect.png",320,240 M,0,9798,,526,125 F,0,9798,9881,0,1 S,0,9798,9964,0.1,0.5247088 F,0,9881,10131,1,0
Sprite,Foreground,Centre,"SB\White Effect.png",320,240 M,0,10131,,460,350 F,0,10131,10214,0,1 S,0,10131,10298,0.2640002,0.6080005 F,0,10214,10464,1,0
Sprite,Foreground,Centre,"SB\White Effect.png",320,240 M,0,10464,,150,208 F,0,10464,10548,0,1 S,0,10464,10631,0.2479999,0.5520001 F,0,10548,10798,1,0
Sprite,Foreground,Centre,"SB\White Effect.png",320,240 M,0,10631,,376,120 F,0,10631,10714,0,1 S,0,10631,10964,0.2239999,0.5439999 F,0,10714,10964,1,0
Sprite,Foreground,Centre,"SB\White Effect.png",320,240 M,0,10798,,315,389 F,0,10798,10881,0.01199982,1 S,0,10798,10964,0.232,0.712 F,0,10881,11131,1,0
Sprite,Foreground,Centre,"SB\White Effect.png",320,240 M,0,10964,,514,249 F,0,10964,11048,0,1 S,0,10964,11131,0.208,0.5999997 F,0,11048,11298,1,0
Sprite,Foreground,Centre,"SB\Kira Kira.png",320,240 F,0,11131,11214,0,1 S,0,11131,11214,0.208,1.12 F,0,11214,11464,1 S,0,11214,11798,1.12,1.424 F,0,11464,11798,1,0
Sprite,Foreground,Centre,"SB\004.png",320,240 S,0,11464,,1.608 F,0,11464,11798,0,1 M,0,11464,21798,691,247,18,230 F,0,11798,21464,1 F,0,21464,21798,1,0 M,0,21798,,18,230
Sprite,Foreground,Centre,"SB\White Effect.png",320,240 M,0,20964,,260,368 F,0,20964,21048,0,1 S,0,20964,21131,0.1760001,0.6079999 F,0,21048,21298,1,0
Sprite,Foreground,Centre,"SB\White Effect.png",320,240 M,0,20798,,157,141 F,0,20798,20881,0,1 S,0,20798,20964,0.2720003,0.5600003 F,0,20881,21131,1,0
Sprite,Foreground,Centre,"SB\White Effect.png",320,240 M,0,21131,,522,118 F,0,21131,21214,0,1 S,0,21131,21298,0.1679999,0.6320001 F,0,21214,21464,1,0
Sprite,Foreground,Centre,"SB\White Effect.png",320,240 M,0,21298,,482,374 F,0,21298,21381,0,1 S,0,21298,21464,0.2479999,0.6639996 F,0,21381,21631,1,0
Sprite,Foreground,Centre,"SB\White Effect.png",320,240 M,0,21464,,332,152 F,0,21464,21548,0,1 S,0,21464,21631,0.2640001,0.5519999 F,0,21548,21798,1,0
Sprite,Foreground,Centre,"SB\White Effect.png",320,240 M,0,21631,,144,376 F,0,21631,21714,0,1 S,0,21631,21798,0.248,0.6960002 F,0,21714,21964,1,0
Sprite,Foreground,Centre,"SB\Kira Kira.png",320,240 F,0,21798,21881,0,1 S,0,21798,21881,0.1,1.188 F,0,21881,22464,1,0 S,0,21881,22464,1.188,1.356
Sprite,Foreground,Centre,"SB\001.png",320,240 S,0,22131,,1.72 F,0,22131,22464,0,1 M,0,22131,31131,-76,244,728,236 F,0,22464,30798,1 F,0,30798,31131,1,0
Sprite,Foreground,Centre,"SB\Black.png",320,240 M,0,31131,,320,240 S,0,31131,,1.608 F,0,31131,32131,0,0.62 F,0,32131,32464,0.62,0 F,0,32464,124464,0 F,0,124464,125464,0,0.6080001 F,0,125464,125798,0.6080001,0
Sprite,Foreground,Centre,"SB\spotlight.png",320,240 M,0,32464,,117,296 F,0,32464,,0 F,0,32464,32631,0,1 S,0,32464,73214,5 F,0,32631,36964,1 F,0,36964,37298,1,0 F,0,37298,,0 F,0,37298,,0 F,0,37298,,0 F,0,37298,,0 F,0,37298,,0 F,0,37298,42131,0 F,0,42131,42464,0,1 F,0,42464,43631,1 F,0,43631,,1 F,0,43631,43964,1,0 F,0,43964,44798,0 F,0,44798,45131,0,1 F,0,45131,47631,1 F,0,47631,47964,1,0 F,0,47964,69464,0 F,0,69464,69798,0,1 F,0,69798,74131,1 F,0,74131,74464,1,0 F,0,74464,,0 F,0,74464,99131,0 F,0,99131,99464,0,1 F,0,99464,101798,1 F,0,101798,102131,1,0 F,0,102131,130131,0 F,0,130131,,0 F,0,130131,130464,0,1 F,0,130464,135631,1 F,0,135631,135964,1,0 F,0,135964,136798,0 F,0,136798,137131,0,1 F,0,137131,138298,1 F,0,138298,138631,1,0 F,0,138631,140798,0 F,0,140798,141131,0,1 F,0,141131,143964,1 F,0,143964,144298,1,0 F,0,144298,157631,0 F,0,157631,157964,0,1 F,0,157964,162964,1 F,0,162964,163298,1,0 F,0,163298,192464,0 F,0,192464,192798,0,1 F,0,192798,195298,1 F,0,195298,195631,1,0
Sprite,Foreground,Centre,"SB\spotlight.png",320,240 F,0,36798,37131,0,1 F,0,36798,37131,0,1 M,0,36798,37464,462,241,425,249 S,0,36798,37464,5,4.352 F,0,37131,,1 F,0,37131,,1 F,0,37131,,1 F,0,37131,37464,1 M,0,37464,,425,249 F,0,37464,,1 F,0,37464,,1 F,0,37464,42298,1 F,0,42298,42631,1,0 F,0,42631,43464,0 F,0,43464,43798,0,1 F,0,43798,44964,1 F,0,44964,45298,1,0 F,0,45298,,0 F,0,45298,47464,0 F,0,47464,47798,0,1 F,0,47798,50631,1 F,0,50631,,1 F,0,50631,50964,1,0 F,0,50964,,0 F,0,50964,,0 F,0,50964,64298,0,0.08 F,0,64298,64631,0.08,1 F,0,64631,69631,1 F,0,69631,69964,1,0 F,0,69964,96631,0 F,0,96631,96964,0,1 F,0,96964,99298,1 F,0,99298,99631,1,0 F,0,99631,125464,0 F,0,125464,125798,0,1 F,0,125798,130298,1 F,0,130298,130631,1,0 F,0,130631,135464,0 F,0,135464,135798,0,1 F,0,135798,136964,1 F,0,136964,137298,1,0 F,0,137298,138131,0 F,0,138131,138464,0,1 F,0,138464,140964,1 F,0,140964,141298,1,0 F,0,141298,162798,0 F,0,162798,163131,0,1 F,0,163131,167131,1 F,0,167131,167464,1,0 F,0,167464,189964,0 F,0,189964,190298,0,1 F,0,190298,192631,1 F,0,192631,192964,1,0
Sprite,Foreground,Centre,"SB\Black Ring.png",320,240 F,0,50464,50798,0,1 S,0,50631,,0.8000001 F,0,50798,53631,1 F,0,53631,54131,1,0 F,0,54131,,0 F,0,54131,83464,0 F,0,83464,83798,0,1 F,0,83798,85464,1 F,0,85464,,1 F,0,85464,85798,1,0 F,0,85798,89055,0,0.008982062
Sprite,Foreground,Centre,"SB\001.png",320,240 S,0,53798,,0.864 F,0,53798,54131,0,1 M,0,53798,64464,521,354,218,361 F,0,54131,64131,1 F,0,64131,64464,1,0
Sprite,Foreground,Centre,"SB\White Effect.png",320,240 M,0,74464,,128,117 F,0,74464,74548,0,1 S,0,74464,74631,0.224,0.6479999 F,0,74548,74798,1,0
Sprite,Foreground,Centre,"SB\White Effect.png",320,240 M,0,74631,,462,371 F,0,74631,74714,0.01600006,1 S,0,74631,74798,0.2479999,0.6159998 F,0,74714,74964,1,0
Sprite,Foreground,Centre,"SB\White Effect.png",320,240 M,0,74798,,184,357 F,0,74798,74881,0.2760001,1 S,0,74798,74964,0.3199998,0.5759999 F,0,74881,75131,1,0.04799972
Sprite,Foreground,Centre,"SB\White Effect.png",320,240 M,0,74964,,468,101 F,0,74964,75048,0,0.88 S,0,74964,75131,0.248,0.5680001 F,0,75048,75298,0.88,0
Sprite,Foreground,Centre,"SB\Black Ring.png",320,240 F,0,93798,94131,0,1 F,0,94131,96131,1 F,0,96131,96464,1,0 F,0,96464,143798,0 F,0,143798,144131,0,1 S,0,144131,,0.7999998 F,0,144131,147131,1 F,0,147131,147464,1,0 F,0,147464,176798,0 F,0,176798,177131,0,1 F,0,177131,178798,1 F,0,178798,179131,1,0 F,0,179131,187131,0 F,0,187131,187464,0,1 F,0,187464,189464,1 F,0,189464,189798,1,0
Sprite,Foreground,Centre,"SB\spotlight.png",320,240 F,0,74964,75298,0,0.824 S,0,74964,75298,1.288,2.136 M,0,74964,77964,409,108 F,0,75298,83631,0.824,0.827411 M,0,77964,78131,409,108,131,263 M,0,78131,80631,131,263,132,263 M,0,80631,80798,132,263,412,119 M,0,80798,85798,412,119,422,117 F,0,83631,83964,0.827411,0 F,0,83964,85964,0 M,0,85798,85964,422,117,121,277 F,0,85964,86298,0,0.8361725 M,0,85964,88631,121,277,120,276 F,0,86298,93964,0.8361725,0.784 M,0,88631,88798,120,276,416,112 M,0,88798,91298,416,112,417,105 M,0,91298,91464,417,105,131,279 M,0,91464,168631,131,279,425,102 F,0,93964,94298,0.784,0 F,0,94298,168631,0 F,0,168631,168964,0,0.808 M,0,168631,171298,425,102,424,100 F,0,168964,176964,0.808,0.8140754 M,0,171298,171464,424,100,139,279 M,0,171464,173964,139,279,136,276 M,0,173964,174131,136,276,411,116 M,0,174131,,411,116 M,0,174131,178964,411,116,405,102 F,0,176964,177298,0.8140754,0 F,0,177298,,0 F,0,177298,179298,0 M,0,178964,179131,405,102,136,271 M,0,179131,181964,136,271,135,270 F,0,179298,179631,0,0.808 F,0,179631,187298,0.808,0.8240001 M,0,181964,182131,135,270,411,115 M,0,182131,184631,411,115,409,115 M,0,184631,184798,409,115,139,280 F,0,187298,187631,0.8240001,0
Sprite,Foreground,Centre,"SB\Light2.png",320,240 M,0,75298,,317,336 S,0,75298,,1.384 F,0,75298,75548,0,1 R,0,75298,96464,-12.464,-18.752 F,0,75548,75798,1 F,0,75798,79172,1,0.9680001 F,0,75798,96131,1 F,0,75798,96131,1 F,0,96131,96464,1,0 F,0,96464,104631,0 R,0,96464,168631,-18.752,-18.768 F,0,104631,168631,0 F,0,168631,168964,0,1 R,0,168631,189798,-18.768,-25.792 F,0,168964,189464,1 F,0,168964,189464,1 F,0,189464,189798,1,0
Sprite,Foreground,Centre,"SB\004.png",320,240 F,0,96631,96964,0,1 M,0,96631,103298,459,249,157,245 F,0,96964,102964,1 F,0,102964,103298,1,0
Sprite,Foreground,Centre,"SB\001.png",320,240 F,0,104631,104964,0,1 M,0,104631,112464,184,244,477,232 F,0,104964,112131,1 F,0,112131,112464,1,0
Sprite,Foreground,Centre,"Extra\DarknessAngel.png",320,240 F,0,114964,115298,0,1 F,0,115298,124131,1 F,0,124131,124464,1,0
Sprite,Foreground,Centre,"SB\Font effect.png",320,240 F,0,115131,115214,0,1 S,0,115131,115214,0.6640001,1.256 F,0,115214,115464,1,0 S,0,115214,115464,1.256,1.608
Sprite,Foreground,Centre,"Lrc\0v.png",320,240 M,0,101964,102214,307,508,315,250 F,0,101964,102214,0.03600034,1 F,0,102214,,1 R,0,102214,102464,-0.01600037,-6.272 F,0,102214,106964,1 S,0,102464,102631,0.9760002,1.368 S,0,102631,102798,1.368,1.048 S,0,102798,103298,1.048,1.04 S,0,103298,103464,1.04,1.392 S,0,103464,103631,1.392,1.016 S,0,103631,104464,1.016,1.024 S,0,104464,107298,1.024,1.392 F,0,106964,107298,1,0
Sprite,Foreground,Centre,"SB\Kira Kira.png",320,240 M,0,85798,,318,249 F,0,85798,85881,0,1 S,0,85798,85881,0.208,1.064 F,0,85881,86298,1 S,0,85881,86464,1.064,1.384 F,0,86298,86464,1,0
Sprite,Foreground,Centre,"SB\wakka.png",320,240 M,0,102131,,320,251 F,0,102131,102214,0,1 S,0,102131,102214,0.3360001,1.592 F,0,102214,102631,1 S,0,102214,102798,1.592,1.704 F,0,102631,102798,1,0
Sprite,Foreground,Centre,"SB\White Effect.png",320,240 F,0,102798,102881,0,1 S,0,102798,103131,0.5039999,2.784 F,0,102881,103131,1,0
Sprite,Foreground,Centre,"SB\White Effect.png",320,240 F,0,103381,103464,0,1 S,0,103381,103548,0.3520005,2.248 F,0,103464,103714,1,0
Sprite,Foreground,Centre,"SB\001.png",320,240 S,0,114964,,0.72 F,0,114964,115298,0,1 M,0,114964,124464,459,235,174,235 F,0,115298,124131,1 F,0,124131,124464,1,0
Sprite,Foreground,Centre,"Lrc\0a.png",320,240 S,0,31798,,0.8080002 F,0,31798,32131,0,1 M,0,31798,37131,255,137,326,133 F,0,32131,36798,1,0.8906 F,0,36798,37131,0.8906,0
Sprite,Foreground,Centre,"Lrc\0b.png",320,240 S,0,36798,,0.7839999 F,0,36798,37131,0,1 M,0,36798,42464,420,372,312,379 F,0,37131,42131,1 F,0,42131,42464,1,0
Sprite,Foreground,Centre,"Lrc\0c.png",320,240 F,0,42131,42464,0,1 M,0,42131,45131,112,69,199,77 F,0,42464,44798,1 F,0,44798,45131,1,0
Sprite,Foreground,Centre,"Lrc\0d.png",320,240 F,0,43464,43798,0,1 M,0,43464,47798,386,155,276,155 F,0,43798,47464,1,0.992 F,0,47464,47798,0.992,0
Sprite,Foreground,Centre,"Lrc\0e.png",320,240 F,0,45131,45464,0,1 M,0,45131,47798,152,403,230,401 F,0,45464,47464,1 F,0,47464,47798,1,0
Sprite,Foreground,Centre,"Lrc\0f.png",320,240 F,0,47631,47964,0,1 M,0,47631,50798,478,272,408,266 F,0,47964,50464,1 F,0,50464,50798,1,0
Sprite,Foreground,Centre,"Lrc\0g.png",320,240 S,0,50631,,1.352 F,0,50631,50964,0,1 M,0,50631,54131,311,173,322,249 F,0,50964,,1 F,0,50964,53964,1 R,0,53798,54798,-0.01600006,-8.16 F,0,53964,54798,1,0
Sprite,Foreground,Centre,"Lrc\0h.png",320,240 R,0,57798,,0 F,0,57798,58131,0,1 S,0,57798,61964,1.016,1.288 F,0,58131,61631,1 F,0,61631,61964,1,0
Sprite,Foreground,Centre,"Lrc\0i.png",320,240 S,0,64298,,0.816 F,0,64298,64631,0,1 M,0,64298,69964,454,248,356,249 F,0,64631,69631,1 F,0,69631,69964,1,0
Sprite,Foreground,Centre,"Lrc\0j.png",320,240 S,0,69798,,0.808 F,0,69798,70131,0,1 M,0,69798,74631,170,126,239,120 F,0,70131,74298,1 F,0,74298,74631,1,0
Sprite,Foreground,Centre,"Lrc\0k.png",320,240 M,0,74631,,312,250 F,0,74631,74964,0,1 S,0,74631,74964,1.168,1.368 F,0,74964,,1 F,0,74964,,1 F,0,74964,75298,1 S,0,74964,75464,1.368,2.848 F,0,75298,75464,1,0
Sprite,Foreground,Centre,"Lrc\0l.png",320,240 S,0,75298,,1 F,0,75381,75548,0,1 M,0,75381,75631,840,68,393,71 F,0,75548,77964,1 M,0,75631,78298,393,71,331,70 F,0,77964,78298,1,0
Sprite,Foreground,Centre,"Lrc\0m.png",320,240 M,0,77964,78214,-143,205,344,212 F,0,77964,78214,0,1 F,0,78214,80631,1 M,0,78214,80964,344,212,442,224 F,0,80631,80964,1,0
Sprite,Foreground,Centre,"SB\OP effect.png",320,240 M,0,83048,,256,356 F,0,83048,83131,0,1 S,0,83048,83131,0.4880004,2.006219 F,0,83131,83798,1,0 S,0,83131,83798,2.006219,2.384
Sprite,Foreground,Centre,"Lrc\0n.png",320,240 M,0,80631,80881,872,361,310,354 F,0,80631,80881,0,1 F,0,80881,83631,1 M,0,80881,83964,310,354,225,356 F,0,83631,83964,1,0
Sprite,Foreground,Centre,"SB\Font effect.png",320,240 M,0,83048,,250,356 F,0,83048,83214,0,1 S,0,83048,83214,0.76,1.784 F,0,83214,83464,1,0
Sprite,Foreground,Centre,"Lrc\0o.png",320,240 M,0,83631,83881,-193,247,315,248 F,0,83631,83881,0,1 M,0,83881,85798,315,248,366,246 F,0,83881,85964,1 M,0,85798,85964,366,246,842,255 F,0,85964,86298,1,0
Sprite,Foreground,Centre,"Lrc\0p.png",320,240 M,0,85964,86214,821,96,367,90 F,0,85964,86298,0,1 M,0,86214,88964,367,90,271,94 F,0,86298,88631,1 F,0,88631,88964,1,0
Sprite,Foreground,Centre,"Lrc\0q.png",320,240 M,0,88631,88881,-209,212,356,206 F,0,88631,88964,0,1 M,0,88881,91631,356,206,432,197 F,0,88964,91298,1 F,0,91298,91631,1,0
Sprite,Foreground,Centre,"Lrc\0r.png",320,240 M,0,91298,91548,873,338,333,336 F,0,91298,91631,0,1 M,0,91548,94298,333,336,229,340 F,0,91631,93964,1 F,0,93964,94298,1,0
Sprite,Foreground,Centre,"SB\OP effect.png",320,240 M,0,93548,,264,332 F,0,93548,93631,0.08399994,1 S,0,93548,93631,0.3040003,1.84 F,0,93631,94464,1,0 S,0,93631,94464,1.84,2.344
Sprite,Foreground,Centre,"SB\Font effect.png",320,240 M,0,93548,,263,337 F,0,93548,93631,0,1 S,0,93548,93631,1,1.896 F,0,93631,93964,1,0 S,0,93631,93964,1.896,2.424
Sprite,Foreground,Centre,"Lrc\0s.png",320,240 S,0,93964,,1 M,0,93964,94214,-184,125,304,117 F,0,93964,94298,0,0.936 M,0,94214,96298,304,117,380,114 F,0,94298,96464,0.936,1 M,0,96298,96548,380,114,819,107 F,0,96464,96798,1,0
Sprite,Foreground,Centre,"Lrc\0t.png",320,240 F,0,96631,96964,0,1 M,0,96631,99631,434,354,374,348 F,0,96964,99298,1 F,0,99298,99631,1,0
Sprite,Foreground,Centre,"Lrc\0u.png",320,240 F,0,99298,99631,0,1 M,0,99298,102298,146,191,218,189 F,0,99631,101964,1 F,0,101964,102298,1,0
Sprite,Foreground,Centre,"SB\OP effect.png",320,240 M,0,103714,,332,252 F,0,103714,103798,0,1 S,0,103714,103798,0.4799998,1.776 F,0,103798,104464,1,0 S,0,103798,104464,1.776,2.112
Sprite,Foreground,Centre,"SB\Font effect.png",320,240 M,0,104381,,312,253 F,0,104381,104464,0,1 S,0,104381,104464,1,1.472 F,0,104464,104881,1,0 S,0,104464,104881,1.472,2.12
Sprite,Foreground,Centre,"Lrc\0w.png",320,240 M,0,108631,,318,249 F,0,108631,108964,0,1 S,0,108631,112631,0.9439998,1.752 F,0,108964,112298,1 F,0,112298,112631,1,0
Sprite,Foreground,Centre,"SB\Kira Kira.png",320,240 M,0,102798,,319,253 F,0,102798,102881,0,1 S,0,102798,102881,0.1759999,1.184 F,0,102881,103464,1,0 S,0,102881,103464,1.184,1.4
Sprite,Foreground,Centre,"SB\OP effect.png",320,240 M,0,9798,,254,311 F,0,9798,9881,0,1 S,0,9798,9881,0.32,1.28 F,0,9881,10131,1,0 S,0,9881,10131,1.28,1.496
Sprite,Foreground,Centre,"SB\OP effect.png",320,240 M,0,10131,,468,247 F,0,10131,10214,0,1 S,0,10131,10214,0.352,1.328 F,0,10214,10464,1,0 S,0,10214,10464,1.328,1.744
Sprite,Foreground,Centre,"SB\wakka.png",320,240 M,0,10798,,319,250 F,0,10798,10881,0,1 S,0,10798,10881,0.2960002,0.656 F,0,10881,11131,1,0 S,0,10881,11131,0.656,0.968
Sprite,Foreground,Centre,"SB\OP effect.png",320,240 M,0,10464,,220,143 F,0,10464,10548,0,1 S,0,10464,10548,0.4640001,1.248 F,0,10548,10798,1,0 S,0,10548,10798,1.248,1.84
Sprite,Foreground,Centre,"SB\004.png",320,240 M,0,64381,,474,244 F,0,64381,64464,0,1 S,0,64381,64464,0.16,0.7119998 F,0,64464,65048,1,0 S,0,64464,65048,0.7119998,0.8239998
Sprite,Foreground,Centre,"SB\OP effect.png",320,240 M,0,74464,,237,341 F,0,74464,74548,0,1 S,0,74464,74548,0.3280002,1.12 F,0,74548,74798,1,0 S,0,74548,74798,1.12,1.68
Sprite,Foreground,Centre,"SB\OP effect.png",320,240 M,0,74798,,496,124 F,0,74798,74881,0,0.948 S,0,74798,74881,0.392,1.176 F,0,74881,75131,0.948,0 S,0,74881,75131,1.176,1.664
Sprite,Foreground,Centre,"SB\OP effect.png",320,240 M,0,85798,,317,250 F,0,85798,85881,0,1 S,0,85798,85881,0.448,2.64 F,0,85881,86464,1,0 S,0,85881,86464,2.64,3.8
Sprite,Foreground,Centre,"SB\002.png",320,240 M,0,83048,,276,356 F,0,83048,83131,0,1 S,0,83048,83131,0.1919998,0.6479996 F,0,83131,83714,1,0 S,0,83131,83714,0.6479996,0.9039996
Sprite,Foreground,Centre,"SB\004.png",320,240 M,0,32381,,280,136 F,0,32381,32464,0,1 S,0,32381,32464,0.1999999,0.5839999 F,0,32464,33048,1,0 S,0,32464,33048,0.5839999,0.6959998
Sprite,Foreground,Centre,"SB\Kira Kira.png",320,240 M,0,53798,,320,247 F,0,53798,53881,0,1 S,0,53798,53881,0.2479999,1.032 F,0,53881,54464,1,0 S,0,53881,54464,1.032,1.168
Sprite,Foreground,Centre,"SB\002.png",320,240 M,0,93548,,260,336 F,0,93548,93631,0,1 S,0,93548,93631,0.2559999,0.7199998 F,0,93631,94214,1,0 S,0,93631,94214,0.7199998,0.912
Sprite,Foreground,Centre,"SB\Kira Kira.png",320,240 F,0,465,631,0,1 S,0,465,631,0.1679999,0.9542342 F,0,631,1131,1,0 S,0,631,1131,0.9542342,1.464
Sprite,Foreground,Centre,"SB\OP effect.png",320,240 M,0,20798,,487,162 F,0,20798,20881,0,1 S,0,20798,20881,0.5039998,1.32 F,0,20881,21131,1,0 S,0,20881,21131,1.32,1.584
Sprite,Foreground,Centre,"SB\OP effect.png",320,240 M,0,21131,,476,342 F,0,21131,21214,0,1 S,0,21131,21214,0.5039999,1.224 F,0,21214,21464,1,0 S,0,21214,21464,1.224,1.592
Sprite,Foreground,Centre,"SB\OP effect.png",320,240 M,0,21464,,194,253 F,0,21464,21548,0,1 S,0,21464,21548,0.44,1.232 F,0,21548,21798,1,0 S,0,21548,21798,1.232,1.52
Sprite,Foreground,Centre,"SB\wakka.png",320,240 M,0,21631,,319,252 F,0,21631,21714,0.05599991,1 S,0,21631,21714,0.2959999,1.072 F,0,21714,21964,1,0 S,0,21714,21964,1.072,1.256
Sprite,Foreground,Centre,"SB\White Effect.png",320,240 M,0,167798,,456,312 F,0,167798,167881,0.08799988,1 S,0,167798,167881,0.272,0.5359999 F,0,167881,168131,1,0 S,0,167881,168131,0.5359999,0.6240001
Sprite,Foreground,Centre,"SB\White Effect.png",320,240 M,0,167964,,192,239 F,0,167964,168048,0.1640001,1 S,0,167964,168048,0.2160002,0.576 F,0,168048,168298,1,0 S,0,168048,168298,0.576,0.6879998
Sprite,Foreground,Centre,"SB\White Effect.png",320,240 M,0,168131,,466,147 F,0,168131,168214,0,1 S,0,168131,168214,0.12,0.52 F,0,168214,168464,1,0 S,0,168214,168464,0.52,0.688
Sprite,Foreground,Centre,"SB\White Effect.png",320,240 M,0,168298,,199,100 F,0,168298,168381,0,1 S,0,168298,168381,0.1680002,0.6880002 F,0,168381,168631,1,0 S,0,168381,168631,0.6880002,0.8160002
Sprite,Foreground,Centre,"SB\OP effect.png",320,240 M,0,167798,,159,346 F,0,167798,167881,0.02800018,1 S,0,167798,167881,0.3680002,1.464 F,0,167881,168131,1,0 S,0,167881,168131,1.464,2.072
Sprite,Foreground,Centre,"SB\OP effect.png",320,240 F,0,168131,,0.156 M,0,168131,168214,492,112,216,99 F,0,168131,168214,0.156,1 S,0,168131,168214,0.3839999,1.112 F,0,168214,168464,1,0 S,0,168214,168464,1.112,1.6
Sprite,Foreground,Centre,"SB\OP effect.png",320,240 M,0,168298,,444,283 F,0,168298,168381,0,1 S,0,168298,168381,0.3360001,1.267363 F,0,168381,168631,1,0 S,0,168381,168631,1.267363,1.68
Sprite,Foreground,Centre,"SB\Kira Kira.png",320,240 M,0,75131,,318,250 F,0,75131,75214,0,1 S,0,75131,75214,0.1,1.116 F,0,75214,75798,1,0 S,0,75214,75798,1.116,1.508
Sprite,Foreground,Centre,"SB\002.png",320,240 M,0,103714,,324,249 F,0,103714,103798,0,1 S,0,103714,103798,0.2560001,0.7600002 F,0,103798,104381,1,0 S,0,103798,104381,0.7600002,1.088
Sprite,Foreground,Centre,"SB\Kira Kira.png",320,240 M,0,147131,,318,248 F,0,147131,147214,0,1 S,0,147131,147214,0.2080002,1.112 F,0,147214,147798,1,0 S,0,147214,147798,1.112,1.408
Sprite,Foreground,Centre,"SB\001.png",320,240 F,0,147131,147464,0,1 M,0,147131,157798,495,345,164,344 F,0,147464,157464,1 F,0,157464,157798,1,0
Sprite,Foreground,Centre,"SB\Kira Kira.png",320,240 M,0,168464,,320,250 F,0,168464,168548,0,1 S,0,168464,168548,0.1840002,1.352 F,0,168548,169131,1,0 S,0,168548,169131,1.352,1.512
Sprite,Foreground,Centre,"SB\004.png",320,240 F,0,189798,190131,0,1 M,0,189798,195464,817,244,256,236 S,0,189964,,1.544 F,0,190131,195131,1 F,0,195131,195464,1,0
Sprite,Foreground,Centre,"SB\Kira Kira.png",320,240 M,0,179131,,319,247 F,0,179131,179214,0,1 S,0,179131,179214,0.1839998,1.24 F,0,179214,179798,1,0 S,0,179214,179798,1.24,1.512
Sprite,Foreground,Centre,"SB\OP effect.png",320,240 M,0,179131,,320,248 F,0,179131,179214,0.03199997,1 S,0,179131,179214,0.4080002,2.848 F,0,179214,179798,1,0 S,0,179214,179798,2.848,3.896
Sprite,Foreground,Centre,"SB\001.png",320,240 S,0,197631,,1.632 F,0,197631,197999,0.01599991,1 M,0,197631,207666,-89,241,501,246 F,0,197999,207333,1 F,0,207333,207666,1,0
Sprite,Foreground,Centre,"SB\002.png",320,240 S,0,207333,,1.792 F,0,207333,207666,0,1 M,0,207333,218166,820,237,168,246 F,0,207666,217832,1 F,0,217832,218166,1,0
Sprite,Foreground,Centre,"Lrc\1s.png",320,240 M,0,195298,195548,317,513,309,250 F,0,195298,195548,0,1 S,0,195298,195798,0.8320003,0.8400002 R,0,195548,195798,0,-6.272 F,0,195548,200166,1 S,0,195798,195964,0.8400002,1.144 S,0,195964,196131,1.144,0.8480003 S,0,196131,196631,0.8480003 S,0,196631,196798,0.8480003,1.168 S,0,196798,196964,1.168,0.8640004 S,0,196964,197833,0.8640004,0.8720004 S,0,197833,200499,0.8720004,1.200001 F,0,200166,200499,1,0
Sprite,Foreground,Centre,"SB\White.jpg",320,240 S,0,11131,,1.616 F,0,11131,11298,0,0.5719997 F,0,11298,11798,0.5719997,0 F,0,11798,21798,0 F,0,21798,21964,0,0.788 F,0,21964,22464,0.788,0 F,0,22464,,0 F,0,22464,74131,0 F,0,74131,74298,0,0.46 F,0,74298,74464,0.46,0 F,0,74464,74964,0 F,0,74964,75131,0,0.64 F,0,75131,75464,0.64,0 F,0,75464,85798,0 F,0,85798,85964,0,0.744 F,0,85964,86298,0.744,0 F,0,86298,96464,0 F,0,96464,96631,0,0.616 F,0,96631,96798,0.616,0 F,0,96798,103131,0 F,0,103131,,0 F,0,103131,,0 F,0,103131,103298,0,0.716 F,0,103298,103464,0.716,0 F,0,103464,167464,0 M,0,167464,,320,240 F,0,167464,167631,0,0.7320001 F,0,167631,167798,0.7320001,0 F,0,167798,168464,0 F,0,168464,168631,0,0.72 F,0,168631,168964,0.72,0 F,0,168964,179131,0 F,0,179131,179298,0,0.7560002 F,0,179298,179464,0.7560002,0 F,0,179464,189798,0 F,0,189798,189964,0,0.6 F,0,189964,190131,0.6,0 F,0,190131,196464,0 F,0,196464,196631,0,0.5759999 F,0,196631,196798,0.5759999,0 F,0,196798,218832,0 F,0,218832,218999,0,0.6680001 F,0,218999,219166,0.6680001,0
Sprite,Foreground,Centre,"SB\wakka.png",320,240 F,0,195464,195548,0,1 S,0,195464,195548,0.2879999,1.664 F,0,195548,196131,1,0 S,0,195548,196131,1.664,1.816 M,0,195798,,320,252
Sprite,Foreground,Centre,"SB\White Effect.png",320,240 M,0,196131,,316,252 F,0,196131,196214,0.04800003,1 S,0,196131,196214,0.2319998,1.104 F,0,196214,196464,1,0 S,0,196214,196464,1.104,1.216
Sprite,Foreground,Centre,"SB\White Effect.png",320,240 M,0,196631,,316,253 F,0,196631,196714,0.08,1 S,0,196631,196714,0.3120001,1.136 F,0,196714,196964,1,0 S,0,196714,196964,1.136,1.256
Sprite,Foreground,Centre,"SB\Kira Kira.png",320,240 M,0,196131,,316,248 F,0,196131,196214,0,1 S,0,196131,196214,0.2159998,1.248 F,0,196214,196464,1,0 S,0,196214,196464,1.248,1.368
Sprite,Foreground,Centre,"Lrc\0x.png",320,240 S,0,125298,,0.8079998 F,0,125298,125631,0,1 M,0,125298,130631,439,383,321,383 F,0,125631,130298,1 F,0,130298,130631,1,0
Sprite,Foreground,Centre,"Lrc\0y.png",320,240 S,0,130298,,0.72 F,0,130298,130631,0,1 M,0,130298,135964,189,85,311,79 F,0,130631,135631,1 F,0,135631,135964,1,0
Sprite,Foreground,Centre,"Lrc\0z.png",320,240 F,0,135631,135964,0,1 M,0,135631,138131,540,190,470,190 F,0,135964,137798,1 F,0,137798,138131,1,0
Sprite,Foreground,Centre,"Lrc\1a.png",320,240 F,0,136964,137298,0,1 M,0,136964,140964,160,315,280,313 F,0,137298,140631,1 F,0,140631,140964,1,0 M,0,140964,,280,313
Sprite,Foreground,Centre,"Lrc\1b.png",320,240 F,0,138131,138464,0,1 M,0,138131,140964,464,400,351,395 F,0,138464,140631,1 F,0,140631,140964,1,0 M,0,140964,,351,395
Sprite,Foreground,Centre,"Lrc\1c.png",320,240 F,0,140964,141298,0,1 M,0,140964,144131,148,223,252,220 F,0,141298,143798,1 F,0,143798,144131,1,0
Sprite,Foreground,Centre,"Lrc\1d.png",320,240 S,0,144131,,1.264 F,0,144131,144464,0,1 M,0,144131,147464,311,111,314,248 F,0,144464,147298,1 R,0,147131,148131,0.01600006,-7.168 F,0,147298,148131,1,0
Sprite,Foreground,Centre,"SB\004.png",320,240 M,0,125798,,427,380 F,0,125798,125881,0,1 S,0,125798,125881,0.1999997,0.5439999 F,0,125881,126464,1,0 S,0,125881,126464,0.5439999,0.7039996
Sprite,Foreground,Centre,"Lrc\1e.png",320,240 M,0,151131,,319,248 F,0,151131,151464,0,1 S,0,151131,155131,1.008,1.352 F,0,151464,154798,1 F,0,154798,155131,1,0
Sprite,Foreground,Centre,"Lrc\1f.png",320,240 S,0,157631,,0.816 F,0,157631,157964,0,0.988 M,0,157631,163131,180,149,322,157 F,0,157964,162798,0.988,1 F,0,162798,163131,1,0
Sprite,Foreground,Centre,"Lrc\1g.png",320,240 S,0,162964,,0.8239998 F,0,162964,163298,0,1 M,0,162964,167464,491,352,360,355 F,0,163298,167131,1 F,0,167131,167464,1,0
Sprite,Foreground,Centre,"SB\004.png",320,240 M,0,157798,,195,147 F,0,157798,157881,0,0.9960001 S,0,157798,157881,0.1920001,0.5200001 F,0,157881,158464,0.9960001,0 S,0,157881,158464,0.5200001,0.6560001
Sprite,Foreground,Centre,"Lrc\1h.png",320,240 M,0,167964,,310,250 F,0,167964,168298,0,1 S,0,167964,168298,0.9840001,1.376 F,0,168298,168631,1 S,0,168298,168798,1.376,3.344 F,0,168631,168798,1,0
Sprite,Foreground,Centre,"Lrc\1j.png",320,240 M,0,171298,171548,863,232,386,237 F,0,171298,171631,0,1 M,0,171548,174131,386,237,289,240 F,0,171631,173798,1 F,0,173798,174131,1,0
Sprite,Foreground,Centre,"Lrc\1i.png",320,240 F,0,168631,168798,0,0.96 M,0,168631,168881,-178,100,203,98 F,0,168798,171131,0.96,1 M,0,168881,171464,203,98,324,98 F,0,171131,171464,1,0
Sprite,Foreground,Centre,"Lrc\1k.png",320,240 M,0,173964,174214,-266,398,274,391 F,0,173964,174298,0.03199997,1 M,0,174214,177131,274,391,374,391 F,0,174298,176798,1 F,0,176798,177131,1,0
Sprite,Foreground,Centre,"Lrc\1l.png",320,240 M,0,176964,177214,778,220,323,225 F,0,176964,177298,0,1 M,0,177214,178964,323,225,267,228 F,0,177298,,1 F,0,177298,178881,1 F,0,178881,179214,1,0 M,0,178964,179214,267,228,-136,223
Sprite,Foreground,Centre,"SB\OP effect.png",320,240 M,0,176381,,382,387 F,0,176381,176464,0,1 S,0,176381,176464,0.3039999,1.416 F,0,176464,177048,1,0 S,0,176464,177048,1.416,1.744
Sprite,Foreground,Centre,"SB\Font effect.png",320,240 M,0,176381,,350,392 F,0,176381,176464,0,1 S,0,176381,176464,0.4479999,1.216 F,0,176464,177048,1,0 S,0,176464,177048,1.216,1.544
Sprite,Foreground,Centre,"SB\002.png",320,240 M,0,176381,,366,391 F,0,176381,176464,0,1 S,0,176381,176464,0.208,0.688 F,0,176464,177048,1,0 S,0,176464,177048,0.688,0.9120002
Sprite,Foreground,Centre,"Lrc\1m.png",320,240 M,0,179298,179548,-199,72,264,72 F,0,179298,179548,0,1 F,0,179548,181631,1 M,0,179548,181964,264,72,350,69 F,0,181631,181964,1,0
Sprite,Foreground,Centre,"Lrc\1n.png",320,240 M,0,181964,182214,877,224,332,222 F,0,181964,182298,0,1 M,0,182214,184631,332,222,240,223 F,0,182298,184298,1 F,0,184298,184631,1,0
Sprite,Foreground,Centre,"Lrc\1o.png",320,240 M,0,184631,184881,-256,347,282,357 F,0,184631,184964,0,1 M,0,184881,187464,282,357,383,353 F,0,184964,187131,1 F,0,187131,187464,1,0
Sprite,Foreground,Centre,"SB\OP effect.png",320,240 M,0,186881,,373,352 F,0,186881,186964,0,1 S,0,186881,186964,0.4959999,1.536 F,0,186964,187548,1,0 S,0,186964,187548,1.536,2.032
Sprite,Foreground,Centre,"SB\Font effect.png",320,240 M,0,186881,,356,356 F,0,186881,186964,0,1 S,0,186881,186964,0.4480002,1.16 F,0,186964,187548,1,0 S,0,186964,187548,1.16,1.536
Sprite,Foreground,Centre,"SB\002.png",320,240 M,0,186881,,365,356 F,0,186881,186964,0,1 S,0,186881,186964,0.1439999,0.816 F,0,186964,187548,1,0 S,0,186964,187548,0.816,1.168
Sprite,Foreground,Centre,"Lrc\1p.png",320,240 M,0,187298,187548,819,246,333,250 F,0,187298,187631,0,1 M,0,187548,189798,333,250,241,250 F,0,187631,189464,1 F,0,189464,189798,1,0
Sprite,Foreground,Centre,"Lrc\1q.png",320,240 F,0,189964,190298,0,1 M,0,189964,192798,366,324,463,325 F,0,190298,192464,1 F,0,192464,192798,1,0
Sprite,Foreground,Centre,"Lrc\1r.png",320,240 F,0,192631,192964,0,1 M,0,192631,195298,240,107,178,108 F,0,192964,194964,1 F,0,194964,195298,1,0
Sprite,Foreground,Centre,"SB\OP effect.png",320,240 M,0,197048,,322,243 F,0,197048,197131,0,1 S,0,197048,197131,0.4879999,1.296 F,0,197131,197714,1,0 S,0,197131,197714,1.296,1.824
Sprite,Foreground,Centre,"SB\002.png",320,240 M,0,197048,,322,249 F,0,197048,197131,0,1 S,0,197048,197131,0.2959999,0.7279997 F,0,197131,197714,1,0 S,0,197131,197714,0.7279997,0.9039996
Sprite,Foreground,Centre,"SB\Font effect.png",320,240 M,0,197714,,322,251 F,0,197714,197833,0,1 S,0,197714,197833,0.3440003,1.123619 F,0,197833,198333,1,0 S,0,197833,198333,1.123619,1.528
Sprite,Foreground,Centre,"Lrc\2i.png",320,240 M,0,201999,,320,251 F,0,201999,202333,0,1 S,0,201999,205833,0.9840001,1.48 F,0,202333,205499,1 F,0,205499,205833,1,0
Sprite,Foreground,Centre,"Lrc\2j.png",320,240 M,0,207333,,324,250 F,0,207333,207666,0,1 S,0,207333,212332,0.9759999,1.616 F,0,207666,211999,1 F,0,211999,212332,1,0
Sprite,Foreground,Centre,"SB\Black.png",320,240 F,0,217666,217999,0,0.5620002 S,0,217832,,1.6 F,0,217999,218499,0.5620002,0.5332117 F,0,218499,219166,0.5332117,0
Sprite,Foreground,Centre,"SB\OP effect.png",320,240 M,0,217832,,226,308 F,0,217832,217916,0,1 S,0,217832,217916,0.3840001,1.56 F,0,217916,218166,1,0 S,0,217916,218166,1.56,1.896
Sprite,Foreground,Centre,"SB\OP effect.png",320,240 M,0,218166,,321,138 F,0,218166,218249,0,1 S,0,218166,218249,0.464,1.336 F,0,218249,218499,1,0 S,0,218249,218499,1.336,1.504
Sprite,Foreground,Centre,"SB\OP effect.png",320,240 M,0,218499,,450,296 F,0,218499,218582,0,1 S,0,218499,218582,0.4799997,2.112 F,0,218582,218832,1,0 S,0,218582,218832,2.112,2.344
Sprite,Foreground,Centre,"SB\White Effect.png",320,240 M,0,218666,,169,157 F,0,218666,218749,0,1 S,0,218666,218749,0.4000002,0.8880003 F,0,218749,218999,1,0 S,0,218749,218999,0.8880003,1.192
//Storyboard Sound Samples
//Background Colour Transformations
3,100,163,162,255

[TimingPoints]
465,333.333333333333,4,1,1,50,1,0
32548,-100,4,1,1,40,0,0
53798,-100,4,1,1,50,0,0
75131,-100,4,1,2,60,0,1
85714,-100,4,1,2,60,0,0
85798,-100,4,1,2,60,0,1
96464,-133.333333333333,4,1,1,60,0,0
102131,-100,4,1,1,60,0,0
110798,-100,4,1,1,5,0,0
110881,-100,4,1,1,60,0,0
111131,-100,4,1,1,5,0,0
111214,-100,4,1,1,60,0,0
111464,-100,4,1,1,5,0,0
111548,-100,4,1,1,60,0,0
111798,-100,4,1,1,5,0,0
111881,-100,4,1,1,60,0,0
112131,-100,4,1,1,5,0,0
112214,-100,4,1,1,60,0,0
125131,-100,4,1,1,50,0,0
125881,-100,4,1,1,40,0,0
147298,-100,4,1,1,50,0,0
168464,-100,4,1,2,60,0,1
179048,-100,4,1,2,60,0,0
179131,-100,4,1,2,60,0,1
189798,-133.333333333333,4,1,1,60,0,0
195464,-100,4,1,1,60,0,0
197833,333.333333333333,4,1,1,50,1,0

[Colours]
Combo1 : 203,52,203
Combo2 : 6,238,238
Combo3 : 128,222,22
Combo4 : 227,85,17

[HitObjects]
256,80,465,1,4
168,80,9798,6,0,B|136:108|128:156,1,85,8|0
316,116,10131,2,0,B|292:80|252:60,1,85,8|0
228,144,10464,5,8
364,44,10631,1,8
228,144,10798,1,0
396,120,10964,1,8
352,192,11131,6,0,B|376:228|416:248,2,85,4|0|0
352,192,11798,1,0
280,236,11965,2,0,B|244:260|224:300,2,85,0|8|0
280,236,12631,1,0
208,192,12798,1,8
208,192,13131,6,0,B|244:168|264:128,2,85,0|0|8
136,236,13631,1,0
128,152,13798,1,0
100,72,13965,2,0,B|68:44|24:36,2,85,0|8|0
128,152,14465,5,0
196,100,14631,1,0
276,76,14798,2,0,B|316:64|360:76,2,85,8|0|0
196,100,15298,1,0
252,164,15465,2,0,B|276:200|312:224|360:228|404:220,1,170,8|8
456,156,15965,6,0,B|480:120|472:72,2,85,0|8|0
456,156,16631,1,8
416,232,16798,2,0,B|392:268|352:288|308:292|264:284,1,170,8|0
180,296,17298,6,0,B|136:308|112:344,2,85,0|8|0
180,296,17965,1,8
124,232,18131,2,0,B|92:200|76:160|76:112|88:72,1,170,8|0
164,36,18631,5,0
248,36,18798,2,0,B|296:36|320:72,2,85,8|0|0
164,36,19298,1,0
196,116,19464,2,0,B|216:152|248:184|292:200|336:204,1,170,8|0
420,200,19964,6,0,B|456:176|472:132,1,85,0|8
388,116,20298,1,0
352,40,20464,2,0,B|316:64|300:108,1,85
328,276,20798,5,8
388,116,20964,1,8
256,224,21131,1,0
416,284,21298,1,8
164,208,21464,2,0,B|164:252|196:288,1,85,8|0
255,223,21798,6,0,B|240:140|176:76,1,170,4|8
176,76,22464,1,0
96,108,22631,2,0,B|76:144|84:192,1,85,0|8
244,305,22964,2,0,B|264:269|256:221,1,85
176,248,23298,1,8
244,305,23464,2,0,B|324:336|412:308,1,170,8|0
472,252,23964,6,0,B|488:208|472:168,1,85,0|8
396,208,24298,1,0
324,164,24464,2,0,B|308:208|324:248,1,85
396,208,24798,2,0,B|408:160|404:116|384:80|348:56,1,170,8|0
264,36,25298,5,0
180,36,25464,1,8
104,76,25631,1,0
104,76,25964,1,8
224,196,26131,1,8
224,196,26464,6,0,B|184:216|168:256,1,85
272,120,26798,1,8
112,172,26964,1,0
236,288,27131,2,0,B|272:312|316:320|360:312|400:292,2,170,8|8|0
112,172,27964,6,0,B|76:200|72:248,1,85,0|8
236,196,28298,1,0
236,196,28631,1,8
284,124,28798,2,0,B|304:84|344:60|388:56|432:68,1,170,8|0
384,140,29298,5,0
248,40,29464,1,8
108,136,29631,2,0,B|80:172|72:216|80:260|100:296,1,170,0|8
376,300,30131,2,0,B|404:264|412:220|404:176|384:140,1,170,8|0
308,180,30631,5,0
256,112,30798,1,8
204,180,30964,1,0
256,248,31131,1,8
156,108,31298,5,0
20,212,31464,1,8
120,352,31631,1,8
256,248,31798,1,0
256,248,31881,1,0
256,248,31964,2,0,B|272:292|320:300,1,85
352,224,32298,1,0
432,192,32464,6,0,B|416:148|369:140,1,85,4|0
352,224,32798,2,0,B|367:267|414:275,2,85
288,168,33298,1,0
212,128,33464,1,0
128,120,33631,6,0,B|76:120|56:160,2,85
212,128,34131,2,0,B|212:76|172:56,2,85
164,200,34631,1,0
100,256,34798,1,0
164,312,34964,6,0,B|201:339|244:347|284:330|321:293,1,170
456,116,35464,1,0
456,116,35798,1,0
384,72,35964,2,0,B|344:56|300:60,2,85
372,156,36464,1,0
300,252,36631,6,0,B|344:255|384:240,1,85
372,156,36964,1,0
288,156,37131,1,0
224,212,37298,1,0
224,212,37464,2,0,B|208:252|220:300,1,85
208,128,37798,6,0,B|128:96|40:128,2,170
208,128,38631,1,0
256,56,38798,1,0
408,132,38964,6,0,B|420:88|400:48,1,85
288,180,39298,2,0,B|276:224|296:264,1,85
368,216,39631,1,0
448,240,39798,2,0,B|431:276|387:296,2,85
216,292,40298,6,0,B|234:329|280:346,1,85
176,208,40631,2,0,B|138:226|121:272,1,85
248,156,40965,1,0
248,156,41298,2,0,B|229:118|183:101,1,85
288,240,41631,2,0,B|325:221|342:175,1,85,0|4
108,64,41965,1,0
108,64,42131,2,0,B|64:140|72:228,2,170
404,64,42965,6,0,B|448:140|440:228,1,170
324,172,43465,2,0,B|316:259|360:335,1,170
152,336,43965,1,0
151,335,44298,2,0,B|195:259|188:172,1,170
71,227,44798,2,0,B|64:140|108:64,1,170
188,88,45298,6,0,B|275:95|351:51,1,170
436,56,45798,2,0,B|476:72|496:116,2,85
436,56,46465,1,0
392,128,46631,2,0,B|384:176|400:216,1,85
268,320,46965,2,0,B|308:348|348:332,1,85
316,252,47298,1,0
232,244,47465,2,0,B|148:248|76:304,2,170
216,96,48298,6,0,B|151:41|60:33,1,170
304,144,48798,2,0,B|386:126|448:60,1,170
332,36,49298,1,0
332,36,49631,2,0,B|399:99|417:181,1,170
256,192,50131,1,0
95,203,50298,2,0,B|113:285|179:347,1,170
179,347,50798,5,0
332,347,50965,2,0,B|399:285|416:203,1,170
256,192,51465,1,0
256,192,51798,1,0
156,56,51965,6,0,B|124:88|132:136,1,85
380,133,52298,2,0,B|388:88|356:56,1,85
132,251,52631,2,0,B|124:296|156:328,1,85
380,251,52965,2,0,B|388:296|356:328,1,85
256,192,53298,1,0
256,108,53465,2,0,B|256:24,2,85,0|0|4
68,284,54131,5,8
444,284,54465,1,0
444,200,54631,2,0,B|436:156|404:128,1,85,0|8
288,252,54965,2,0,B|296:296|328:324,1,85,8|0
372,252,55298,1,0
336,176,55465,1,8
336,176,55798,5,0
252,172,55965,2,0,B|208:188|204:236,2,85,0|8|8
252,172,56631,1,0
292,96,56798,1,8
292,96,57131,6,0,B|336:96|376:76,2,85,0|0|8
208,100,57631,2,0,B|168:92|124:96|84:116|60:156,1,170,0|0
136,192,58131,2,0,B|156:228|140:276,1,85,8|0
64,316,58465,1,0
144,348,58631,1,0
224,320,58798,5,8
224,320,58965,2,0,B|248:284|256:240|248:192|220:160,1,170
348,160,59465,1,8
348,160,59631,2,0,B|320:191|312:239|320:283|344:319,1,170
408,264,60131,1,8
472,320,60298,1,0
408,264,60465,6,0,B|440:228|448:184,1,85
416,108,60798,1,8
348,60,60965,2,0,B|312:36|268:40,2,85
416,108,61465,1,8
348,160,61631,2,0,B|276:208|184:200,1,170
76,136,62131,2,0,B|148:88|240:96,1,170,8|0
237,95,62798,5,8
228,184,62965,1,0
260,264,63131,2,0,B|284:304|328:312,1,85
340,224,63465,1,8
416,184,63631,2,0,B|392:144|348:136,1,85
424,292,63965,5,0
420,72,64131,1,8
228,184,64298,1,8
260,264,64465,6,0,B|304:252|336:228,1,85,4|0
308,148,64798,1,0
228,184,64965,2,0,B|192:208|176:248|176:296|200:336,1,170
284,344,65465,1,0
344,284,65631,6,0,B|380:252|380:208,1,85,4|0
60,216,65965,2,0,B|59:258|95:290,1,85
208,44,66298,2,0,B|120:52|64:124,1,170
228,184,66798,1,0
228,184,67131,6,0,B|316:176|372:104,1,170,4|0
432,216,67631,2,0,B|344:224|288:296,1,170
388,324,68131,2,0,B|380:236|308:180,1,170
228,184,68631,1,0
160,240,68798,1,0
240,268,68965,1,0
228,184,69131,2,0,B|196:156|148:156,2,85
228,184,69798,5,4
276,116,69965,2,0,B|308:80|348:68,2,85
276,116,70631,1,0
228,184,70798,1,0
148,220,70965,2,0,B|168:260|216:268,1,85,4|0
196,52,71298,2,0,B|156:72|148:120,1,85
432,164,71631,6,0,B|432:116|412:80|376:56|328:52,1,170
320,180,72131,2,0,B|320:228|340:264|376:288|424:292,2,170,0|4|0
364,104,72965,1,0
327,29,73131,2,0,B|287:52|280:96,1,85
364,104,73465,1,0
447,95,73631,2,0,B|440:52|400:28,1,85
76,64,74131,5,0
76,236,74298,1,8
76,236,74381,1,0
76,236,74465,2,0,B|88:280|124:304,1,85,8|0
216,160,74798,1,8
48,148,74965,1,0
184,248,75131,6,0,B|224:272|272:280|316:272|352:256,1,170,4|8
288,96,75631,2,0,B|256:64|212:64,1,85,2|0
136,132,75965,1,2
320,180,76131,1,8
456,48,76298,1,2
456,48,76631,6,8,B|456:96|432:132,1,85
224,188,76965,2,0,B|224:236|248:272,1,85
200,84,77298,2,0,B|176:48|128:40,1,85,2|8
80,128,77631,2,2,B|68:216|116:292,1,170,6|0
200,348,78131,5,8
380,280,78298,1,0
312,100,78465,1,2
280,288,78631,1,2
416,156,78798,1,8
224,176,78964,1,2
224,176,79298,5,0
76,52,79464,2,0,B|48:92|56:140,1,85,8|8
416,156,79798,2,0,B|422:196|394:236,2,85,0|2|8
356,72,80298,2,2,B|272:40|188:72,1,170,6|0
276,128,80798,5,8
448,44,80964,1,0
288,152,81131,1,0
460,68,81298,1,8
304,176,81464,2,0,B|332:220|376:228,1,85,8|0
296,48,81798,5,2
224,224,81964,1,0
396,136,82131,1,10
204,120,82298,5,0
396,136,82464,1,0
224,224,82631,2,0,B|204:268|216:308,2,85,2|8|0
136,80,83131,2,0,B|88:80|56:100|36:148|48:196,2,170,6|8|0
320,260,84131,6,0,B|328:216|316:176,1,85,8|0
236,240,84464,2,0,B|228:284|244:324|288:352|336:344,1,170,2|8
416,284,84964,1,2
320,260,85131,1,0
416,284,85298,2,0,B|440:240|436:200,1,85,0|8
380,120,85631,1,8
296,64,85798,6,0,B|212:44|124:76,1,170,4|8
272,200,86298,2,0,B|316:220|360:216,1,85,2|0
164,200,86631,1,2
380,120,86798,1,8
324,304,86964,1,2
324,304,87298,5,0
272,120,87464,1,8
212,300,87631,1,0
388,224,87798,2,0,B|428:204|448:160,2,85,2|0|8
164,200,88298,2,2,B|120:196|80:208|44:240|28:280,1,170,6|0
128,296,88798,6,0,B|136:340|168:368,1,85,8|0
116,132,89131,1,0
284,96,89298,2,0,B|276:48|240:24,1,85,8|8
116,132,89631,5,0
284,224,89798,1,2
28,188,89964,2,0,B|8:224|8:272,1,85,0|8
216,148,90298,1,0
92,32,90464,1,0
136,220,90631,2,0,B|148:264|188:288,1,85,2|8
284,316,90964,2,2,B|332:316|364:288|384:244|384:200,1,170,6|0
284,224,91464,5,8
452,312,91631,1,0
440,120,91798,1,2
268,36,91964,2,0,B|224:44|192:80,1,85,0|10
360,176,92298,2,0,B|388:210|389:258,1,85,2|0
152,176,92631,2,0,B|123:210|122:258,1,85,8|8
60,72,92964,5,0
244,128,93131,1,0
56,160,93298,1,2
240,212,93464,1,8
380,80,93631,2,0,B|304:40|216:40,1,170,6|0
152,120,94131,1,8
140,220,94298,1,0
364,340,94631,6,0,B|436:296,1,85,2|8
148,340,94964,2,0,B|76:296,1,85,0|2
256,192,95298,1,0
148,44,95464,2,0,B|104:60|104:60|84:96,1,85,10|0
364,44,95798,2,0,B|408:60|408:60|428:96,1,85,0|2
356,168,96131,1,8
256,192,96298,1,0
156,168,96464,1,4
256,284,96798,6,0,B|316:316|380:288,1,127.499996200204,8|0
436,236,97298,1,0
468,168,97464,2,0,B|472:136|464:104,2,63.749998100102,8|0|0
436,236,97964,2,0,B|372:224|320:184|300:116|312:40|384:0,1,318.74999050051,0|8
244,60,99131,1,4
92,68,99464,6,0,B|64:84|44:112,2,63.749998100102,8|0|0
168,52,99964,1,0
200,120,100131,1,8
200,196,100298,2,0,B|172:256|112:288,1,127.499996200204
168,344,100798,2,0,B|228:320|296:344,3,127.499996200204,8|0|8|4
496,324,102131,6,0,B|549:260|549:164|496:84|405:42|299:73,1,425,8|8
272,328,103298,1,8
272,328,103464,1,8
88,172,103798,1,0
88,172,103964,1,0
256,192,104464,12,4,107131
448,96,107464,5,8
448,96,107798,1,0
352,60,107964,1,0
256,92,108131,1,8
160,60,108298,1,0
160,60,108631,1,0
64,96,108798,1,8
64,96,109131,6,0,B|48:184|104:256,1,170,0|8
408,255,109631,2,0,B|464:184|448:96,1,170
447,95,110131,1,8
256,16,110464,2,0,B|244:28|244:28|268:36|268:36|244:44|244:44|268:52|268:52|244:60|244:60|268:68|268:68|244:76|244:76|268:84|268:84|244:92|244:92|268:100|268:100|244:108|244:108|268:116|268:116|244:124|244:124|268:132|268:132|244:140|244:140|268:148|268:148|244:156|244:156|268:164|268:164|244:172|244:172|268:180|268:180|244:188|244:188|268:196|268:196|244:204|244:204|268:212|268:212|244:220|244:220|268:228|268:228|244:236|244:236|268:244|268:244|244:252|244:252|268:260|268:260|244:268|244:268|268:276|268:276|244:284|244:284|268:292|268:292|244:300|244:300|268:308|268:308|244:316|244:316|268:324|268:324|244:336|244:336|256:344|256:344|256:369,1,1020
400,88,125131,5,0
400,88,125214,1,0
400,88,125298,1,0
400,88,125381,1,0
400,88,125464,2,0,B|356:80|316:92,1,85
236,128,125798,6,0,B|200:160|192:204,1,85,4|0
280,200,126131,1,0
328,272,126298,2,0,B|364:240|372:196,1,85
280,200,126631,1,0
240,276,126798,1,0
288,344,126964,2,0,B|328:364|372:360,2,85
240,276,127464,2,0,B|156:280|84:344,2,170
380,176,128298,6,0,B|412:140|416:100,1,85
276,200,128631,2,0,B|244:236|240:276,1,85
324,268,128964,1,0
376,336,129131,2,0,B|404:296|403:257,1,85
380,176,129464,1,0
316,120,129631,2,0,B|232:92|148:124,1,170
108,196,130131,2,0,B|96:240|112:280,2,85
64,124,130631,6,0,B|48:84|64:40,2,85
64,124,131131,1,0
108,196,131298,1,0
172,252,131464,1,0
248,288,131631,1,0
324,252,131798,2,0,B|360:228|376:184,2,85
244,100,132298,6,0,B|259:57|295:33,1,85,0|0
328,112,132631,1,0
276,180,132798,1,0
192,168,132964,2,0,B|148:156|120:124,2,85
244,100,133464,1,0
436,104,133631,6,0,B|436:148|408:184,1,85
228,248,133964,2,0,B|228:292|256:328,1,85
192,168,134298,1,0
192,168,134631,2,0,B|148:168|112:196,1,85
332,300,134964,2,0,B|376:300|412:272,1,85,0|4
228,248,135298,1,0
228,248,135464,2,0,B|184:256|148:280|128:320|124:368,1,170
400,196,136131,5,0
340,136,136298,2,0,B|312:104|276:80|232:68|192:64,1,170
80,176,136798,2,0,B|108:208|144:232|188:244|228:248,1,170
452,264,137298,1,0
452,264,137631,2,0,B|416:292|376:304|332:300|288:288,1,170
340,136,138131,2,0,B|376:108|416:96|460:100|504:112,1,170
432,180,138631,6,0,B|396:208|356:220|312:216|268:204,1,170
211,139,139131,2,0,B|170:128|126:124|86:136|50:164,1,170
50,164,139798,1,0
156,296,139964,1,0
156,296,140298,2,0,B|197:307|241:311|281:299|317:271,1,170
220,40,140798,2,0,B|264:49|299:72|324:108|342:147,2,170
52,164,141631,6,0,B|76:204|116:224|160:224|200:204,1,170
460,164,142131,2,0,B|436:204|396:224|352:224|312:204,1,170
256,88,142631,1,0
256,88,142964,2,0,B|304:88|344:80|376:56|404:16,1,170
180,48,143464,5,0
184,132,143631,2,0,B|184:180|192:220|216:252|256:280,1,170
308,164,144131,1,0
433,194,144298,2,0,B|433:146|425:106|401:74|364:48,1,170
308,164,144798,2,0,B|308:211|316:251|340:283|377:310,1,170
134,310,145298,1,0
134,310,145631,6,0,B|64:264,1,85
134,74,145964,2,0,B|64:120,1,85
308,164,146298,2,0,B|378:118,2,85
256,280,146798,1,0
372,332,146964,2,0,B|416:328|456:304|468:260|468:212,1,170
380,240,147464,5,8
380,240,147798,1,0
172,72,148131,2,0,B|132:56|88:64,1,85,8|0
124,140,148464,1,0
208,148,148631,2,0,B|248:132|276:92,2,85,8|8|0
123,139,149131,2,0,B|100:176|96:220|116:260|152:292,1,170,0|8
152,292,149798,5,0
224,332,149964,1,0
300,296,150131,1,8
380,328,150298,1,0
300,296,150464,2,0,B|280:256|292:212,1,85,0|8
336,140,150798,1,8
408,96,150964,1,0
408,96,151298,6,0,B|448:120|456:164,1,85,0|8
400,228,151631,2,0,B|436:256|484:248,2,85
316,248,152131,1,8
176,188,152298,2,0,B|158:228|157:270|178:310|215:339,1,170,8|0
172,92,152798,1,8
172,92,152964,2,0,B|128:88|88:100|56:132|40:176,1,170
96,240,153464,2,0,B|96:284|68:320,1,85,8|0
396,80,153964,5,0
348,148,154131,1,8
400,216,154298,1,8
348,148,154464,2,0,B|264:148,1,85
180,144,154798,1,8
104,104,154964,2,0,B|64:84|48:40,2,85,0|0|0
180,144,155464,5,8
180,228,155631,1,0
112,280,155798,2,0,B|148:316|188:312,1,85
180,228,156131,1,8
104,188,156298,1,8
104,188,156631,6,0,B|60:192|32:232,1,85,0|8
180,144,156964,1,0
276,284,157131,1,0
276,284,157214,1,0
276,284,157298,1,0
108,280,157465,1,8
256,196,157631,1,8
340,172,157798,5,4
424,192,157965,2,0,B|424:140|400:112,1,85,0|0
364,256,158298,2,0,B|364:308|388:336,1,85
340,172,158631,1,0
340,172,158965,6,0,B|304:196|256:196,1,85,4|0
80,124,159298,2,0,B|56:160|56:208,1,85
180,160,159631,2,0,B|208:124|208:80|176:36|128:32,1,170
136,236,160131,6,0,B|108:272|108:316|140:360|188:364,1,170,0|4
375,235,160631,2,0,B|404:272|404:316|372:360|323:364,2,170
256,192,161465,2,0,B|227:155|227:111|260:60|308:60,2,170
328,143,162298,2,0,B|376:140|408:120|436:80|447:38,1,170
447,38,162798,1,0
64,36,163131,5,4
64,36,163298,2,0,B|74:77|102:117|134:137|182:140,1,170
256,96,163798,2,0,B|292:76|308:32,2,85
128,208,164298,2,0,B|92:236|84:280,1,85,4|0
256,328,164631,2,0,B|256:240,1,85
384,208,164965,2,0,B|420:236|428:280,2,85
344,132,165465,6,0,B|364:88|396:64|440:52|484:64,2,170,0|4|0
268,172,166298,2,0,B|228:184|184:168,1,85
136,96,166631,1,0
192,32,166798,1,0
136,96,166965,2,0,B|92:80|52:92,2,85
100,172,167465,2,0,B|76:216|88:260,1,85
256,344,167798,5,8
256,344,167881,1,0
256,344,167965,1,8
425,254,168131,1,0
240,212,168298,1,8
408,120,168465,6,0,B|388:80|348:56|308:52|260:64,1,170,4|8
332,240,168965,1,0
148,184,169131,1,2
336,156,169298,1,0
176,260,169465,1,8
228,76,169631,1,2
228,76,169965,6,0,B|244:164,1,85,8|8
448,256,170298,2,0,B|432:344,1,85
272,236,170631,1,2
440,144,170798,1,8
244,160,170965,2,2,B|200:172|160:192|128:228|116:264,1,170,6|0
336,156,171465,6,0,B|344:112|328:72,1,85,8|0
272,236,171798,2,0,B|264:280|280:320,1,85,2|0
336,156,172131,1,8
188,276,172298,1,8
368,344,172465,1,2
100,216,172631,6,0,B|76:260|88:308,1,85,0|8
272,236,172965,2,0,B|281:197|257:153,1,85
68,136,173298,1,2
252,84,173465,1,8
32,48,173631,2,2,B|76:36|116:44|152:80|164:124,1,170,6|0
100,304,174131,6,0,B|32:360,1,85,8|8
206,290,174465,2,0,B|272:236,1,85,2|0
440,48,174798,2,0,B|460:84|452:136,1,85,10|0
372,264,175131,2,0,B|380:312|412:340,1,85,0|2
356,152,175465,6,0,B|325:113|284:104,1,85,10|0
116,128,175798,1,0
272,196,175965,1,2
272,196,176048,1,0
272,196,176131,2,0,B|268:248|240:276,1,85,8|0
48,248,176464,2,0,B|48:296|72:332|112:352|164:348,2,170,6|8|0
220,60,177465,6,0,B|176:56|136:72,1,85,8|0
208,144,177798,2,0,B|256:148|296:140|332:120|364:84,1,170,2|8
456,48,178298,2,2,B|432:96|428:140|436:172|452:216,1,170,2|0
420,308,178798,1,10
320,288,178965,1,0
320,288,179048,1,0
320,288,179131,6,0,B|280:272|236:288,1,85,4|0
44,272,179465,2,0,B|60:312|100:332,1,85,10|0
100,140,179798,2,0,B|84:100|44:80,1,85,2|0
176,216,180131,1,8
288,60,180298,1,8
172,56,180465,6,0,B|180:96|216:128,1,85,0|2
408,56,180798,2,0,B|400:96|364:128,1,85,10|0
176,216,181131,1,0
368,208,181298,1,2
208,316,181465,1,8
400,312,181631,2,2,B|444:296|468:256|472:216|464:168,1,170,6|0
276,176,182131,6,0,B|268:220|292:260,1,85,8|0
280,68,182465,1,0
104,144,182631,1,2
260,36,182798,1,8
88,116,182965,1,2
368,208,183131,6,0,B|376:164|352:124,1,85
84,244,183465,2,0,B|76:288|100:328,1,85,10|8
324,276,183798,1,0
188,276,183965,1,2
413,325,184131,1,8
464,236,184298,2,2,B|484:188|480:148|456:112|416:92,1,170,6|0
236,160,184798,6,0,B|232:208|260:240,1,85,8|0
204,56,185131,2,0,B|156:52|124:80,1,85,2|0
312,44,185465,1,8
156,156,185631,1,8
344,132,185798,6,0,B|392:136|424:108,1,85,2|0
348,284,186131,2,0,B|363:329|401:348,1,85,8|0
164,284,186465,2,0,B|148:329|110:348,1,85,0|2
256,184,186798,1,8
256,184,186965,2,0,B|256:354,1,170,6|0
256,354,187465,1,8
256,354,187631,1,2
256,48,187965,5,2
116,108,188131,2,0,B|120:160|148:192,1,85,8|2
396,108,188465,2,0,B|392:160|364:192,1,85,2|0
176,272,188798,2,0,B|136:284|108:328,1,85,8|2
336,272,189131,2,0,B|376:284|404:328,1,85,0|2
256,332,189465,1,8
256,228,189631,1,0
256,124,189798,1,4
256,124,190131,6,0,B|208:80|132:84,1,127.499996200204,8|0
68,112,190631,2,0,B|40:136|36:168,1,63.749998100102,0|8
112,184,190965,2,0,B|120:216|108:252|80:280|48:284,2,127.499996200204
188,164,191798,1,0
256,300,192131,1,8
324,164,192465,1,4
324,164,192798,6,0,B|344:136|372:120,1,63.749998100102,8|0
400,48,193131,2,0,B|426:63|446:91,1,63.749998100102
436,168,193465,1,8
408,240,193631,2,0,B|400:272|376:296|340:304|304:296,1,127.499996200204
244,252,194131,1,8
56,284,194464,5,0
56,284,194548,1,0
56,284,194631,2,0,B|56:320|80:344,1,63.749998100102,0|8
156,348,194964,1,0
228,328,195131,1,4
68,120,195465,6,0,B|164:70|261:94|329:162|347:256|307:329,1,425,8|8
68,120,196631,1,8
68,120,196798,1,8
444,120,197131,1,0
444,120,197298,1,0
256,192,197833,12,0,200499
256,192,200833,5,8
40,56,201166,1,0
140,68,201333,1,0
68,140,201499,1,8
168,160,201666,1,0
168,160,201999,2,8,B|152:208|176:248,1,85
340,308,202499,2,0,B|380:332|424:332|468:320|492:284,1,170,0|8
398,123,202999,2,0,B|337:86|271:86|205:104|168:159,1,255
256,192,203833,12,0,205833
420,72,206166,5,8
420,72,206499,1,0
320,52,206666,2,0,B|276:44|236:60,1,85,0|8
224,160,206999,2,0,B|184:176|140:156|116:116|120:64,1,170
328,144,207499,2,0,B|368:128|412:148|436:188|432:240,1,170,8|0
192,324,208166,1,8
256,192,208499,12,0,209832
184,268,210166,6,0,B|152:240|140:192|152:144|172:112,1,170,8|0
256,52,210666,1,0
344,108,210833,1,8
432,60,210999,1,0
432,60,211333,2,0,B|460:104|456:144,1,85,0|8
320,292,211833,6,0,B|349:313|401:310,1,85
368,212,212166,1,8
268,212,212332,2,0,B|228:232|212:272|216:320|248:360,1,170
320,292,212833,1,8
320,292,213166,5,0
368,212,213333,1,0
320,124,213499,1,8
220,108,213666,1,8
147,180,213833,2,0,B|124:216|120:260|140:304|189:319,1,170,0|8
189,319,214499,5,0
292,336,214666,1,0
372,272,214833,2,0,B|424:280|448:316,1,85,8|0
348,76,215333,1,0
428,136,215499,2,0,B|408:172|364:192|316:184|280:148,1,170,8|0
200,88,215999,6,0,B|164:64|116:76,2,85,0|8|0
200,88,216666,1,0
192,188,216833,2,0,B|184:236|160:268|120:292|76:300,1,170,8|0
96,200,217333,1,0
288,308,217499,6,0,B|328:336|368:332,1,85,8|0
367,51,217833,2,0,B|328:48|288:76,1,85,0|0
392,192,218166,2,0,B|480:192,1,85,8|8
256,192,218499,1,0
164,112,218666,2,0,B|144:72|164:24,1,85,0|8
348,272,218999,2,0,B|368:312|348:360,1,85,8|4
