osu file format v9

[General]
AudioFilename: KOTOKO and Utatsuki Kaori - Double HarmoniZe Shock!!.mp3
AudioLeadIn: 2000
PreviewTime: 75131
Countdown: 0
SampleSet: Soft
StackLeniency: 0.7
Mode: 1
LetterboxInBreaks: 0

[Editor]
DistanceSpacing: 0
BeatDivisor: 4
GridSize: 32

[Metadata]
Title:Double HarmoniZe Shock!!
Artist:KOTOKO & Utatsuki Kaori
Creator:DarknessAngel
Version:Boss Taiko Oni
Source:
Tags:SHORT CIRCUIT II Natteke bossandy palmolive Collab

[Difficulty]
HPDrainRate:5
CircleSize:5
OverallDifficulty:5
ApproachRate:5
SliderMultiplier:1.4
SliderTickRate:1

[Events]
//Background and Video events
0,0,"Taiko BG.jpg"
//Break Periods
//Storyboard Layer 0 (Background)
//Storyboard Layer 1 (Fail)
//Storyboard Layer 2 (Pass)
//Storyboard Layer 3 (Foreground)
//Storyboard Sound Samples
//Background Colour Transformations
3,100,163,162,255

[TimingPoints]
465,333.333333333333,4,2,0,100,1,0
75131,-100,4,2,0,100,0,1
96464,-100,4,2,0,100,0,0
168464,-100,4,2,0,100,0,1
189798,-100,4,2,0,100,0,0
197833,333.333333333333,4,2,0,100,1,0

[Colours]
Combo1 : 0,0,255
Combo2 : 255,0,0

[HitObjects]
256,192,464,1,0
256,192,797,1,0
256,192,964,1,0
256,192,1131,5,2
256,192,1297,1,2
256,192,1464,1,2
256,192,1631,5,0
256,192,1964,1,0
256,192,2131,5,2
256,192,2298,5,0
256,192,2464,1,0
256,192,2631,1,0
256,192,2798,5,2
256,192,2964,5,0
256,192,3131,1,0
256,192,3464,5,2
256,192,3798,5,0
256,192,3964,1,0
256,192,4131,5,2
256,192,4298,5,0
256,192,4631,1,0
256,192,4798,5,2
256,192,4964,5,0
256,192,5131,5,2
256,192,5298,1,2
256,192,5464,1,2
256,192,5631,1,2
256,192,5798,5,4
256,192,6131,1,0
256,192,6298,1,0
256,192,6464,5,2
256,192,6798,5,0
256,192,6964,1,0
256,192,7298,1,0
256,192,7464,5,2
256,192,7631,5,0
256,192,7798,1,0
256,192,7964,1,0
256,192,8131,5,2
256,192,8298,5,0
256,192,8464,1,0
256,192,8798,1,0
256,192,8964,1,0
256,192,9131,1,0
256,192,9298,1,0
256,192,9464,1,0
256,192,9631,1,0
256,192,9798,1,0
256,192,9964,5,2
256,192,10131,1,2
256,192,10298,5,0
256,192,10381,1,0
256,192,10464,5,2
256,192,10631,1,2
256,192,10798,1,2
256,192,10964,1,2
256,192,11131,5,4
256,192,11464,5,2
256,192,11798,5,0
256,192,11964,1,0
256,192,12131,5,2
256,192,12298,5,0
256,192,12631,1,0
256,192,12798,5,2
256,192,13131,5,0
256,192,13298,1,0
256,192,13464,5,2
256,192,13798,5,0
256,192,13964,1,0
256,192,14131,5,2
256,192,14464,5,0
256,192,14631,5,2
256,192,14798,5,0
256,192,14964,5,2
256,192,15298,5,0
256,192,15464,5,2
256,192,15631,5,0
256,192,15798,5,2
256,192,15964,5,0
256,192,16131,5,2
256,192,16298,1,2
256,192,16464,5,4
256,192,16631,1,0
256,192,16798,5,2
256,192,17131,5,0
256,192,17298,1,0
256,192,17464,5,2
256,192,17631,5,0
256,192,17964,1,0
256,192,18131,5,2
256,192,18464,5,0
256,192,18631,1,0
256,192,18798,5,2
256,192,18964,5,0
256,192,19131,1,0
256,192,19464,5,2
256,192,19798,5,0
256,192,19964,1,0
256,192,20131,5,2
256,192,20298,5,0
256,192,20631,1,0
256,192,20798,5,2
256,192,20964,5,0
256,192,21048,1,0
256,192,21131,1,0
256,192,21298,1,0
256,192,21464,5,2
256,192,21631,1,2
256,192,21798,5,4
256,192,22131,5,2
256,192,22298,5,0
256,192,22464,1,0
256,192,22631,1,0
256,192,22798,5,2
256,192,22964,5,0
256,192,23298,1,0
256,192,23464,5,2
256,192,23631,5,0
256,192,23798,1,0
256,192,23964,1,0
256,192,24048,1,0
256,192,24131,5,2
256,192,24298,5,0
256,192,24464,1,0
256,192,24798,5,2
256,192,24964,5,0
256,192,25131,1,0
256,192,25298,1,0
256,192,25381,1,0
256,192,25464,5,2
256,192,25631,5,0
256,192,25798,1,0
256,192,25964,1,0
256,192,26131,5,2
256,192,26298,5,0
256,192,26464,1,0
256,192,26631,1,0
256,192,26798,5,2
256,192,26964,1,2
256,192,27131,5,4
256,192,27464,5,2
256,192,27631,5,0
256,192,27798,1,0
256,192,27964,1,0
256,192,28131,5,2
256,192,28298,5,0
256,192,28631,5,2
256,192,28798,5,0
256,192,29131,1,0
256,192,29298,1,0
256,192,29381,1,0
256,192,29464,5,2
256,192,29631,5,0
256,192,29798,1,0
256,192,30131,5,2
256,192,30298,5,0
256,192,30464,1,0
256,192,30631,1,0
256,192,30798,1,0
256,192,30964,1,0
256,192,31298,1,0
256,192,31464,5,2
256,192,31631,5,0
256,192,31798,1,0
256,192,31853,1,0
256,192,31909,1,0
256,192,31964,1,0
256,192,32131,5,2
256,192,32298,5,0
256,192,32464,1,4
256,192,32798,5,2
256,192,32964,5,0
256,192,33131,1,0
256,192,33214,1,0
256,192,33298,1,0
256,192,33464,5,2
256,192,33631,5,0
256,192,33798,1,0
256,192,34131,5,2
256,192,34298,5,0
256,192,34464,1,0
256,192,34631,1,0
256,192,34798,5,2
256,192,35131,5,0
256,192,35464,5,2
256,192,35798,5,0
256,192,35964,1,0
256,192,36298,5,2
256,192,36631,5,0
256,192,36964,1,0
256,192,37131,1,0
256,192,37298,1,0
256,192,37631,5,2
256,192,38131,1,2
256,192,38298,5,0
256,192,38465,1,0
256,192,38631,1,0
256,192,38798,5,2
256,192,39131,5,0
256,192,39298,1,0
256,192,39464,5,2
256,192,39631,5,0
256,192,39798,1,0
256,192,39964,1,0
256,192,40131,5,2
256,192,40298,1,2
256,192,40631,5,0
256,192,40964,5,2
256,192,41298,5,0
256,192,41631,5,2
256,192,41964,5,0
256,192,42131,5,2
256,192,42464,1,2
256,192,42520,1,2
256,192,42576,1,2
256,192,42631,1,2
256,192,42798,1,2
256,192,42964,5,4
256,192,43298,1,0
256,192,43464,5,2
256,192,43631,5,0
256,192,43798,1,0
256,192,43881,1,0
256,192,43964,1,0
256,192,44131,5,2
256,192,44298,5,0
256,192,44631,1,0
256,192,44798,5,2
256,192,45131,5,0
256,192,45298,5,2
256,192,45631,1,2
256,192,45964,5,0
256,192,46131,5,2
256,192,46298,5,0
256,192,46464,1,0
256,192,46631,1,0
256,192,46798,5,2
256,192,46964,5,0
256,192,47298,1,0
256,192,47464,5,2
256,192,47631,5,0
256,192,47798,5,2
256,192,47964,1,2
256,192,48131,1,2
256,192,48298,5,0
256,192,48631,1,0
256,192,48798,5,2
256,192,49131,1,2
256,192,49298,5,0
256,192,49631,1,0
256,192,49964,1,0
256,192,50131,5,2
256,192,50298,5,0
256,192,50631,1,0
256,192,50798,5,2
256,192,50964,5,0
256,192,51131,1,0
256,192,51464,5,2
256,192,51798,5,0
256,192,51964,1,0
256,192,52131,5,2
256,192,52298,5,0
256,192,52631,1,0
256,192,52798,5,2
256,192,52964,5,0
256,192,53131,5,2
256,192,53187,1,2
256,192,53242,1,2
256,192,53298,1,2
256,192,53464,1,2
256,192,53631,5,0
256,192,53798,1,4
256,192,54131,5,2
256,192,54298,5,0
256,192,54464,1,0
256,192,54631,1,0
256,192,54798,5,2
256,192,54964,5,0
256,192,55298,1,0
256,192,55464,5,2
256,192,55631,5,0
256,192,55964,1,0
256,192,56131,5,2
256,192,56464,5,0
256,192,56798,5,2
256,192,57131,5,0
256,192,57298,1,0
256,192,57464,5,2
256,192,57631,5,0
256,192,57964,1,0
256,192,58131,5,2
256,192,58298,5,0
256,192,58464,5,2
256,192,58631,5,0
256,192,58798,5,2
256,192,58964,5,0
256,192,59131,1,4
256,192,59464,5,2
256,192,59631,5,0
256,192,59964,1,0
256,192,60131,5,2
256,192,60298,5,0
256,192,60631,1,0
256,192,60798,5,2
256,192,60964,5,0
256,192,61131,1,0
256,192,61298,1,0
256,192,61464,5,2
256,192,61798,5,0
256,192,62131,5,2
256,192,62464,5,0
256,192,62548,1,0
256,192,62631,1,0
256,192,62798,1,0
256,192,62964,5,2
256,192,63298,5,0
256,192,63464,5,2
256,192,63631,5,0
256,192,63798,1,0
256,192,63853,1,0
256,192,63909,1,0
256,192,63964,1,0
256,192,64131,5,2
256,192,64298,5,0
256,192,64464,1,4
256,192,64631,1,0
256,192,64964,1,0
256,192,65298,5,2
256,192,65631,5,4
256,192,65964,1,0
256,192,66131,5,2
256,192,66298,5,0
256,192,66464,1,0
256,192,66631,1,0
256,192,66798,5,2
256,192,67131,5,4
256,192,67631,1,0
256,192,67965,1,0
256,192,68131,5,2
256,192,68464,5,0
256,192,68631,1,0
256,192,68798,5,2
256,192,69131,5,0
256,192,69298,1,0
256,192,69464,5,2
256,192,69631,5,0
256,192,69798,1,4
256,192,69964,1,0
256,192,70298,1,0
256,192,70632,5,2
256,192,70964,5,0
256,192,71298,1,0
256,192,71464,5,2
256,192,71631,5,0
256,192,71798,1,0
256,192,72131,5,2
256,192,72464,5,0
256,192,73131,5,2
256,192,73798,5,0
256,192,74131,1,0
256,192,74298,5,2
256,192,74464,1,2
256,192,74520,1,2
256,192,74576,1,2
256,192,74631,1,2
256,192,74714,1,2
256,192,74798,5,0
256,192,74964,1,0
256,192,75131,1,4
256,192,75464,5,2
256,192,75631,5,0
256,192,75714,1,0
256,192,75798,1,0
256,192,75964,1,0
256,192,76131,5,2
256,192,76298,5,0
256,192,76631,1,0
256,192,76798,5,2
256,192,76964,5,0
256,192,77131,1,0
256,192,77298,5,2
256,192,77631,5,4
256,192,78131,5,2
256,192,78298,1,2
256,192,78464,5,0
256,192,78548,1,0
256,192,78631,1,0
256,192,78798,5,2
256,192,78964,5,0
256,192,79298,1,0
256,192,79464,5,2
256,192,79631,5,0
256,192,79798,5,2
256,192,79964,1,2
256,192,80298,1,6
256,192,80798,1,2
256,192,80964,1,2
256,192,81131,5,0
256,192,81298,1,0
256,192,81464,5,2
256,192,81631,5,0
256,192,81798,1,0
256,192,81881,1,0
256,192,81964,1,0
256,192,82131,5,2
256,192,82298,5,0
256,192,82381,1,0
256,192,82464,1,0
256,192,82631,5,2
256,192,83131,5,4
256,192,83464,5,2
256,192,83798,5,0
256,192,83964,1,0
256,192,84131,5,2
256,192,84298,5,0
256,192,84464,1,0
256,192,84631,1,0
256,192,84798,5,2
256,192,84964,5,0
256,192,85131,5,2
256,192,85187,1,2
256,192,85242,1,2
256,192,85298,1,2
256,192,85464,1,2
256,192,85631,5,0
256,192,85798,1,4
256,192,86131,5,2
256,192,86298,5,0
256,192,86464,1,0
256,192,86631,1,0
256,192,86798,5,2
256,192,86964,5,0
256,192,87298,1,0
256,192,87464,5,2
256,192,87631,5,0
256,192,87714,1,0
256,192,87798,1,0
256,192,87964,5,2
256,192,88298,5,4
256,192,88631,1,0
256,192,88798,5,2
256,192,88964,5,0
256,192,89131,1,0
256,192,89298,1,0
256,192,89464,5,2
256,192,89631,5,0
256,192,89798,1,0
256,192,89881,1,0
256,192,89964,1,0
256,192,90131,5,2
256,192,90298,5,0
256,192,90464,1,0
256,192,90631,5,2
256,192,90964,1,6
256,192,91298,5,0
256,192,91464,5,2
256,192,91631,5,0
256,192,91714,5,2
256,192,91798,5,0
256,192,91964,1,0
256,192,92131,5,2
256,192,92298,5,0
256,192,92464,5,2
256,192,92631,1,2
256,192,92798,5,0
256,192,92964,1,0
256,192,93131,5,2
256,192,93298,5,0
256,192,93631,1,4
256,192,94131,5,2
256,192,94298,5,0
256,192,94631,1,0
256,192,94798,5,2
256,192,95131,5,0
256,192,95298,1,0
256,192,95381,1,0
256,192,95464,5,2
256,192,95631,5,0
256,192,95798,5,2
256,192,95853,1,2
256,192,95909,1,2
256,192,95964,1,2
256,192,96131,1,2
256,192,96298,5,0
256,192,96464,1,4
256,192,96798,5,2
256,192,97131,5,0
256,192,97298,1,0
256,192,97464,5,2
256,192,97631,5,0
256,192,97964,1,0
256,192,98131,5,2
256,192,98298,5,0
256,192,98631,1,0
256,192,98798,5,2
256,192,98964,5,0
256,192,99131,1,4
256,192,99464,5,2
256,192,99631,1,2
256,192,99798,5,0
256,192,99964,1,0
256,192,100131,5,2
256,192,100298,5,0
256,192,100631,1,0
256,192,100798,5,2
256,192,100964,5,0
256,192,101131,5,2
256,192,101187,1,2
256,192,101242,1,2
256,192,101298,1,2
256,192,101464,1,2
256,192,101631,1,2
256,192,101798,5,4
256,192,102131,5,2
256,192,102298,1,2
256,192,102464,1,2
256,192,102631,5,0
256,192,102798,1,0
256,192,102964,5,2
256,192,103298,1,2
256,192,103464,1,2
256,192,104298,12,0,106798
256,192,107131,5,0
256,192,107464,5,2
256,192,107797,5,0
256,192,108131,1,0
256,192,108297,5,2
256,192,108631,5,0
256,192,108797,5,2
256,192,108964,5,0
256,192,109131,5,2
256,192,109297,5,0
256,192,109464,5,2
256,192,109631,1,2
256,192,109797,5,4
256,192,110131,5,2
256,192,110464,5,0
256,192,110631,1,0
256,192,110797,5,2
256,192,110964,5,0
256,192,111297,1,0
256,192,111464,5,2
256,192,111797,5,0
256,192,111964,1,0
256,192,112131,5,2
256,192,112464,5,0
256,192,112797,5,2
256,192,113131,5,0
256,192,113297,1,0
256,192,113464,5,2
256,192,113631,5,0
256,192,113964,1,0
256,192,114131,5,2
256,192,114298,5,0
256,192,114464,1,0
256,192,114520,1,0
256,192,114576,1,0
256,192,114631,1,0
256,192,114797,5,2
256,192,114964,5,0
256,192,115131,1,4
256,192,115464,5,2
256,192,115631,5,0
256,192,115797,1,0
256,192,115964,1,0
256,192,116131,5,2
256,192,116297,5,0
256,192,116631,1,0
256,192,116797,5,2
256,192,116964,5,0
256,192,117131,1,0
256,192,117297,1,0
256,192,117381,1,0
256,192,117464,5,2
256,192,117631,5,0
256,192,117797,1,0
256,192,118131,5,2
256,192,118297,5,0
256,192,118464,1,0
256,192,118631,1,0
256,192,118714,1,0
256,192,118797,5,2
256,192,118964,5,0
256,192,119131,1,0
256,192,119297,1,0
256,192,119464,5,2
256,192,119631,5,0
256,192,119797,1,0
256,192,119964,1,0
256,192,120131,5,2
256,192,120297,1,2
256,192,120464,5,4
256,192,120797,5,2
256,192,120964,5,0
256,192,121131,1,0
256,192,121297,1,0
256,192,121464,5,2
256,192,121631,5,0
256,192,121964,1,0
256,192,122131,5,2
256,192,122464,5,0
256,192,122631,1,0
256,192,122714,1,0
256,192,122797,5,2
256,192,122964,5,0
256,192,123131,1,0
256,192,123464,5,2
256,192,123631,5,0
256,192,123797,1,0
256,192,123964,1,0
256,192,124131,5,2
256,192,124297,5,0
256,192,124631,1,0
256,192,124797,5,2
256,192,124964,5,0
256,192,125131,1,0
256,192,125186,1,0
256,192,125242,1,0
256,192,125297,1,0
256,192,125464,5,2
256,192,125631,1,2
256,192,125798,5,4
256,192,126132,5,2
256,192,126298,5,0
256,192,126465,1,0
256,192,126548,1,0
256,192,126632,1,0
256,192,126798,5,2
256,192,126965,5,0
256,192,127132,1,0
256,192,127465,5,2
256,192,127632,5,0
256,192,127798,1,0
256,192,127965,1,0
256,192,128132,5,2
256,192,128465,5,0
256,192,128798,5,2
256,192,129132,5,0
256,192,129298,1,0
256,192,129632,5,2
256,192,129965,5,0
256,192,130131,5,2
256,192,130298,5,0
256,192,130465,1,0
256,192,130632,5,2
256,192,130965,1,2
256,192,131465,1,2
256,192,131632,5,0
256,192,131799,1,0
256,192,131965,1,0
256,192,132132,5,2
256,192,132465,5,0
256,192,132632,1,0
256,192,132798,5,2
256,192,132965,5,0
256,192,133132,1,0
256,192,133298,1,0
256,192,133465,5,2
256,192,133632,1,2
256,192,133965,5,0
256,192,134298,5,2
256,192,134632,5,0
256,192,134965,5,2
256,192,135298,5,0
256,192,135465,5,2
256,192,135798,1,2
256,192,135854,1,2
256,192,135910,1,2
256,192,135965,1,2
256,192,136132,1,2
256,192,136298,5,4
256,192,136632,1,0
256,192,136798,5,2
256,192,136965,5,0
256,192,137132,1,0
256,192,137215,1,0
256,192,137298,1,0
256,192,137465,5,2
256,192,137632,5,0
256,192,137965,1,0
256,192,138132,5,2
256,192,138465,5,0
256,192,138632,5,2
256,192,138965,1,2
256,192,139298,5,0
256,192,139465,5,2
256,192,139632,5,0
256,192,139798,1,0
256,192,139965,1,0
256,192,140132,5,2
256,192,140298,5,0
256,192,140632,1,0
256,192,140798,5,2
256,192,140965,5,0
256,192,141132,5,2
256,192,141214,5,0
256,192,141298,1,0
256,192,141465,5,2
256,192,141632,5,0
256,192,141965,1,0
256,192,142132,5,2
256,192,142465,1,2
256,192,142632,5,0
256,192,142965,1,0
256,192,143298,1,0
256,192,143465,5,2
256,192,143632,5,0
256,192,143965,1,0
256,192,144132,5,2
256,192,144298,5,0
256,192,144465,1,0
256,192,144798,5,2
256,192,145132,5,0
256,192,145298,1,0
256,192,145465,5,2
256,192,145632,5,0
256,192,145965,1,0
256,192,146132,5,2
256,192,146298,5,0
256,192,146465,5,2
256,192,146521,1,2
256,192,146576,1,2
256,192,146632,1,2
256,192,146798,1,2
256,192,146965,5,0
256,192,147132,1,4
256,192,147465,5,2
256,192,147632,5,0
256,192,147798,1,0
256,192,147965,1,0
256,192,148132,5,2
256,192,148298,5,0
256,192,148632,1,0
256,192,148798,5,2
256,192,148965,5,0
256,192,149298,1,0
256,192,149465,5,2
256,192,149798,5,0
256,192,150132,5,2
256,192,150465,5,0
256,192,150632,1,0
256,192,150798,5,2
256,192,150965,5,0
256,192,151298,1,0
256,192,151465,5,2
256,192,151632,5,0
256,192,151798,5,2
256,192,151965,5,0
256,192,152132,5,2
256,192,152298,5,0
256,192,152465,1,4
256,192,152798,5,2
256,192,152965,5,0
256,192,153298,1,0
256,192,153465,5,2
256,192,153632,5,0
256,192,153965,1,0
256,192,154132,5,2
256,192,154298,5,0
256,192,154465,1,0
256,192,154632,1,0
256,192,154798,5,2
256,192,155132,5,0
256,192,155465,5,2
256,192,155798,5,0
256,192,155882,1,0
256,192,155965,1,0
256,192,156132,5,2
256,192,156298,5,0
256,192,156632,1,0
256,192,156798,5,2
256,192,156965,5,0
256,192,157132,1,0
256,192,157187,1,0
256,192,157243,1,0
256,192,157298,1,0
256,192,157465,5,2
256,192,157632,5,0
256,192,157798,1,4
256,192,157965,1,0
256,192,158298,1,0
256,192,158632,5,2
256,192,158965,5,4
256,192,159298,1,0
256,192,159465,5,2
256,192,159632,5,0
256,192,159798,1,0
256,192,159965,1,0
256,192,160132,5,2
256,192,160465,5,4
256,192,160965,1,0
256,192,161299,1,0
256,192,161465,5,2
256,192,161798,5,0
256,192,161965,1,0
256,192,162132,5,2
256,192,162465,5,0
256,192,162632,1,0
256,192,162798,5,2
256,192,162965,5,0
256,192,163132,1,4
256,192,163298,1,0
256,192,163632,1,0
256,192,163964,5,2
256,192,164298,5,4
256,192,164632,1,0
256,192,164798,5,2
256,192,164965,5,0
256,192,165132,1,0
256,192,165465,5,2
256,192,165798,5,0
256,192,165964,1,0
256,192,166131,5,2
256,192,166298,5,0
256,192,166381,1,0
256,192,166465,5,2
256,192,166631,5,0
256,192,166798,5,2
256,192,166964,5,0
256,192,167132,1,0
256,192,167465,1,0
256,192,167632,5,2
256,192,167798,1,2
256,192,167854,1,2
256,192,167910,1,2
256,192,167965,1,2
256,192,168048,1,2
256,192,168132,5,0
256,192,168298,1,0
256,192,168465,1,4
256,192,168798,5,2
256,192,168965,5,0
256,192,169048,1,0
256,192,169132,1,0
256,192,169298,1,0
256,192,169465,5,2
256,192,169632,5,0
256,192,169965,1,0
256,192,170132,5,2
256,192,170298,5,0
256,192,170465,1,0
256,192,170632,5,2
256,192,170965,5,4
256,192,171465,5,2
256,192,171632,1,2
256,192,171798,5,0
256,192,171882,1,0
256,192,171965,1,0
256,192,172132,5,2
256,192,172298,5,0
256,192,172464,1,0
256,192,172632,1,0
256,192,172798,5,2
256,192,172965,5,0
256,192,173132,5,2
256,192,173298,1,2
256,192,173464,5,0
256,192,173632,5,6
256,192,174132,1,2
256,192,174298,1,2
256,192,174465,5,0
256,192,174632,1,0
256,192,174798,5,2
256,192,174965,5,0
256,192,175132,1,0
256,192,175215,1,0
256,192,175298,1,0
256,192,175465,5,2
256,192,175632,5,0
256,192,175715,1,0
256,192,175798,1,0
256,192,175965,5,2
256,192,176465,5,4
256,192,176798,5,2
256,192,177132,5,0
256,192,177298,1,0
256,192,177465,5,2
256,192,177632,5,0
256,192,177798,1,0
256,192,177965,1,0
256,192,178132,5,2
256,192,178298,5,0
256,192,178465,5,2
256,192,178521,1,2
256,192,178576,1,2
256,192,178632,1,2
256,192,178798,1,2
256,192,178965,5,0
256,192,179132,1,4
256,192,179465,5,2
256,192,179632,5,0
256,192,179798,1,0
256,192,179965,1,0
256,192,180132,5,2
256,192,180298,5,0
256,192,180464,1,0
256,192,180632,1,0
256,192,180798,5,2
256,192,180965,5,0
256,192,181048,1,0
256,192,181132,1,0
256,192,181298,5,2
256,192,181632,5,4
256,192,181965,1,0
256,192,182132,5,2
256,192,182298,5,0
256,192,182465,1,0
256,192,182632,1,0
256,192,182798,5,2
256,192,182965,5,0
256,192,183132,1,0
256,192,183215,1,0
256,192,183298,1,0
256,192,183465,5,2
256,192,183632,5,0
256,192,183798,1,0
256,192,183965,5,2
256,192,184131,5,0
256,192,184298,5,6
256,192,184632,5,0
256,192,184798,5,2
256,192,184965,5,0
256,192,185048,5,2
256,192,185132,5,0
256,192,185298,1,0
256,192,185465,5,2
256,192,185632,5,0
256,192,185798,5,2
256,192,185965,5,0
256,192,186132,1,0
256,192,186298,1,0
256,192,186465,1,0
256,192,186632,5,2
256,192,186965,5,4
256,192,187465,5,2
256,192,187632,5,0
256,192,187965,1,0
256,192,188132,5,2
256,192,188465,5,0
256,192,188632,1,0
256,192,188715,1,0
256,192,188798,5,2
256,192,188965,5,0
256,192,189132,5,2
256,192,189187,1,2
256,192,189243,1,2
256,192,189298,1,2
256,192,189465,1,2
256,192,189632,5,0
256,192,189798,1,4
256,192,190132,5,2
256,192,190465,5,0
256,192,190632,1,0
256,192,190798,5,2
256,192,190965,5,0
256,192,191298,1,0
256,192,191465,5,2
256,192,191632,5,0
256,192,191965,1,0
256,192,192132,5,2
256,192,192298,5,0
256,192,192465,1,4
256,192,192798,5,2
256,192,192965,1,2
256,192,193132,5,0
256,192,193298,1,0
256,192,193465,5,2
256,192,193632,5,0
256,192,193965,1,0
256,192,194132,5,2
256,192,194298,5,0
256,192,194465,5,2
256,192,194521,1,2
256,192,194576,1,2
256,192,194632,1,2
256,192,194798,1,2
256,192,194965,1,2
256,192,195132,5,4
256,192,195465,5,2
256,192,195632,1,2
256,192,195798,1,2
256,192,195965,5,0
256,192,196132,1,0
256,192,196298,5,2
256,192,196632,1,2
256,192,196798,1,2
256,192,197833,5,4
256,192,198166,5,2
256,192,198333,5,0
256,192,198499,1,0
256,192,198583,1,0
256,192,198666,1,0
256,192,198833,5,2
256,192,198999,5,0
256,192,199333,1,0
256,192,199499,5,2
256,192,199666,5,0
256,192,199833,1,0
256,192,199999,1,0
256,192,200166,5,2
256,192,200499,5,0
256,192,200833,5,2
256,192,201166,5,0
256,192,201333,1,0
256,192,201499,5,2
256,192,201666,5,0
256,192,201999,1,0
256,192,202166,5,2
256,192,202332,5,0
256,192,202499,5,2
256,192,202666,5,0
256,192,202832,5,2
256,192,202999,5,0
256,192,203166,1,4
256,192,203499,5,2
256,192,203666,5,0
256,192,203833,1,0
256,192,203999,1,0
256,192,204166,5,2
256,192,204333,5,0
256,192,204666,1,0
256,192,204833,5,2
256,192,204999,5,0
256,192,205166,1,0
256,192,205333,1,0
256,192,205416,1,0
256,192,205499,5,2
256,192,205666,5,0
256,192,205833,1,0
256,192,206166,5,2
256,192,206499,5,0
256,192,206666,1,0
256,192,206833,5,2
256,192,206999,5,0
256,192,207333,1,0
256,192,207499,5,2
256,192,207666,5,0
256,192,207833,5,2
256,192,207888,1,2
256,192,207944,1,2
256,192,207999,1,2
256,192,208166,1,2
256,192,208333,5,0
256,192,208499,1,4
256,192,208833,5,2
256,192,208999,5,0
256,192,209166,1,0
256,192,209333,1,0
256,192,209499,5,2
256,192,209666,5,0
256,192,209833,1,0
256,192,209999,1,0
256,192,210083,1,0
256,192,210166,5,2
256,192,210333,5,0
256,192,210416,5,2
256,192,210499,5,0
256,192,210666,1,0
256,192,210833,5,2
256,192,211166,5,0
256,192,211333,1,0
256,192,211499,5,2
256,192,211666,5,0
256,192,211833,1,0
256,192,211916,1,0
256,192,211999,1,0
256,192,212166,1,0
256,192,212332,5,2
256,192,212666,5,0
256,192,212832,5,2
256,192,212999,5,0
256,192,213166,1,0
256,192,213332,5,2
256,192,213499,1,2
256,192,213666,1,2
256,192,213832,5,4
256,192,214166,5,2
256,192,214332,5,0
256,192,214499,1,0
256,192,214582,1,0
256,192,214666,1,0
256,192,214832,5,2
256,192,214999,5,0
256,192,215332,1,0
256,192,215499,5,2
256,192,215666,5,0
256,192,215749,1,0
256,192,215832,1,0
256,192,215999,1,0
256,192,216166,5,2
256,192,216332,5,0
256,192,216416,1,0
256,192,216499,1,0
256,192,216666,1,0
256,192,216749,1,0
256,192,216832,5,2
256,192,216999,5,0
256,192,217166,1,0
256,192,217332,1,0
256,192,217499,5,2
256,192,217666,5,0
256,192,217832,1,0
256,192,217999,1,0
256,192,218082,1,0
256,192,218166,5,2
256,192,218332,5,0
256,192,218416,5,2
256,192,218499,5,0
256,192,218666,1,0
256,192,218832,5,2
256,192,218999,5,0
256,192,219166,1,4
