osu file format v12

[General]
AudioFilename: One-Chance.mp3
AudioLeadIn: 2000
PreviewTime: 59438
Countdown: 0
SampleSet: Soft
StackLeniency: 0.3
Mode: 0
LetterboxInBreaks: 1
WidescreenStoryboard: 0

[Editor]
Bookmarks: 591
DistanceSpacing: 1
BeatDivisor: 4
GridSize: 8

[Metadata]
Title:One-Chance!! (Short Ver.)
TitleUnicode:One-Chance!! (Short Ver.)
Artist:KOTOKO & Satou Hiromi
ArtistUnicode:KOTOKO & Satou Hiromi
Creator:sammy711
Version:One More Chance!!!
Source:Pure Girl
Tags:I've Frontwing
BeatmapID:265363
BeatmapSetID:96304

[Difficulty]
HPDrainRate:6
CircleSize:4
OverallDifficulty:6
ApproachRate:8
SliderMultiplier:2.49999990463257
SliderTickRate:2

[Events]
//Background and Video events
0,0,"BG.jpg",0,0
//Break Periods
//Storyboard Layer 0 (Background)
//Storyboard Layer 1 (Fail)
//Storyboard Layer 2 (Pass)
//Storyboard Layer 3 (Foreground)
//Storyboard Sound Samples
//Background Colour Transformations
3,100,163,162,255

[TimingPoints]
696,419.585909186315,4,2,0,70,1,0
1214,-125,4,2,0,70,0,0
6989,-100,4,2,0,70,0,0
59438,-83.3333333333333,4,2,0,70,0,1
65941,-50,4,2,0,70,0,1
67829,-83.3333333333333,4,2,0,70,0,1
72445,-83.3333333333333,4,2,0,70,0,0
72864,-83.3333333333333,4,2,0,70,0,1
87969,-153.846153846153,4,2,0,70,0,0
91955,-100,4,2,0,70,0,0
93004,-83.3333333333333,4,2,0,70,0,0
99718,-66.6666666666667,4,2,0,10,0,0

[Colours]
Combo1 : 200,0,0
Combo2 : 0,200,0
Combo3 : 255,255,255
Combo4 : 200,0,200
Combo5 : 255,255,0

[HitObjects]
200,32,696,2,2,L|80:72,1,124.999995231628
184,152,1115,1,0,0:0:0:0:
352,48,1325,1,0,0:0:0:0:
352,48,1744,1,0,0:0:0:0:
168,256,2164,5,0,0:0:0:0:
168,256,2269,1,0,0:0:0:0:
168,256,2374,1,0,0:0:0:0:
328,112,2584,1,0,0:0:0:0:
293,322,2793,1,0,0:0:0:0:
230,29,3003,1,0,0:0:0:0:
230,29,3423,2,0,L|296:336,1,299.999988555908
293,322,4472,5,0,0:0:0:0:
80,112,4682,1,0,0:0:0:0:
80,112,4786,1,0,0:0:0:0:
80,112,4891,1,2,0:0:0:0:
376,16,5101,1,0,0:0:0:0:
480,264,5311,2,0,P|448:320|384:368,1,99.9999961853028
178,207,5731,5,2,0:0:0:0:
182,196,5835,1,0,0:0:0:0:
186,189,5940,1,0,0:0:0:0:
189,181,6045,1,0,0:0:0:0:
192,174,6150,1,0,0:0:0:0:
194,166,6255,1,0,0:0:0:0:
197,158,6360,1,0,0:0:0:0:
200,152,6465,1,0,0:0:0:0:
202,144,6570,1,2,0:0:0:0:
205,137,6675,1,0,0:0:0:0:
209,129,6779,1,0,0:0:0:0:
212,122,6884,1,0,0:0:0:0:
217,115,6989,2,0,P|261:56|301:25,1,124.999995231629,8|0,0:0|0:0,0:0:0:0:
472,176,7409,5,6,0:0:0:0:
56,40,7619,1,0,0:0:0:0:
56,40,7724,1,0,0:0:0:0:
56,40,7828,1,0,0:0:0:0:
112,280,8038,1,0,0:0:0:0:
160,32,8248,1,0,0:0:0:0:
360,288,8458,1,2,0:0:0:0:
32,352,8668,1,0,0:0:0:0:
352,376,8877,1,0,0:0:0:0:
207,95,9087,6,0,B|239:181|140:259|200:336,1,249.999990463257,2|8,0:0|0:0,0:0:0:0:
56,40,9717,1,0,0:0:0:0:
272,280,9926,1,2,0:0:0:0:
272,280,10031,1,0,0:0:0:0:
272,280,10136,1,0,0:0:0:0:
480,24,10346,1,0,0:0:0:0:
456,160,10556,5,0,0:0:0:0:
456,160,10661,1,0,0:0:0:0:
456,160,10766,2,0,L|412:342,1,187.499992847443,6|0,0:0|0:0,0:0:0:0:
192,296,11395,2,0,L|376:112,1,249.999990463257
208,120,12024,2,0,L|86:148,1,124.999995231629,8|0,0:0|0:0,0:0:0:0:
296,64,12444,5,2,0:0:0:0:
384,272,12654,1,0,0:0:0:0:
384,272,12758,1,4,0:0:0:0:
136,128,13073,1,0,0:0:0:0:
136,128,13493,6,0,P|137:300|40:216,1,374.999985694885,0|6,0:0|0:0,0:0:0:0:
0,131,14332,1,0,0:0:0:0:
125,210,14542,1,0,0:0:0:0:
208,72,14752,2,0,L|296:16,1,62.4999976158143
280,296,15171,1,0,0:0:0:0:
416,160,15381,2,0,B|312:88,1,124.999995231629,8|0,0:0|0:0,0:0:0:0:
48,344,15801,6,0,P|48:304|72:208,1,124.999995231629,2|0,0:0|0:0,0:0:0:0:
101,228,16115,1,0,0:0:0:0:
144,232,16220,2,0,P|184:168|248:120,1,124.999995231629,8|0,0:0|0:0,0:0:0:0:
336,16,16640,1,2,0:0:0:0:
368,41,16745,1,0,0:0:0:0:
392,80,16850,1,0,0:0:0:0:
456,240,17059,2,0,P|472:296|480:376,1,124.999995231629
56,56,17479,5,6,0:0:0:0:
56,56,17584,1,0,0:0:0:0:
56,56,17689,1,0,0:0:0:0:
48,208,17899,2,0,L|55:270,1,62.4999976158143,4|0,0:0|0:0,0:0:0:0:
168,296,18108,2,0,L|216:336,1,62.4999976158143,8|0,0:0|0:0,0:0:0:0:
456,352,18528,6,0,B|384:336|384:336|384:288|376:224|288:176,1,249.999990463257,0|4,0:0|0:0,0:0:0:0:
184,32,19157,1,2,0:0:0:0:
184,32,19262,1,0,0:0:0:0:
184,32,19367,1,0,0:0:0:0:
416,56,19577,2,0,P|456:112|471:165,2,124.999995231629
216,88,20206,5,0,0:0:0:0:
216,88,20311,1,0,0:0:0:0:
216,88,20416,1,0,0:0:0:0:
128,168,20626,2,0,P|192:200|244:205,2,124.999995231629,0|2|0,0:0|0:0|0:0,0:0:0:0:
48,248,21255,2,2,P|136:304|278:328,2,249.999990463257,12|2|12,0:0|0:0|0:0,0:0:0:0:
72,80,22304,5,0,0:0:0:0:
72,80,22409,1,0,0:0:0:0:
72,80,22514,2,2,P|136:72|248:96,1,124.999995231629,2|0,0:0|0:0,0:0:0:0:
464,328,22934,2,0,P|424:352|312:384,1,124.999995231629,8|0,0:0|0:0,0:0:0:0:
400,176,23353,2,2,P|448:80|452:1,2,187.499991059303,6|4|4,0:0|0:0|0:0,0:0:0:0:
264,290,24192,5,0,0:0:0:0:
136,158,24402,1,0,0:0:0:0:
136,158,24507,1,0,0:0:0:0:
136,158,24612,1,0,0:0:0:0:
264,290,24822,1,0,0:0:0:0:
359,122,25242,5,0,0:0:0:0:
359,122,25347,1,0,0:0:0:0:
359,122,25451,2,0,L|418:87,1,62.4999976158143
310,5,25661,2,0,L|296:83,1,62.4999976158143
209,63,25871,2,0,L|197:1,1,62.4999976158143
106,91,26081,2,0,L|159:122,1,62.4999976158143
198,135,26290,5,0,0:0:0:0:
242,129,26395,1,0,0:0:0:0:
283,136,26500,1,0,0:0:0:0:
319,164,26605,1,0,0:0:0:0:
338,208,26710,1,0,0:0:0:0:
321,243,26815,1,0,0:0:0:0:
297,278,26920,1,0,0:0:0:0:
284,322,27025,1,0,0:0:0:0:
311,357,27129,1,0,0:0:0:0:
357,359,27234,1,0,0:0:0:0:
388,342,27339,1,0,0:0:0:0:
411,308,27444,1,0,0:0:0:0:
398,271,27549,5,0,0:0:0:0:
224,216,27759,1,0,0:0:0:0:
128,352,27969,2,0,P|64:336|-23:368,1,124.999995231629
88,176,28388,2,0,P|132:190|189:144,1,124.999995231629
136,24,28808,5,0,0:0:0:0:
0,176,29018,1,0,0:0:0:0:
157,132,29227,2,0,P|213:156|317:164,1,124.999995231629
333,172,29542,1,0,0:0:0:0:
389,172,29647,6,0,P|445:148|509:140,1,124.999995231629
264,304,30067,1,0,0:0:0:0:
168,128,30276,1,0,0:0:0:0:
112,328,30486,1,0,0:0:0:0:
480,312,30906,6,0,P|416:288|312:288,1,124.999995231629
312,288,31220,1,0,0:0:0:0:
264,296,31325,2,0,P|200:296|112:264,1,124.999995231629
48,216,31745,6,0,P|64:144|93:99,1,124.999995231629
136,72,32060,1,0,0:0:0:0:
184,48,32164,2,0,P|232:24|360:32,1,124.999995231629
392,64,32584,5,0,0:0:0:0:
464,344,32899,1,0,0:0:0:0:
464,344,33213,2,0,L|466:141,1,187.499991059303,0|0,0:0|0:0,0:0:0:0:
464,64,33633,1,4,0:0:0:0:
144,320,34053,6,2,P|96:344|-16:360,2,124.999994039536,0|2|0,0:0|0:0|0:0,0:0:0:0:
336,200,34682,1,0,0:0:0:0:
97,55,34892,1,0,0:0:0:0:
349,111,35102,5,2,0:0:0:0:
392,216,35312,1,0,0:0:0:0:
305,313,35522,1,0,0:0:0:0:
127,209,35731,1,0,0:0:0:0:
448,184,35941,6,0,P|400:208|288:208,1,124.999995231629
288,192,36255,2,0,P|200:160|80:160,1,187.499992847443
32,272,36780,1,0,0:0:0:0:
272,248,36990,1,0,0:0:0:0:
144,96,37199,5,0,0:0:0:0:
192,328,37409,1,0,0:0:0:0:
192,328,37514,1,0,0:0:0:0:
192,328,37619,1,0,0:0:0:0:
384,160,37829,2,0,P|424:224|432:304,1,124.999995231629
120,240,38668,5,4,0:0:0:0:
120,240,38773,1,0,0:0:0:0:
120,240,38878,1,0,0:0:0:0:
8,160,39088,2,0,P|64:96|128:72,1,124.999995231629,4|6,0:0|0:0,0:0:0:0:
256,192,39402,12,0,42235,0:0:0:0:
24,104,42654,5,6,0:0:0:0:
160,0,42969,1,4,0:0:0:0:
256,232,43283,1,4,0:0:0:0:
256,232,43703,5,4,0:0:0:0:
312,384,43913,1,0,0:0:0:0:
392,304,44123,1,0,0:0:0:0:
256,232,44332,5,6,0:0:0:0:
24,104,44647,1,4,0:0:0:0:
160,0,44962,1,4,0:0:0:0:
456,200,45381,5,4,0:0:0:0:
208,352,45801,5,0,0:0:0:0:
208,352,45906,1,0,0:0:0:0:
208,352,46011,1,6,0:0:0:0:
48,256,46325,2,2,B|40:232|24:208|24:208|64:144|56:72,1,187.499992847443,4|4,0:0|0:0,0:0:0:0:
296,56,47060,5,0,0:0:0:0:
288,336,47270,1,0,0:0:0:0:
21,174,47479,1,0,0:0:0:0:
352,152,47689,1,6,0:0:0:0:
352,152,47794,1,0,0:0:0:0:
192,344,48004,1,0,0:0:0:0:
152,32,48319,1,0,0:0:0:0:
392,320,48528,5,6,0:0:0:0:
392,320,48633,1,0,0:0:0:0:
392,320,48738,1,0,0:0:0:0:
88,240,48948,1,0,0:0:0:0:
88,240,49053,1,0,0:0:0:0:
88,240,49158,1,0,0:0:0:0:
88,240,49263,1,0,0:0:0:0:
88,240,49367,5,6,0:0:0:0:
264,24,49577,1,0,0:0:0:0:
384,304,49787,1,0,0:0:0:0:
32,152,49997,1,0,0:0:0:0:
392,8,50207,1,2,0:0:0:0:
344,368,50416,1,0,0:0:0:0:
224,88,50626,1,0,0:0:0:0:
464,296,50836,1,0,0:0:0:0:
504,40,51046,5,6,0:0:0:0:
256,384,51360,1,4,0:0:0:0:
8,40,51675,1,4,0:0:0:0:
48,272,51885,2,2,P|144:256|272:176,1,249.999990463257,6|0,0:0|0:0,0:0:0:0:
440,344,52514,5,0,0:0:0:0:
440,344,52619,1,0,0:0:0:0:
440,344,52724,1,2,0:0:0:0:
264,232,53039,2,0,L|192:248,1,62.4999976158143,0|8,0:0|0:0,0:0:0:0:
440,280,53354,2,0,L|504:264,1,62.4999976158143
336,136,53773,6,2,L|376:16,1,124.999994039536,0|8,0:0|0:0,0:0:0:0:
272,352,54193,1,0,0:0:0:0:
272,352,54298,1,0,0:0:0:0:
272,352,54402,2,0,L|192:384,1,62.4999970197678,2|0,0:0|0:0,0:0:0:0:
216,256,54612,2,0,L|128:232,1,62.4999970197678
192,120,54822,2,0,L|160:48,1,62.4999970197678,8|0,0:0|0:0,0:0:0:0:
328,96,55032,5,0,0:0:0:0:
351,59,55137,1,0,0:0:0:0:
381,33,55242,1,2,0:0:0:0:
496,304,55451,1,0,0:0:0:0:
160,376,55661,1,0,0:0:0:0:
112,48,55871,1,0,0:0:0:0:
443,0,56081,5,6,0:0:0:0:
325,384,56291,1,0,0:0:0:0:
36,130,56500,2,0,P|11:80|4:-22,1,124.999995231629
136,62,56920,5,0,0:0:0:0:
184,46,57025,1,0,0:0:0:0:
231,35,57130,1,0,0:0:0:0:
272,37,57235,1,0,0:0:0:0:
321,45,57340,1,0,0:0:0:0:
364,60,57444,1,0,0:0:0:0:
405,77,57549,1,0,0:0:0:0:
446,97,57654,1,0,0:0:0:0:
477,128,57759,2,0,P|496:202|459:351,1,187.499992847443
250,292,58388,5,0,0:0:0:0:
24,237,58598,1,0,0:0:0:0:
238,350,58808,1,0,0:0:0:0:
36,179,59018,1,0,0:0:0:0:
238,350,59228,1,0,0:0:0:0:
250,292,59333,1,0,0:0:0:0:
264,243,59438,6,0,P|264:176|248:80,1,149.999989700318
376,8,59857,2,0,P|406:67|435:160,1,149.999989700318
376,272,60277,1,0,0:0:0:0:
200,312,60486,1,0,0:0:0:0:
22,172,60696,6,0,P|98:130|160:120,1,149.999998569489,8|0,0:0|0:0,0:0:0:0:
200,120,61011,1,0,0:0:0:0:
240,128,61116,1,2,0:0:0:0:
304,160,61326,1,0,0:0:0:0:
456,352,61535,1,0,0:0:0:0:
448,96,61745,1,0,0:0:0:0:
448,96,61850,1,0,0:0:0:0:
448,96,61955,1,0,0:0:0:0:
512,280,62165,1,0,0:0:0:0:
368,256,62375,1,0,0:0:0:0:
368,256,62794,6,0,B|264:424,1,149.999998569489,2|0,0:0|0:0,0:0:0:0:
248,152,63214,2,0,P|296:104|424:56,1,149.999998569489,8|0,0:0|0:0,0:0:0:0:
112,320,63633,2,0,L|16:280,1,74.9999992847443,2|0,0:0|0:0,0:0:0:0:
177,213,63948,2,0,L|161:93,1,74.9999992847443,0|8,0:0|0:0,0:0:0:0:
360,32,64263,1,0,0:0:0:0:
384,224,64473,6,0,P|328:256|232:232,1,149.999989700318
246,242,64787,1,0,0:0:0:0:
246,242,64892,1,0,0:0:0:0:
472,144,65102,1,0,0:0:0:0:
332,350,65312,1,0,0:0:0:0:
296,366,65417,1,0,0:0:0:0:
252,376,65522,1,0,0:0:0:0:
205,376,65626,1,0,0:0:0:0:
162,357,65731,1,0,0:0:0:0:
256,144,65941,54,0,B|224:106|200:114|136:144|160:208|200:258|272:264,1,249.999990463257,0|6,0:0|0:0,0:0:0:0:
256,144,66570,2,0,B|288:106|312:114|376:144|352:208|312:258|240:264,1,249.999990463257,12|4,0:0|0:0,0:0:0:0:
96,144,67200,5,0,0:0:0:0:
256,32,67410,1,0,0:0:0:0:
418,144,67619,1,0,0:0:0:0:
256,280,67829,2,2,B|216:280|160:260|130:223|118:187|96:160,1,149.999989700318,14|0,0:0|0:0,0:0:0:0:
256,280,68249,2,2,B|296:280|352:260|382:223|394:187|416:160,1,149.999989700318,14|0,0:0|0:0,0:0:0:0:
464,72,68668,5,2,0:0:0:0:
464,72,68773,1,0,0:0:0:0:
464,72,68878,1,0,0:0:0:0:
184,136,69088,1,0,0:0:0:0:
184,136,69193,1,0,0:0:0:0:
184,136,69298,1,0,0:0:0:0:
184,136,69403,1,0,0:0:0:0:
184,136,69508,1,2,0:0:0:0:
360,8,69717,5,0,0:0:0:0:
344,344,69927,1,0,0:0:0:0:
256,88,70137,1,0,0:0:0:0:
387,144,70347,2,0,P|264:264|144:296,1,299.999979400636
256,56,70976,1,0,0:0:0:0:
368,296,71186,2,0,P|248:264|124:144,1,299.999979400636
256,16,71815,2,0,L|256:166,1,149.999998569489,0|14,0:0|0:0,0:0:0:0:
56,184,72445,5,0,0:0:0:0:
456,184,72654,1,0,0:0:0:0:
144,88,72864,1,4,0:0:0:0:
328,256,73074,1,0,0:0:0:0:
344,0,73284,1,0,0:0:0:0:
128,344,73494,1,0,0:0:0:0:
128,344,73703,6,2,L|353:344,1,224.999997854233,8|0,0:0|0:0,0:0:0:0:
40,344,74333,1,0,0:0:0:0:
75,184,74543,1,0,0:0:0:0:
189,65,74752,1,0,0:0:0:0:
368,32,74962,5,0,0:0:0:0:
184,160,75172,1,0,0:0:0:0:
184,160,75277,1,0,0:0:0:0:
184,160,75382,1,0,0:0:0:0:
376,352,75592,1,0,0:0:0:0:
56,336,75802,1,0,0:0:0:0:
72,304,76221,5,0,0:0:0:0:
264,24,76431,1,0,0:0:0:0:
296,336,76641,1,0,0:0:0:0:
72,80,76850,1,0,0:0:0:0:
360,168,77060,2,0,P|416:208|488:344,2,224.999984550477
148,53,77899,1,0,0:0:0:0:
237,26,78214,6,0,P|204:126|76:104,1,224.999984550477
18,214,78738,1,0,0:0:0:0:
13,261,78843,1,0,0:0:0:0:
16,304,78948,1,0,0:0:0:0:
36,347,79053,1,0,0:0:0:0:
68,378,79158,1,2,0:0:0:0:
199,249,79368,6,0,P|218:196|302:193,1,149.999998569489,0|2,0:0|0:0,0:0:0:0:
504,248,79787,2,0,P|486:195|402:192,1,149.999998569489,0|12,0:0|0:0,0:0:0:0:
288,312,80207,2,0,P|376:344|432:272,1,149.999989700318
352,248,80732,1,0,0:0:0:0:
19,92,81046,38,2,P|123:60|223:196,1,299.999997138977,4|0,0:0|0:0,0:0:0:0:
152,208,81676,2,0,P|99:140|46:152,1,149.999998569489,2|0,0:0|0:0,0:0:0:0:
0,337,82095,2,2,L|84:213,1,149.999998569489,12|0,0:0|0:0,0:0:0:0:
84,213,82410,1,0,0:0:0:0:
184,88,82725,5,0,0:0:0:0:
184,88,82829,1,0,0:0:0:0:
184,88,82934,1,0,0:0:0:0:
328,56,83144,1,0,0:0:0:0:
464,144,83354,1,2,0:0:0:0:
488,304,83564,1,0,0:0:0:0:
351,336,83774,5,0,0:0:0:0:
332,336,83878,1,0,0:0:0:0:
313,336,83983,1,0,0:0:0:0:
293,336,84088,1,0,0:0:0:0:
256,336,84193,1,0,0:0:0:0:
217,336,84298,1,0,0:0:0:0:
178,336,84403,1,0,0:0:0:0:
139,336,84508,1,0,0:0:0:0:
81,336,84613,1,0,0:0:0:0:
72,88,85032,5,2,0:0:0:0:
234,243,85452,1,0,0:0:0:0:
72,88,85767,2,2,B|240:248,1,224.999984550477
184,48,86291,5,4,0:0:0:0:
295,148,86606,1,0,0:0:0:0:
184,48,86920,2,2,B|336:184,1,149.999989700318
312,32,87340,1,0,0:0:0:0:
80,224,87550,1,0,0:0:0:0:
200,352,87760,5,0,0:0:0:0:
200,352,87864,1,0,0:0:0:0:
200,352,87969,1,4,0:0:0:0:
192,224,88179,1,0,0:0:0:0:
80,224,88389,1,0,0:0:0:0:
312,352,88599,1,2,0:0:0:0:
393,305,88809,5,0,0:0:0:0:
412,289,88913,1,0,0:0:0:0:
428,270,89018,1,0,0:0:0:0:
440,248,89123,1,0,0:0:0:0:
448,224,89228,1,2,0:0:0:0:
454,199,89333,1,0,0:0:0:0:
456,174,89438,1,0,0:0:0:0:
455,148,89543,1,0,0:0:0:0:
448,123,89648,2,0,L|480:64,2,40.6249965906145,8|0|0,0:0|0:0|0:0,0:0:0:0:
364,79,90067,5,2,0:0:0:0:
343,64,90172,1,0,0:0:0:0:
318,58,90277,1,0,0:0:0:0:
293,55,90382,1,0,0:0:0:0:
267,56,90487,1,0,0:0:0:0:
242,61,90592,1,0,0:0:0:0:
218,69,90697,1,0,0:0:0:0:
197,82,90801,1,0,0:0:0:0:
178,98,90906,1,2,0:0:0:0:
152,288,91116,5,0,0:0:0:0:
152,288,91221,1,0,0:0:0:0:
152,288,91326,2,0,P|132:243|74:200,1,121.874989771844,12|0,0:0|0:0,0:0:0:0:
80,128,91955,2,0,P|200:216|231:307,1,249.999990463257,12|0,0:0|0:0,0:0:0:0:
168,360,92585,1,0,0:0:0:0:
32,264,92795,1,0,0:0:0:0:
264,120,93004,6,0,L|472:24,1,224.999984550477,8|4,0:0|0:0,0:0:0:0:
264,120,93634,1,4,0:0:0:0:
264,264,93844,2,0,L|472:360,1,224.999984550477,12|0,0:0|0:0,0:0:0:0:
264,264,94473,1,4,0:0:0:0:
256,192,94578,12,0,99718,0:0:0:0:
