osu file format v12

[General]
AudioFilename: One-Chance.mp3
AudioLeadIn: 2000
PreviewTime: 59438
Countdown: 0
SampleSet: Soft
StackLeniency: 0.3
Mode: 0
LetterboxInBreaks: 1

[Editor]
DistanceSpacing: 1
BeatDivisor: 2
GridSize: 8

[Metadata]
Title:One-Chance!! (Short Ver.)
TitleUnicode:One-Chance!! (Short Ver.)
Artist:KOTOKO & Satou Hiromi
ArtistUnicode:KOTOKO & Satou Hiromi
Creator:sammy711
Version:Normal
Source:Pure Girl
Tags:I've Frontwing
BeatmapID:270460
BeatmapSetID:96304

[Difficulty]
HPDrainRate:5
CircleSize:3
OverallDifficulty:5
ApproachRate:5
SliderMultiplier:0.999999999999999
SliderTickRate:1

[Events]
//Background and Video events
0,0,"BG.jpg",0,0
//Break Periods
//Storyboard Layer 0 (Background)
//Storyboard Layer 1 (Fail)
//Storyboard Layer 2 (Pass)
//Storyboard Layer 3 (Foreground)
//Storyboard Sound Samples
//Background Colour Transformations
3,100,163,162,255

[TimingPoints]
696,419.585909186315,4,2,0,70,1,0
14122,-100,4,2,0,70,0,0
59438,-100,4,2,0,70,0,1
72445,-100,4,2,0,70,0,0
72864,-100,4,2,0,70,0,1
87969,-100,4,2,0,70,0,0
99718,-100,4,2,0,10,0,0

[Colours]
Combo1 : 200,0,0
Combo2 : 0,200,0
Combo3 : 255,255,255
Combo4 : 200,0,200
Combo5 : 255,255,0

[HitObjects]
56,80,696,2,0,P|120:64|168:64,1,99.9999999999999,0|8,0:0|0:0,0:0:0:0:
200,64,1325,2,0,P|256:64|312:72,2,99.9999999999999
168,96,2374,2,0,P|136:152|144:208,1,99.9999999999999,0|8,0:0|0:0,0:0:0:0:
152,232,3003,2,0,P|184:264|256:280,2,99.9999999999999
128,192,4052,5,0,0:0:0:0:
168,104,4472,1,8,0:0:0:0:
264,104,4891,1,0,0:0:0:0:
360,104,5311,1,8,0:0:0:0:
408,104,5521,1,0,0:0:0:0:
456,104,5731,2,0,L|448:224,1,99.9999999999999,0|8,0:0|0:0,0:0:0:0:
352,240,6570,2,0,L|320:352,1,99.9999999999999,0|8,0:0|0:0,0:0:0:0:
224,336,7409,1,0,0:0:0:0:
136,288,7828,5,8,0:0:0:0:
64,216,8248,2,0,L|64:96,1,99.9999999999999,0|8,0:0|0:0,0:0:0:0:
160,88,9087,2,0,L|224:64,1,50
256,48,9507,2,0,L|336:56,1,50,8|0,0:0|0:0,0:0:0:0:
352,64,9926,1,0,0:0:0:0:
416,144,10346,1,8,0:0:0:0:
432,240,10766,6,0,P|411:282|368:336,1,99.9999999999999,0|8,0:0|0:0,0:0:0:0:
344,352,11395,2,0,P|296:376|224:376,1,99.9999999999999
200,376,12024,2,0,P|160:368|120:328,1,50,8|0,0:0|0:0,0:0:0:0:
112,336,12444,2,0,P|64:304|24:208,2,150,0|0|8,0:0|0:0|0:0,0:0:0:0:
120,240,14122,6,0,L|224:208,1,99.9999999999999,0|8,0:0|0:0,0:0:0:0:
256,120,14961,1,0,0:0:0:0:
352,88,15381,1,8,0:0:0:0:
408,168,15801,2,0,L|384:288,1,99.9999999999999,0|8,0:0|0:0,0:0:0:0:
480,304,16640,1,0,0:0:0:0:
480,304,16850,1,0,0:0:0:0:
480,304,17059,2,0,L|448:360,1,50,8|0,0:0|0:0,0:0:0:0:
408,352,17479,6,0,L|280:320,1,99.9999999999999,0|8,0:0|0:0,0:0:0:0:
264,312,18108,2,0,P|208:256|192:208,2,99.9999999999999
328,240,19367,1,0,0:0:0:0:
328,192,19577,1,8,0:0:0:0:
328,144,19787,2,0,P|288:88|160:40,1,200
120,40,20836,2,0,P|56:80|32:144,1,99.9999999999999,0|8,0:0|0:0,0:0:0:0:
40,200,21675,6,0,L|32:264,1,50
80,280,22094,2,0,P|96:344|128:400,2,99.9999999999999,8|0|8,0:0|0:0|0:0,0:0:0:0:
152,192,23353,2,0,L|264:128,1,99.9999999999999,0|8,0:0|0:0,0:0:0:0:
304,64,24192,6,0,P|344:24|424:24,1,99.9999999999999,0|8,0:0|0:0,0:0:0:0:
448,24,24822,2,0,P|504:80|488:160,1,150,0|8,0:0|0:0,0:0:0:0:
456,240,25871,1,0,0:0:0:0:
400,320,26290,1,8,0:0:0:0:
312,360,26710,2,0,P|216:376|96:344,1,200
48,280,27969,5,8,0:0:0:0:
24,184,28388,2,0,P|32:136|56:80,1,99.9999999999999,0|8,0:0|0:0,0:0:0:0:
96,56,29018,2,0,L|160:24,1,50
240,24,29647,2,0,L|296:24,1,50,8|0,0:0|0:0,0:0:0:0:
344,32,30067,2,0,P|392:40|456:80,1,99.9999999999999,0|8,0:0|0:0,0:0:0:0:
416,160,30906,6,0,L|456:280,2,99.9999999999999,0|8|0,0:0|0:0|0:0,0:0:0:0:
320,144,32164,1,8,0:0:0:0:
312,192,32373,1,0,0:0:0:0:
296,240,32584,2,0,P|288:256|160:312,1,150
88,264,33633,2,0,L|97:313,2,50,0|8|0,0:0|0:0|0:0,0:0:0:0:
80,216,34262,6,0,P|104:160|168:120,1,99.9999999999999,0|8,0:0|0:0,0:0:0:0:
216,80,35102,1,0,0:0:0:0:
312,48,35521,1,8,0:0:0:0:
408,32,35941,2,0,P|464:48|496:80,3,99.9999999999999,0|8|0|8,0:0|0:0|0:0|0:0,0:0:0:0:
488,128,37409,2,0,L|480:184,1,50
448,272,38039,1,8,0:0:0:0:
304,312,38668,5,0,0:0:0:0:
264,288,38878,1,8,0:0:0:0:
224,264,39088,2,0,L|168:224,1,50
256,192,39507,12,0,41815,0:0:0:0:
256,192,42235,5,8,0:0:0:0:
352,160,42654,2,0,L|472:200,1,99.9999999999999,0|8,0:0|0:0,0:0:0:0:
376,256,43493,2,0,B|400:368|400:360,1,99.9999999999999,0|8,0:0|0:0,0:0:0:0:
304,328,44332,2,0,P|232:304|160:224,1,150
168,352,45381,5,0,0:0:0:0:
80,312,45801,1,0,0:0:0:0:
56,272,46011,2,0,B|24:208|27:126|32:88,1,150
72,32,47060,1,0,0:0:0:0:
120,24,47270,2,0,L|168:0|200:-16,1,50,8|8,0:0|0:0,0:0:0:0:
216,16,47689,6,0,L|296:24,1,50
312,40,48109,1,8,0:0:0:0:
352,72,48319,1,0,0:0:0:0:
384,104,48528,2,0,P|400:152|416:208,1,99.9999999999999,0|8,0:0|0:0,0:0:0:0:
416,296,49367,6,0,L|456:344,2,50,0|0|8,0:0|0:0|0:0,0:0:0:0:
368,312,49997,2,0,L|358:373,2,50,0|0|0,0:0|0:0|0:0,0:0:0:0:
320,304,50626,2,0,L|264:240,1,50,8|0,0:0|0:0,0:0:0:0:
256,232,51046,2,0,L|136:184,1,99.9999999999999,0|8,0:0|0:0,0:0:0:0:
64,208,51885,2,0,L|72:104,1,99.9999999999999,0|8,0:0|0:0,0:0:0:0:
152,56,52724,6,0,L|40:8,2,99.9999999999999,0|8|0,0:0|0:0|0:0,0:0:0:0:
200,80,53773,2,0,L|264:112,1,50,0|8,0:0|0:0,0:0:0:0:
288,128,54193,1,0,0:0:0:0:
336,152,54402,1,0,0:0:0:0:
424,192,54822,6,0,B|432:248|475:243|448:320|360:368,1,200,8|8,0:0|0:0,0:0:0:0:
272,344,56081,1,0,0:0:0:0:
176,344,56500,1,8,0:0:0:0:
176,240,56920,1,0,0:0:0:0:
72,240,57340,1,8,0:0:0:0:
72,144,57759,2,0,B|192:144|224:224|392:248,1,300,0|8,0:0|0:0,0:0:0:0:
400,248,59228,6,0,L|448:216,1,50
440,168,59647,2,0,L|504:176,2,50,0|8|0,0:0|0:0|0:0,0:0:0:0:
416,128,60277,2,0,P|392:104|296:80,1,99.9999999999999,0|8,0:0|0:0,0:0:0:0:
280,64,60906,5,0,0:0:0:0:
232,56,61116,2,0,P|172:42|96:56,1,99.9999999999999,0|8,0:0|0:0,0:0:0:0:
96,72,61745,1,0,0:0:0:0:
72,112,61955,2,0,P|48:160|56:248,1,99.9999999999999,0|8,0:0|0:0,0:0:0:0:
48,256,62584,1,0,0:0:0:0:
64,304,62794,2,0,P|104:344|176:352,1,99.9999999999999,0|8,0:0|0:0,0:0:0:0:
192,368,63424,1,0,0:0:0:0:
240,360,63633,6,0,P|312:352|368:328,1,99.9999999999999,0|8,0:0|0:0,0:0:0:0:
376,312,64263,1,0,0:0:0:0:
408,272,64473,2,0,P|440:224|456:152,3,99.9999999999999,0|8|0|8,0:0|0:0|0:0|0:0,0:0:0:0:
432,136,65941,1,0,0:0:0:0:
400,96,66151,2,0,P|352:64|272:96,1,150
176,88,67200,6,0,L|152:24,2,50,0|8|0,0:0|0:0|0:0,0:0:0:0:
136,120,67829,2,0,L|72:160,1,50
80,192,68249,2,0,L|64:248,1,50,8|0,0:0|0:0,0:0:0:0:
88,288,68668,2,0,P|152:320|288:304,1,200
320,280,69717,2,0,P|344:248|352:224,2,50,0|8|0,0:0|0:0|0:0,0:0:0:0:
272,280,70347,6,0,P|216:264|176:208,1,99.9999999999999,0|8,0:0|0:0,0:0:0:0:
168,192,70976,1,0,0:0:0:0:
160,144,71186,2,0,P|160:80|192:24,1,99.9999999999999,0|8,0:0|0:0,0:0:0:0:
216,24,71815,1,0,0:0:0:0:
264,24,72025,2,0,P|320:8|392:16,1,99.9999999999999,0|8,0:0|0:0,0:0:0:0:
408,16,72654,1,0,0:0:0:0:
456,40,72864,6,0,L|496:88,1,50
496,128,73284,2,0,L|488:192,1,50,8|0,0:0|0:0,0:0:0:0:
464,224,73703,1,0,0:0:0:0:
424,256,73913,1,0,0:0:0:0:
384,280,74123,2,0,L|296:320,1,50,8|0,0:0|0:0,0:0:0:0:
288,312,74543,6,0,B|232:312|232:312|160:288,1,99.9999999999999,0|8,0:0|0:0,0:0:0:0:
152,272,75172,1,0,0:0:0:0:
112,248,75382,2,0,L|40:280,2,50,0|0|8,0:0|0:0|0:0,0:0:0:0:
88,152,76221,6,0,L|160:96,1,50
168,96,76641,1,8,0:0:0:0:
208,72,76850,1,0,0:0:0:0:
256,48,77060,2,0,P|336:16|376:16,1,99.9999999999999,0|8,0:0|0:0,0:0:0:0:
400,16,77690,1,0,0:0:0:0:
448,24,77899,6,0,P|480:48|512:128,1,99.9999999999999,0|8,0:0|0:0,0:0:0:0:
504,152,78529,1,0,0:0:0:0:
480,248,78948,2,0,L|416:240,1,50,0|8,0:0|0:0,0:0:0:0:
384,240,79368,5,0,0:0:0:0:
336,256,79578,2,0,L|336:328,2,50,0|0|8,0:0|0:0|0:0,0:0:0:0:
288,232,80207,1,0,0:0:0:0:
240,208,80417,2,0,P|192:192|160:168,1,74.9999999999999
176,104,81046,6,0,P|224:64|280:48,1,99.9999999999999
312,48,81676,2,0,P|344:48|376:56,1,50,8|0,0:0|0:0,0:0:0:0:
408,64,82095,2,0,P|448:96|472:128,1,74.9999999999999
448,240,82934,6,0,P|407:288|336:312,1,99.9999999999999,0|8,0:0|0:0,0:0:0:0:
328,312,83564,1,0,0:0:0:0:
280,304,83774,2,0,P|224:288|176:232,1,99.9999999999999,0|8,0:0|0:0,0:0:0:0:
168,216,84403,1,0,0:0:0:0:
144,168,84613,1,0,0:0:0:0:
176,72,85032,6,0,P|208:32|264:8,2,99.9999999999999,8|0|8,0:0|0:0|0:0,0:0:0:0:
160,120,86081,1,0,0:0:0:0:
176,168,86291,2,0,P|208:208|264:232,1,99.9999999999999,0|8,0:0|0:0,0:0:0:0:
336,280,87130,2,0,P|378:301|410:341,1,99.9999999999999,0|8,0:0|0:0,0:0:0:0:
256,192,87969,12,0,90487,0:0:0:0:
120,104,91326,6,0,P|254:48|402:118,1,300,0|8,0:0|0:0,0:0:0:0:
376,200,93004,2,0,P|248:307|143:164,1,350
256,192,94683,12,0,99718,0:0:0:0:
