osu file format v12

[General]
AudioFilename: One-Chance.mp3
AudioLeadIn: 2000
PreviewTime: 59438
Countdown: 0
SampleSet: Soft
StackLeniency: 0.4
Mode: 0
LetterboxInBreaks: 1

[Editor]
DistanceSpacing: 0.2
BeatDivisor: 4
GridSize: 8

[Metadata]
Title:One-Chance!! (Short Ver.)
TitleUnicode:One-Chance!! (Short Ver.)
Artist:KOTOKO & Satou Hiromi
ArtistUnicode:KOTOKO & Satou Hiromi
Creator:sammy711
Version:No More Chance...
Source:Pure Girl
Tags:I've Frontwing
BeatmapID:265362
BeatmapSetID:96304

[Difficulty]
HPDrainRate:6
CircleSize:4
OverallDifficulty:7
ApproachRate:8
SliderMultiplier:2
SliderTickRate:2

[Events]
//Background and Video events
0,0,"BG.jpg",0,0
//Break Periods
//Storyboard Layer 0 (Background)
//Storyboard Layer 1 (Fail)
//Storyboard Layer 2 (Pass)
//Storyboard Layer 3 (Foreground)
//Storyboard Sound Samples
//Background Colour Transformations
3,100,163,162,255

[TimingPoints]
696,419.585909186315,4,2,0,70,1,0
6570,-66.6666666666667,4,2,0,70,0,0
13493,-66.6666666666667,4,2,0,50,0,0
13808,-66.6666666666667,4,2,0,75,0,0
13912,-66.6666666666667,4,2,0,70,0,0
24192,-100,4,2,0,70,0,0
27549,-66.6666666666667,4,2,0,70,0,0
30906,-66.6666666666667,4,2,0,60,0,0
34262,-100,4,2,0,70,0,0
42654,-200,4,2,0,70,0,0
55242,-100,4,2,0,70,0,0
59438,-66.6666666666667,4,2,0,70,0,1
72445,-66.6666666666667,4,2,0,70,0,0
72864,-66.6666666666667,4,2,0,70,0,1
87969,-100,4,2,0,70,0,0
93424,-100,4,2,0,80,0,0
99718,-66.6666666666667,4,2,0,10,0,0

[Colours]
Combo1 : 200,0,0
Combo2 : 0,200,0
Combo3 : 255,255,255
Combo4 : 200,0,200
Combo5 : 255,255,0

[HitObjects]
48,104,696,2,0,P|40:168|48:216,1,100
112,288,1115,1,8,0:0:0:0:
240,336,1325,1,0,0:0:0:0:
272,344,1744,5,0,0:0:0:0:
432,256,2164,1,0,0:0:0:0:
432,256,2269,1,0,0:0:0:0:
432,256,2374,2,0,P|432:168|440:120,1,100
360,56,2793,1,8,0:0:0:0:
192,40,3003,1,0,0:0:0:0:
144,32,3423,6,0,P|92:35|2:62,1,100,0|8,0:0|0:0,0:0:0:0:
16,120,3842,1,0,0:0:0:0:
256,192,4052,1,0,0:0:0:0:
256,192,4472,5,8,0:0:0:0:
123,331,4682,1,0,0:0:0:0:
256,192,4891,1,0,0:0:0:0:
328,328,5101,1,0,0:0:0:0:
256,192,5311,1,8,0:0:0:0:
360,232,5521,1,0,0:0:0:0:
128,72,5731,5,0,0:0:0:0:
96,104,5835,1,0,0:0:0:0:
64,144,5940,1,0,0:0:0:0:
17,231,6150,2,0,P|56:280|104:300,1,100,8|0,0:0|0:0,0:0:0:0:
232,344,6570,5,0,0:0:0:0:
232,344,6675,1,0,0:0:0:0:
232,344,6779,1,0,0:0:0:0:
280,160,6989,1,8,0:0:0:0:
344,336,7199,1,0,0:0:0:0:
176,240,7409,1,0,0:0:0:0:
80,32,8248,5,0,0:0:0:0:
80,32,9087,5,0,0:0:0:0:
264,48,9507,1,8,0:0:0:0:
376,216,9926,1,0,0:0:0:0:
312,304,10136,1,0,0:0:0:0:
312,304,10241,1,0,0:0:0:0:
312,304,10346,1,8,0:0:0:0:
192,336,10556,5,0,0:0:0:0:
192,336,10661,1,0,0:0:0:0:
192,336,10766,2,0,B|146:270|112:272|112:272|77:231|72:136,1,225.000008583069
168,16,11395,1,0,0:0:0:0:
208,16,11815,5,0,0:0:0:0:
360,24,12024,1,8,0:0:0:0:
464,144,12234,1,0,0:0:0:0:
328,256,12444,1,0,0:0:0:0:
280,272,12759,5,0,0:0:0:0:
56,160,13073,1,0,0:0:0:0:
144,32,13493,2,0,L|96:16,11,37.5000014305115,0|0|0|0|8|0|0|0|0|0|0|0,0:0|0:0|0:0|0:0|0:0|0:0|0:0|0:0|0:0|0:0|0:0|0:0,0:0:0:0:
144,32,14122,5,0,0:0:0:0:
280,40,14332,2,0,P|368:64|432:120,1,150.000005722046,0|8,0:0|0:0,0:0:0:0:
416,336,14752,1,0,0:0:0:0:
272,192,14961,1,0,0:0:0:0:
320,352,15171,1,0,0:0:0:0:
384,152,15381,1,8,0:0:0:0:
344,256,15591,2,0,P|328:272|176:328,2,150.000005722046
272,96,16220,5,8,0:0:0:0:
120,160,16430,1,0,0:0:0:0:
80,296,16640,2,0,L|160:344,2,75.0000028610231
208,288,17059,1,8,0:0:0:0:
256,184,17269,1,0,0:0:0:0:
384,56,17479,5,0,0:0:0:0:
352,32,17584,1,0,0:0:0:0:
320,16,17689,1,0,0:0:0:0:
160,32,17899,2,0,P|116:69|56:168,1,150.000005722046,8|0,0:0|0:0,0:0:0:0:
304,352,18528,1,0,0:0:0:0:
200,360,18947,5,0,0:0:0:0:
144,200,19157,1,0,0:0:0:0:
344,272,19367,1,0,0:0:0:0:
344,272,19472,1,0,0:0:0:0:
344,272,19577,2,0,L|400:152,1,75.0000028610231,8|0,0:0|0:0,0:0:0:0:
408,128,19787,1,0,0:0:0:0:
232,0,20206,6,0,L|104:64,1,75.0000028610231
80,80,20416,1,8,0:0:0:0:
0,160,20626,1,0,0:0:0:0:
0,160,20836,2,0,B|16:192|16:192|33:159|33:159|40:192|40:192|63:159|63:159|80:200|80:200|88:168|88:168|112:200|112:200|136:152|136:152,1,300.000011444092,0|8,0:0|0:0,0:0:0:0:
184,80,21465,1,0,0:0:0:0:
312,264,21675,2,0,P|344:224|432:144,2,150.000005722046
168,288,22304,6,0,L|80:248,2,75.0000028610231
312,264,22724,1,0,0:0:0:0:
136,200,22934,1,8,0:0:0:0:
240,40,23143,1,0,0:0:0:0:
136,200,23353,1,0,0:0:0:0:
8,56,23668,6,0,B|25:79|25:79|33:55|33:55|49:79|49:79|57:55|57:55|72:80|72:80|81:55|81:55|104:80|104:80|128:48,1,225.000008583069
240,40,24192,2,0,P|284:73|328:136,1,100
248,248,24612,2,0,P|203:214|175:180,1,100,8|0,0:0|0:0,0:0:0:0:
240,40,25031,1,0,0:0:0:0:
248,248,25241,1,0,0:0:0:0:
312,107,25451,1,8,0:0:0:0:
175,180,25661,1,0,0:0:0:0:
360,32,25871,5,0,0:0:0:0:
368,32,25976,1,0,0:0:0:0:
376,32,26081,1,0,0:0:0:0:
384,32,26185,1,0,0:0:0:0:
392,32,26290,1,8,0:0:0:0:
400,32,26395,1,0,0:0:0:0:
408,32,26500,1,0,0:0:0:0:
416,32,26605,1,0,0:0:0:0:
424,32,26710,5,0,0:0:0:0:
432,32,26815,1,0,0:0:0:0:
440,32,26920,1,0,0:0:0:0:
448,32,27025,1,0,0:0:0:0:
456,32,27129,1,8,0:0:0:0:
464,32,27234,1,0,0:0:0:0:
472,32,27339,1,0,0:0:0:0:
480,32,27444,1,0,0:0:0:0:
488,32,27549,6,0,B|520:48|520:48|536:96|472:208,1,150.000005722046
392,160,27969,1,8,0:0:0:0:
498,157,28178,2,0,P|520:224|496:320,1,150.000005722046
392,160,28598,1,0,0:0:0:0:
506,300,28808,2,0,P|472:344|352:368,1,150.000005722046,8|0,0:0|0:0,0:0:0:0:
392,160,29227,5,0,0:0:0:0:
384,373,29542,2,0,P|288:312|248:200,1,225.000008583069
392,160,30067,1,0,0:0:0:0:
392,160,30171,1,0,0:0:0:0:
392,160,30276,1,0,0:0:0:0:
184,352,30486,1,8,0:0:0:0:
184,352,30906,5,0,0:0:0:0:
384,320,31220,1,0,0:0:0:0:
193,280,31534,1,0,0:0:0:0:
240,80,31745,5,0,0:0:0:0:
193,280,32060,1,0,0:0:0:0:
320,170,32374,1,0,0:0:0:0:
240,80,32584,5,0,0:0:0:0:
384,320,32899,1,0,0:0:0:0:
153,166,33213,1,0,0:0:0:0:
384,320,33633,5,0,0:0:0:0:
384,320,33738,1,0,0:0:0:0:
384,320,33843,1,8,0:0:0:0:
272,288,34053,1,0,0:0:0:0:
304,168,34262,2,0,L|456:128,1,150
232,72,34892,5,0,0:0:0:0:
449,129,35102,1,0,0:0:0:0:
272,288,35312,1,0,0:0:0:0:
272,288,35416,1,0,0:0:0:0:
272,288,35522,1,8,0:0:0:0:
304,168,35732,1,0,0:0:0:0:
449,129,35941,5,0,0:0:0:0:
232,72,36255,1,0,0:0:0:0:
176,320,36570,2,0,P|117:242|112:216,1,100
232,72,36990,1,0,0:0:0:0:
232,72,37095,1,0,0:0:0:0:
232,72,37199,1,8,0:0:0:0:
24,168,37409,1,0,0:0:0:0:
24,168,37514,1,0,0:0:0:0:
24,168,37619,1,0,0:0:0:0:
24,168,38039,6,0,P|88:256|304:304,1,300,8|0,0:0|0:0,0:0:0:0:
272,312,38773,1,0,0:0:0:0:
280,312,38878,1,8,0:0:0:0:
176,176,39088,1,0,0:0:0:0:
336,264,39297,1,0,0:0:0:0:
256,192,39402,12,8,42235,0:0:0:0:
96,80,42654,6,0,P|144:56|176:48,2,75
24,144,43703,1,0,0:0:0:0:
88,288,43913,1,8,0:0:0:0:
240,344,44123,1,0,0:0:0:0:
352,336,44332,6,0,P|372:330|420:306,2,75
144,136,45381,1,0,0:0:0:0:
291,44,45801,5,0,0:0:0:0:
291,44,45906,1,0,0:0:0:0:
291,44,46011,1,0,0:0:0:0:
410,86,46325,2,0,L|462:148,1,75
426,255,47060,1,0,0:0:0:0:
343,312,47270,1,8,0:0:0:0:
203,324,47479,1,0,0:0:0:0:
58,263,47689,5,0,0:0:0:0:
58,263,47899,1,0,0:0:0:0:
62,112,48109,1,8,0:0:0:0:
62,112,48319,1,0,0:0:0:0:
209,41,48528,1,0,0:0:0:0:
209,41,48738,1,0,0:0:0:0:
436,132,48948,1,8,0:0:0:0:
256,192,49367,5,0,0:0:0:0:
168,296,49577,5,0,0:0:0:0:
256,48,49787,1,8,0:0:0:0:
344,296,49997,1,0,0:0:0:0:
112,136,50207,1,0,0:0:0:0:
400,136,50416,1,0,0:0:0:0:
296,320,50626,5,8,0:0:0:0:
416,224,50836,1,0,0:0:0:0:
168,296,51046,1,0,0:0:0:0:
416,224,51360,5,0,0:0:0:0:
80,176,51675,1,0,0:0:0:0:
216,320,51885,1,0,0:0:0:0:
80,176,52095,2,0,L|96:104,1,50,0|8,0:0|0:0,0:0:0:0:
72,256,52514,1,0,0:0:0:0:
72,256,52619,1,0,0:0:0:0:
72,256,52724,1,0,0:0:0:0:
352,128,53039,5,0,0:0:0:0:
280,296,53354,1,0,0:0:0:0:
120,48,53773,1,0,0:0:0:0:
280,296,53983,1,8,0:0:0:0:
448,48,54193,1,0,0:0:0:0:
472,360,54402,1,0,0:0:0:0:
280,296,54612,5,0,0:0:0:0:
280,296,54717,1,0,0:0:0:0:
280,296,54822,1,8,0:0:0:0:
121,51,55032,1,0,0:0:0:0:
99,63,55137,1,0,0:0:0:0:
80,80,55242,2,0,P|36:146|23:205,1,100
85,257,55661,1,8,0:0:0:0:
267,334,55871,1,0,0:0:0:0:
152,112,56081,5,0,0:0:0:0:
384,192,56291,2,0,L|424:248,2,50,0|0|8,0:0|0:0|0:0,0:0:0:0:
336,40,56710,1,0,0:0:0:0:
56,192,56920,5,0,0:0:0:0:
56,200,57025,1,0,0:0:0:0:
56,208,57130,1,0,0:0:0:0:
56,216,57235,1,0,0:0:0:0:
56,224,57340,1,8,0:0:0:0:
56,232,57444,1,0,0:0:0:0:
56,240,57549,1,0,0:0:0:0:
56,248,57654,1,0,0:0:0:0:
56,256,57759,2,0,P|104:312|212:358,1,150,0|8,0:0|0:0,0:0:0:0:
200,352,58179,1,0,0:0:0:0:
288,352,58388,5,0,0:0:0:0:
296,352,58493,1,0,0:0:0:0:
304,352,58598,1,0,0:0:0:0:
312,352,58703,1,0,0:0:0:0:
320,352,58808,1,0,0:0:0:0:
328,352,58913,1,0,0:0:0:0:
336,352,59018,1,8,0:0:0:0:
344,352,59123,1,0,0:0:0:0:
352,352,59228,6,0,L|424:320,2,50
152,208,59647,1,0,0:0:0:0:
264,64,59857,1,8,0:0:0:0:
296,240,60067,1,0,0:0:0:0:
152,32,60277,2,0,L|64:168,1,150.000005722046
48,24,60696,1,8,0:0:0:0:
240,224,60906,1,0,0:0:0:0:
344,216,61116,6,0,L|520:216,1,150.000005722046
272,104,61535,2,0,L|448:104,1,150.000005722046,8|0,0:0|0:0,0:0:0:0:
144,80,61955,1,0,0:0:0:0:
344,216,62165,1,0,0:0:0:0:
144,168,62375,1,8,0:0:0:0:
144,168,62480,1,0,0:0:0:0:
144,168,62584,2,0,L|144:328,1,150.000005722046
192,40,63004,5,0,0:0:0:0:
392,168,63214,1,8,0:0:0:0:
416,16,63424,1,0,0:0:0:0:
240,176,63633,2,0,L|334:292,1,150.000005722046
480,256,64053,2,0,L|385:139,1,150.000005722046,8|0,0:0|0:0,0:0:0:0:
224,96,64473,6,0,B|256:72|272:56|304:40|368:40,1,150.000005722046
272,256,64892,2,0,B|240:280|224:296|192:312|128:312,1,150.000005722046,8|0,0:0|0:0,0:0:0:0:
136,312,65312,1,0,0:0:0:0:
224,96,65522,1,0,0:0:0:0:
272,256,65731,1,8,0:0:0:0:
96,144,65941,5,0,0:0:0:0:
96,144,66046,1,0,0:0:0:0:
96,144,66151,1,0,0:0:0:0:
96,144,66570,1,8,0:0:0:0:
352,336,66780,1,0,0:0:0:0:
256,40,67200,5,0,0:0:0:0:
160,336,67410,1,8,0:0:0:0:
416,144,67619,1,0,0:0:0:0:
256,40,67829,1,0,0:0:0:0:
96,144,68039,1,0,0:0:0:0:
160,336,68249,1,8,0:0:0:0:
352,336,68459,1,0,0:0:0:0:
256,40,68668,1,0,0:0:0:0:
256,40,68878,5,0,0:0:0:0:
256,72,68983,1,0,0:0:0:0:
256,104,69088,1,8,0:0:0:0:
256,136,69193,1,0,0:0:0:0:
256,168,69298,1,0,0:0:0:0:
256,200,69403,1,0,0:0:0:0:
256,232,69508,2,0,B|312:264|288:320|288:320|312:384,1,150.000005722046
384,248,69927,5,8,0:0:0:0:
192,280,70137,1,0,0:0:0:0:
392,352,70347,1,0,0:0:0:0:
192,280,70557,1,0,0:0:0:0:
192,280,70661,1,0,0:0:0:0:
192,280,70766,2,0,P|136:280|40:248,1,150.000005722046,8|0,0:0|0:0,0:0:0:0:
344,120,71186,5,0,0:0:0:0:
496,336,71501,1,0,0:0:0:0:
253,249,71815,1,0,0:0:0:0:
56,304,72025,5,0,0:0:0:0:
72,320,72130,1,0,0:0:0:0:
88,328,72235,1,0,0:0:0:0:
112,320,72340,1,0,0:0:0:0:
128,304,72445,2,0,P|160:264|304:288,1,150.000005722046,8|0,0:0|0:0,0:0:0:0:
448,208,72864,5,0,0:0:0:0:
336,56,73074,1,0,0:0:0:0:
336,208,73284,1,8,0:0:0:0:
240,328,73494,1,0,0:0:0:0:
336,208,73703,5,0,0:0:0:0:
280,64,73913,1,0,0:0:0:0:
424,152,74123,1,8,0:0:0:0:
248,144,74333,1,0,0:0:0:0:
280,272,74543,6,0,L|448:272,1,150.000005722046
424,152,74962,1,8,0:0:0:0:
336,344,75172,1,0,0:0:0:0:
328,96,75382,2,0,L|360:256,1,150.000005722046
256,336,75801,1,8,0:0:0:0:
120,136,76221,6,0,P|176:96|296:72,1,150.000005722046
240,296,76641,2,0,P|184:336|106:359,1,150.000005722046,8|0,0:0|0:0,0:0:0:0:
256,192,77060,1,0,0:0:0:0:
408,208,77270,1,0,0:0:0:0:
336,384,77480,1,8,0:0:0:0:
256,192,77690,5,0,0:0:0:0:
448,112,77899,1,0,0:0:0:0:
336,384,78109,1,0,0:0:0:0:
512,304,78319,1,8,0:0:0:0:
256,192,78529,1,0,0:0:0:0:
88,168,78738,5,0,0:0:0:0:
73,151,78843,1,0,0:0:0:0:
62,131,78948,1,0,0:0:0:0:
57,109,79053,1,0,0:0:0:0:
56,88,79158,2,0,B|55:58|55:58|87:26|239:34,1,150.000005722046,8|0,0:0|0:0,0:0:0:0:
232,136,79578,5,0,0:0:0:0:
352,88,79787,2,0,P|368:144|360:240,1,150.000005722046,0|8,0:0|0:0,0:0:0:0:
210,281,80207,2,0,P|206:218|232:136,1,150.000005722046
232,136,80732,1,0,0:0:0:0:
216,43,81046,6,0,P|128:17|88:49,1,150.000005722046
16,131,81466,2,0,P|56:163|160:91,1,150.000005722046,0|8,0:0|0:0,0:0:0:0:
88,48,81885,1,0,0:0:0:0:
163,269,82095,2,0,L|243:117,1,150.000005722046
232,136,82410,1,0,0:0:0:0:
440,288,82725,6,0,L|504:352,2,75.0000028610231
288,216,83144,1,0,0:0:0:0:
184,336,83354,1,8,0:0:0:0:
64,256,83564,1,0,0:0:0:0:
80,96,83774,5,0,0:0:0:0:
80,96,83878,1,0,0:0:0:0:
80,96,83983,1,0,0:0:0:0:
184,336,84193,1,8,0:0:0:0:
312,320,84403,1,0,0:0:0:0:
312,320,84508,1,0,0:0:0:0:
312,320,84613,1,0,0:0:0:0:
176,144,85032,5,8,0:0:0:0:
176,144,85452,1,0,0:0:0:0:
176,144,85767,2,0,L|400:128,1,225.000008583069
280,48,86291,1,0,0:0:0:0:
376,248,86606,1,0,0:0:0:0:
480,256,86920,6,0,P|480:304|360:376,1,150.000005722046
304,336,87340,1,0,0:0:0:0:
480,256,87550,1,8,0:0:0:0:
408,120,87760,2,0,P|376:96|288:64,2,75.0000028610231
256,192,88389,12,8,90906,0:0:0:0:
128,136,91116,5,0,0:0:0:0:
128,136,91221,1,0,0:0:0:0:
128,136,91326,2,0,P|144:216|240:312,1,150.000005722046
272,336,91955,2,0,B|352:336|384:272|384:272|466:268,1,200
448,152,92585,1,8,0:0:0:0:
264,80,92795,2,0,L|160:144,1,100
178,132,93319,5,0,0:0:0:0:
136,256,93634,1,0,0:0:0:0:
256,328,93844,1,0,0:0:0:0:
256,192,94158,1,0,0:0:0:0:
256,192,94473,1,0,0:0:0:0:
256,192,94683,12,0,99718,0:0:0:0:
