osu file format v10

[General]
AudioFilename: KOTOKO & Satou Hiromi - One-Chance!!.mp3
AudioLeadIn: 2000
PreviewTime: 59008
Countdown: 0
SampleSet: Soft
StackLeniency: 0.7
Mode: 0
LetterboxInBreaks: 0

[Editor]
DistanceSpacing: 1.1
BeatDivisor: 4
GridSize: 4

[Metadata]
Title:One-Chance!! (Short Ver.)
TitleUnicode:One-Chance!! (Short Ver.)
Artist:KOTOKO & Satou Hiromi
ArtistUnicode:KOTOKO & Satou Hiromi
Creator:Nichiyouki
Version:Normal
Source:pure girl
Tags:Front Wing FrontWing opening eroge visual novel Konei BeatofIke -puregirl- puregirl Elements Garden Fujita Junpei nich95
BeatmapID:178750
BeatmapSetID:59364

[Difficulty]
HPDrainRate:3
CircleSize:3
OverallDifficulty:4
ApproachRate:5
SliderMultiplier:1.2
SliderTickRate:1

[Events]
//Background and Video events
0,0,"BG.jpg"
Video,110,"video.avi"
//Break Periods
//Storyboard Layer 0 (Background)
//Storyboard Layer 1 (Fail)
//Storyboard Layer 2 (Pass)
//Storyboard Layer 3 (Foreground)
//Storyboard Sound Samples
//Background Colour Transformations
3,100,163,162,255

[TimingPoints]
696,419.58041958042,4,2,1,50,1,0
4052,-100,4,1,1,40,0,0
5730,-100,4,1,1,50,0,0
6570,-100,4,1,1,60,0,0
7409,-100,4,2,1,70,0,0
13493,-100,4,1,1,50,0,0
14122,-100,4,2,2,60,0,0
14227,-100,4,2,2,70,0,0
20835,-100,4,2,0,40,0,0
21255,-100,4,2,2,70,0,0
24192,-100,4,2,2,60,0,0
24297,-100,4,2,2,70,0,0
26919,-100,4,2,0,70,0,0
27339,-100,4,2,2,70,0,0
42654,-100,4,2,2,60,0,0
49367,-100,4,2,2,70,0,0
49472,-100,4,2,2,60,0,0
52723,-100,4,2,0,70,0,0
53143,-100,4,2,2,70,0,0
54402,-100,4,2,2,60,0,0
54507,-100,4,2,2,70,0,0
59437,-100,4,2,1,85,0,1
66150,-100,4,2,2,70,0,1
68458,-100,4,2,1,70,0,1
69507,-100,4,2,1,85,0,1
71185,-100,4,2,1,75,0,1
71290,-100,4,2,1,85,0,1
72758,-100,4,2,1,85,0,0
72863,-100,4,2,1,85,0,1
79577,-100,4,2,1,75,0,1
79682,-100,4,2,1,85,0,1
80416,-100,4,2,2,85,0,1
81045,-100,4,2,1,85,0,1
82094,-100,4,2,2,85,0,1
82933,-100,4,2,1,75,0,1
83038,-100,4,2,1,85,0,1
84612,-100,4,2,2,75,0,1
85031,-100,4,2,1,85,0,1
87129,-100,4,2,2,85,0,1
87968,-100,4,2,1,70,0,0
97619,-100,4,2,0,60,0,0
98038,-100,4,2,0,55,0,0
98458,-100,4,2,0,50,0,0
98877,-100,4,2,0,40,0,0
99087,-100,4,2,0,30,0,0
99297,-100,4,2,0,20,0,0
99507,-100,4,2,0,10,0,0
99716,-100,4,2,0,5,0,0

[Colours]
Combo1 : 244,216,11
Combo2 : 200,149,234
Combo3 : 255,128,0
Combo4 : 255,128,192
Combo5 : 12,208,243

[HitObjects]
280,256,696,6,0,B|376:236|448:296,2,180,4|2|0,0:0|0:0|0:0,0:0:0
232,128,2374,2,0,B|136:148|64:88,2,180,2|2|0,0:0|0:0|0:0,0:0:0
356,84,4052,5,0,0:0:0
480,132,4472,1,0,0:0:0
480,264,4891,1,0,0:0:0
356,312,5311,1,0,0:0:0
232,264,5730,6,0,B|168:248|108:248,1,120
64,124,6570,2,0,B|32:120|4:108,2,60
128,136,7199,1,0,0:0:0
192,148,7409,5,4,0:0:0
316,100,7828,2,0,B|332:72|336:36,2,60,8|0|2,0:0|0:0|0:0,0:0:0
280,228,8668,1,8,0:0:0
364,328,9087,1,2,0:0:0
412,204,9507,2,0,B|440:192|472:192,2,60,8|0|2,0:0|0:0|0:0,0:0:0
280,228,10346,1,8,0:0:0
152,192,10765,6,0,B|124:140|124:140|180:104|168:36,1,180,4|4,0:0|0:0,0:0:0
36,40,11814,1,4,0:0:0
36,172,12234,1,0,0:0:0
36,172,12444,2,0,B|40:224|76:252,2,90,8|8|8,0:0|0:0|0:0,0:0:0
168,152,13493,2,2,B|256:132|348:152,1,180,0|4,0:0|0:0,0:0:0
452,232,14542,5,8,0:0:0
356,320,14961,1,0,0:0:0
256,236,15381,2,0,B|256:176,2,60,8|0|0,0:0|0:0|0:0,0:0:0
156,320,16220,1,8,0:0:0
60,232,16640,1,0,0:0:0
112,112,17059,2,0,B|124:84|148:60,2,60,8|0|4,0:0|0:0|0:0,0:0:0
192,220,17898,6,0,B|244:248,1,60,8|4,0:0|0:0,0:0:0
340,156,18528,2,0,B|392:184,2,60,8|8|4,0:0|0:0|0:0,0:0:0
244,64,19367,1,8,0:0:0
180,48,19577,1,8,0:0:0
116,32,19786,1,4,0:0:0
56,148,20206,2,0,B|112:120,2,60,8|8|0,0:0|0:0|0:0,0:0:0
28,208,20835,2,0,B|80:244|104:300,1,120,0|4,0:0|0:0,0:0:0
188,196,21675,5,8,0:0:0
324,196,22094,1,8,0:0:0
408,300,22514,2,0,B|432:244|484:208,1,120,8|8,0:0|0:0,0:0:0
412,100,23353,6,0,B|376:72|332:60,2,90,4|8|8,0:0|0:0|0:0,0:0:0
428,164,24192,2,0,B|372:200|364:260|364:260|304:284,1,180,4|4,0:0|0:0,0:0:0
196,212,25241,1,0,0:0:0
72,260,25661,5,0,0:0:0
72,260,25870,2,0,B|28:200|52:132|112:112,1,180,4|4,0:0|0:0,0:0:0
196,212,26919,1,4,0:0:0
308,280,27339,2,0,B|368:260,1,60,0|4,0:0|0:0,0:0:0
428,144,27968,5,8,0:0:0
344,44,28388,1,0,0:0:0
256,140,28807,2,0,B|256:200,2,60,8|0|0,0:0|0:0|0:0,0:0:0
168,44,29647,1,8,0:0:0
84,144,30066,1,0,0:0:0
128,268,30486,2,0,B|180:300|240:312,1,120,8|0,0:0|0:0,0:0:0
324,208,31325,6,0,B|356:216|380:236,2,60,8|0|0,0:0|0:0|0:0,0:0:0
252,96,32164,2,0,B|220:88|196:68,1,60,8|0,0:0|0:0,0:0:0
136,44,32584,2,0,B|68:60|68:60|88:112|60:168,1,180,4|4,0:0|0:0,0:0:0
16,292,33633,1,4,0:0:0
132,352,34052,1,0,0:0:0
164,296,34262,6,0,B|252:264|340:296,1,180,4|0,0:0|0:0,0:0:0
404,316,35101,1,8,0:0:0
480,208,35521,1,8,0:0:0
348,192,35940,2,0,B|300:196|256:180,2,90,4|8|0,0:0|0:0|0:0,0:0:0
404,156,36779,1,8,0:0:0
432,96,36989,1,4,0:0:0
316,40,37409,5,0,0:0:0
316,40,37619,2,0,B|256:60|200:64,1,120,0|4,0:0|0:0,0:0:0
44,192,38668,1,8,0:0:0
198,319,39297,2,0,B|256:324|316:344,1,120,4|2,0:0|0:0,0:0:0
432,284,40136,5,2,0:0:0
432,284,40346,2,0,B|452:192|428:104,1,180,8|2,0:0|0:0,0:0:0
328,48,41395,1,0,0:0:0
256,156,41814,2,0,B|212:180|168:180,2,90,2|2|0,0:0|0:0|0:0,0:0:0
320,176,42654,6,0,B|372:144|444:160|480:212,1,180,8|0,0:0|0:0,0:0:0
376,292,43702,1,4,0:0:0
192,208,44332,2,0,B|140:240|68:224|32:172,1,180,8|0,0:0|0:0,0:0:0
136,92,45381,1,4,0:0:0
332,64,46010,6,0,B|392:84|392:84|392:152|424:196,1,180,8|0,0:0|0:0,0:0:0
376,316,47059,1,4,0:0:0
180,320,47689,2,0,B|120:300|120:300|120:232|88:188,1,180,4|0,0:0|0:0,0:0:0
48,136,48528,1,4,0:0:0
144,48,48947,1,0,0:0:0
260,112,49367,6,0,B|324:128|380:124,1,120,4|8,0:0|0:0,0:0:0
452,236,50206,2,0,B|388:220|332:224,1,120,0|8,0:0|0:0,0:0:0
268,236,50835,1,0,0:0:0
204,244,51045,2,0,B|176:280|132:300,2,90,4|8|0,0:0|0:0|0:0,0:0:0
236,184,51884,1,4,0:0:0
356,124,52304,1,8,0:0:0
236,68,52723,6,0,B|184:96|120:100,1,120,0|4,0:0|0:0,0:0:0
56,100,53353,1,0,0:0:0
96,224,53772,2,0,B|56:272,1,60,0|8,0:0|0:0,0:0:0
176,324,54402,2,0,B|232:352|292:360,1,120,4|0,0:0|0:0,0:0:0
352,340,55031,2,0,B|408:316,1,60
452,192,55661,5,8,0:0:0
344,116,56080,1,4,0:0:0
256,216,56500,2,0,B|236:236|204:248,2,60,8|0|8,0:0|0:0|0:0,0:0:0
216,92,57339,1,8,0:0:0
120,180,57758,2,0,B|104:228|124:268,2,90,4|2|2,0:0|0:0|0:0,0:0:0
452,192,59437,5,4,0:0:0
392,76,59856,1,8,0:0:0
308,180,60276,1,0,0:0:0
240,68,60696,2,0,B|188:40,1,60,8|0,0:0|0:0,0:0:0
64,92,61325,2,0,B|116:120,1,60,0|8,0:0|0:0,0:0:0
172,240,61954,2,0,B|128:256|92:284,2,90,0|2|2,0:0|0:0|0:0,0:0:0
236,236,62793,1,0,0:0:0
360,280,63213,5,8,0:0:0
432,168,63633,1,0,0:0:0
336,76,64052,2,0,B|312:56|276:52,1,60,8|0,0:0|0:0,0:0:0
228,92,64472,2,0,B|200:136|164:160,2,90,2|0|2,0:0|0:0|0:0,0:0:0
96,72,65521,2,0,B|72:92|60:120,1,60,0|8,0:0|0:0,0:0:0
76,184,65940,2,0,B|92:212|92:248,1,60,0|4,0:0|0:0,0:0:0
216,292,66570,5,8,0:0:0
216,292,66779,2,0,B|272:280|340:276,1,120,4|4,0:0|0:0,0:0:0
428,180,67619,1,8,0:0:0
428,180,67828,2,0,B|372:192|304:196,1,120,4|0,0:0|0:0,0:0:0
268,144,68458,2,0,B|232:92|180:60,1,120,4|0,0:0|0:0,0:0:0
120,80,69087,2,0,B|96:64|76:40,2,60,8|0|4,0:0|0:0|0:0,0:0:0
248,44,69926,5,8,0:0:0
304,164,70346,1,0,0:0:0
196,240,70765,1,8,0:0:0
132,224,70975,1,0,0:0:0
80,184,71185,2,0,B|60:132|68:92,2,90,4|0|0,0:0|0:0|0:0,0:0:0
140,160,72024,2,0,B|192:124|256:116,1,120,0|0,0:0|0:0,0:0:0
316,132,72654,2,0,B|332:160|364:172,1,60,0|4,0:0|0:0,0:0:0
380,300,73283,5,8,0:0:0
256,340,73702,2,0,B|192:336|152:284|152:284|96:300,1,180,2|0,0:0|0:0,0:0:0
24,188,74751,2,0,B|80:172,1,60,2|8,0:0|0:0,0:0:0
212,192,75381,1,0,0:0:0
344,208,75800,2,0,B|400:192,2,60,8|0|0,0:0|0:0|0:0,0:0:0
264,312,76640,5,8,0:0:0
212,192,77059,1,0,0:0:0
108,108,77479,2,0,B|76:116|48:108,1,60,8|0,0:0|0:0,0:0:0
20,160,77898,2,0,B|60:212|60:212|48:276|96:316,1,180,2|2,0:0|0:0,0:0:0
196,232,78947,1,2,0:0:0
196,232,79157,2,0,B|232:284|296:288,1,120,8|4,0:0|0:0,0:0:0
364,288,79786,5,0,0:0:0
432,288,79996,1,0,0:0:0
480,164,80416,2,0,B|440:144|416:100,2,90,4|8|4,0:0|0:0|0:0,0:0:0
432,288,81465,1,0,0:0:0
364,288,81675,1,8,0:0:0
232,292,82094,2,0,B|204:332|156:348,2,90,4|8|0,0:0|0:0|0:0,0:0:0
248,228,82933,5,4,0:0:0
172,120,83353,1,8,0:0:0
288,60,83772,1,0,0:0:0
360,172,84192,1,8,0:0:0
380,236,84402,1,0,0:0:0
360,300,84612,1,4,0:0:0
248,228,85031,1,2,0:0:0
128,284,85451,2,0,B|88:260|36:264,2,90,2|0|0,0:0|0:0|0:0,0:0:0
184,320,86290,6,0,B|244:308|304:336|304:336|344:292,1,180,4|0,0:0|0:0,0:0:0
380,240,87129,1,4,0:0:0
424,116,87549,2,0,B|456:112|484:124,2,60,0|0|4,0:0|0:0|0:0,0:0:0
292,140,88388,5,8,0:0:0
164,112,88807,1,2,0:0:0
76,212,89227,2,0,B|60:240|56:272,2,60,8|0|2,0:0|0:0|0:0,0:0:0
208,232,90066,1,8,0:0:0
340,252,90486,2,0,B|356:224|360:192,2,60,0|2|8,0:0|0:0|0:0,0:0:0
256,352,91325,6,0,B|188:356|124:340|124:340|72:364,2,180,4|4|0,0:0|0:0|0:0,0:0:0
340,252,93003,2,0,B|384:264|428:256,2,90,8|8|8,0:0|0:0|0:0,0:0:0
300,200,93842,2,0,B|252:188|204:200,1,90,8|0,0:0|0:0,0:0:0
256,192,94472,12,0,99716,0:0:0
