osu file format v10

[General]
AudioFilename: KOTOKO & Satou Hiromi - One-Chance!!.mp3
AudioLeadIn: 2000
PreviewTime: 59008
Countdown: 0
SampleSet: Soft
StackLeniency: 0.7
Mode: 0
LetterboxInBreaks: 0

[Editor]
DistanceSpacing: 1.1
BeatDivisor: 4
GridSize: 4

[Metadata]
Title:One-Chance!! (Short Ver.)
TitleUnicode:One-Chance!! (Short Ver.)
Artist:KOTOKO & Satou Hiromi
ArtistUnicode:KOTOKO & Satou Hiromi
Creator:Nichiyouki
Version:Insane
Source:pure girl
Tags:Front Wing FrontWing opening eroge visual novel Konei BeatofIke -puregirl- puregirl Elements Garden Fujita Junpei nich95
BeatmapID:177961
BeatmapSetID:59364

[Difficulty]
HPDrainRate:7
CircleSize:4
OverallDifficulty:7
ApproachRate:8
SliderMultiplier:1.8
SliderTickRate:1

[Events]
//Background and Video events
0,0,"BG.jpg"
Video,110,"video.avi"
//Break Periods
//Storyboard Layer 0 (Background)
//Storyboard Layer 1 (Fail)
//Storyboard Layer 2 (Pass)
//Storyboard Layer 3 (Foreground)
//Storyboard Sound Samples
//Background Colour Transformations
3,100,163,162,255

[TimingPoints]
696,419.58041958042,4,2,1,50,1,0
4052,-100,4,1,1,30,0,0
5730,-100,4,1,1,40,0,0
6570,-100,4,1,1,50,0,0
7409,-100,4,2,1,80,0,0
13283,-100,4,1,1,50,0,0
14122,-100,4,2,2,60,0,0
14227,-100,4,2,2,70,0,0
20835,-133.333333333333,4,2,0,70,0,0
21150,-133.333333333333,4,2,0,5,0,0
21255,-100,4,2,2,70,0,0
24192,-100,4,2,2,60,0,0
24297,-100,4,2,2,70,0,0
26919,-133.333333333333,4,2,0,70,0,0
27339,-100,4,2,2,70,0,0
37619,-133.333333333333,4,2,2,70,0,0
38038,-100,4,2,2,70,0,0
42654,-133.333333333333,4,2,2,60,0,0
49367,-100,4,2,2,70,0,0
49472,-100,4,2,2,60,0,0
52723,-133.333333333333,4,2,0,70,0,0
53038,-100,4,2,2,70,0,0
53143,-100,4,2,2,60,0,0
53248,-100,4,2,2,70,0,0
59017,-100,4,2,2,5,0,0
59227,-100,4,2,2,70,0,0
59437,-100,4,2,1,85,0,1
66150,-133.333333333333,4,2,2,70,0,1
66465,-200,4,2,1,5,0,1
66570,-100,4,2,2,70,0,1
68458,-133.333333333333,4,2,1,70,0,1
68877,-100,4,2,1,70,0,1
69507,-100,4,2,1,85,0,1
71185,-100,4,2,1,75,0,1
71290,-100,4,2,1,85,0,1
72758,-100,4,2,1,85,0,0
72863,-100,4,2,1,85,0,1
79577,-100,4,2,1,75,0,1
79682,-100,4,2,1,85,0,1
80416,-100,4,2,2,85,0,1
81045,-100,4,2,1,85,0,1
82933,-100,4,2,1,75,0,1
83038,-100,4,2,1,85,0,1
84612,-100,4,2,2,75,0,1
85031,-100,4,2,1,85,0,1
85451,-133.333333333333,4,2,1,85,0,1
86290,-100,4,2,1,85,0,1
87129,-100,4,2,2,85,0,1
87968,-100,4,2,1,80,0,0
91954,-133.333333333333,4,2,1,80,0,0
92374,-100,4,2,1,80,0,0
97619,-100,4,2,0,70,0,0
98038,-100,4,2,0,60,0,0
98458,-100,4,2,0,50,0,0
98877,-100,4,2,0,40,0,0
99087,-100,4,2,0,30,0,0
99297,-100,4,2,0,20,0,0
99507,-100,4,2,0,10,0,0
99716,-100,4,2,0,5,0,0

[Colours]
Combo1 : 244,216,11
Combo2 : 200,149,234
Combo3 : 255,128,0
Combo4 : 255,128,192
Combo5 : 12,208,243

[HitObjects]
152,160,696,1,2,0:0:0
368,80,1010,1,0,0:0:0
256,280,1325,1,2,0:0:0
256,280,1744,1,2,0:0:0
348,320,1954,1,0,0:0:0
444,292,2164,1,0,0:0:0
472,196,2374,5,2,0:0:0
256,280,2689,1,0,0:0:0
368,80,3003,1,2,0:0:0
368,80,3423,2,0,B|280:112,1,90,2|0,0:0|0:0,0:0:0
196,32,3842,2,0,B|152:112,1,90
144,132,4157,5,0,0:0:0
136,152,4262,1,0,0:0:0
132,176,4367,1,0,0:0:0
132,200,4472,1,0,0:0:0
136,220,4577,1,0,0:0:0
144,240,4682,1,0,0:0:0
160,256,4786,1,0,0:0:0
180,268,4891,2,0,B|224:284,3,45
244,268,5311,2,0,B|288:264,3,45
312,260,5730,5,0,0:0:0
336,256,5835,1,0,0:0:0
360,248,5940,1,0,0:0:0
380,240,6045,1,0,0:0:0
400,232,6150,1,0,0:0:0
416,220,6255,1,0,0:0:0
432,204,6360,1,0,0:0:0
444,184,6465,1,0,0:0:0
448,164,6570,2,0,B|452:136,16,22.5,0|0|0|0|0|0|0|0|0|0|0|0|0|0|0|0|4,0:0|0:0|0:0|0:0|0:0|0:0|0:0|0:0|0:0|0:0|0:0|0:0|0:0|0:0|0:0|0:0|0:0,0:0:0
320,172,7619,6,0,B|236:208,1,90,0|8,0:0|0:0,0:0:0
152,128,8038,1,0,0:0:0
72,216,8248,1,2,0:0:0
152,300,8458,1,0,0:0:0
152,300,8563,1,0,0:0:0
152,300,8668,1,8,0:0:0
308,192,8877,5,0,0:0:0
308,192,8982,1,0,0:0:0
308,192,9087,2,0,B|348:216|396:216,1,90,2|0,0:0|0:0,0:0:0
428,208,9402,2,0,B|424:164|444:120|444:120|412:80,1,135,2|0,0:0|0:0,0:0:0
284,60,9926,1,2,0:0:0
308,192,10136,1,0,0:0:0
176,160,10346,1,8,0:0:0
76,224,10556,5,0,0:0:0
88,272,10661,1,0,0:0:0
104,320,10765,2,0,B|172:352|240:352,1,135,4|0,0:0|0:0,0:0:0
284,352,11185,1,8,0:0:0
452,276,11395,2,0,B|384:244|316:244,1,135,4|0,0:0|0:0,0:0:0
272,244,11814,1,0,0:0:0
172,184,12024,1,8,0:0:0
288,168,12234,1,0,0:0:0
396,120,12444,5,4,0:0:0
188,60,12758,1,0,0:0:0
64,240,13073,1,4,0:0:0
196,292,13283,5,0,0:0:0
248,308,13388,1,0,0:0:0
300,304,13493,1,0,0:0:0
352,292,13598,1,0,0:0:0
396,264,13702,1,0,0:0:0
416,216,13807,1,0,0:0:0
424,164,13912,1,0,0:0:0
412,112,14017,1,0,0:0:0
376,72,14122,1,4,0:0:0
288,132,14332,5,0,0:0:0
216,52,14542,1,8,0:0:0
140,128,14751,1,0,0:0:0
140,128,14856,2,0,B|72:116|8:140,1,135
196,216,15381,1,8,0:0:0
296,256,15591,1,0,0:0:0
392,228,15800,6,0,B|444:180|444:100,1,135
432,60,16220,1,8,0:0:0
332,64,16430,1,0,0:0:0
296,156,16640,1,0,0:0:0
180,100,16849,1,0,0:0:0
124,184,17059,1,8,0:0:0
156,280,17269,1,0,0:0:0
244,324,17479,2,0,B|308:304|376:304,1,135,4|0,0:0|0:0,0:0:0
428,304,17898,1,0,0:0:0
296,156,18108,5,4,0:0:0
296,156,18528,1,8,0:0:0
248,244,18737,1,8,0:0:0
156,280,18947,1,4,0:0:0
240,132,19367,5,8,0:0:0
300,212,19577,1,8,0:0:0
396,244,19786,2,0,B|436:268|484:264,1,90,4|0,0:0|0:0,0:0:0
460,88,20206,2,0,B|420:64|372:68,1,90
240,132,20626,1,0,0:0:0
200,264,20835,6,0,B|288:316,1,101.250003862381
316,324,21255,6,0,B|328:272|360:240,1,90,4|0,0:0|0:0,0:0:0
472,168,21675,1,8,0:0:0
408,88,21884,1,0,0:0:0
312,64,22094,1,8,0:0:0
216,92,22304,1,0,0:0:0
168,108,22409,1,0,0:0:0
124,132,22514,2,0,B|88:176|76:212,1,90,8|0,0:0|0:0,0:0:0
265,140,22933,2,0,B|301:96|312:64,1,90,8|0,0:0|0:0,0:0:0
312,64,23353,5,8,0:0:0
124,132,23668,1,8,0:0:0
192,324,23982,1,8,0:0:0
244,240,24192,5,4,0:0:0
392,216,24507,1,0,0:0:0
265,140,24821,1,4,0:0:0
265,140,25241,6,0,B|216:132|185:96,1,90
244,240,25661,2,0,B|256:288|244:332,1,90,0|4,0:0|0:0,0:0:0
336,208,26080,1,0,0:0:0
336,208,26185,2,0,B|376:148|452:140,1,135,8|4,0:0|0:0,0:0:0
508,220,26709,1,0,0:0:0
432,308,26919,6,0,B|304:352,1,135.000005149842
168,272,27549,5,4,0:0:0
108,192,27758,1,0,0:0:0
140,100,27968,1,8,0:0:0
232,60,28178,1,0,0:0:0
232,60,28283,2,0,B|268:88|268:88|312:68|360:84,1,135
484,168,28807,2,0,B|440:180|396:168,1,90,8|0,0:0|0:0,0:0:0
296,172,29227,5,0,0:0:0
204,208,29437,1,0,0:0:0
204,208,29542,2,0,B|144:260|168:340,1,135
356,256,30066,2,0,B|416:204|392:124,1,135,0|0,0:0|0:0,0:0:0
368,92,30486,2,0,B|324:84|284:52,1,90,8|0,0:0|0:0,0:0:0
136,72,30905,6,0,B|180:80|220:112,1,90
240,152,31220,2,0,B|224:188|224:188|264:220|256:276,1,135
156,264,31744,2,0,B|104:276|68:260,1,90
28,232,32059,1,0,0:0:0
136,72,32374,1,0,0:0:0
136,72,32584,5,4,0:0:0
288,244,32898,1,8,0:0:0
420,56,33213,1,4,0:0:0
420,56,33528,1,0,0:0:0
420,56,33633,2,0,B|328:40,1,90,4|0,0:0|0:0,0:0:0
232,44,34052,1,0,0:0:0
136,72,34262,5,4,0:0:0
60,200,34577,1,0,0:0:0
160,308,34891,2,0,B|204:320|252:316,1,90,0|8,0:0|0:0,0:0:0
404,224,35311,2,0,B|360:212|312:216,1,90,0|8,0:0|0:0,0:0:0
216,228,35730,1,0,0:0:0
160,308,35940,5,12,0:0:0
64,328,36150,1,0,0:0:0
64,328,36255,2,0,B|16:284|16:204,1,135,8|0,0:0|0:0,0:0:0
80,132,36779,1,0,0:0:0
180,136,36989,1,4,0:0:0
264,84,37199,1,0,0:0:0
352,128,37409,1,0,0:0:0
388,164,37514,1,0,0:0:0
420,200,37619,6,0,B|408:252|376:292,1,101.250003862381,0|0,0:0|0:0,0:0:0
344,328,38038,1,4,0:0:0
352,128,38458,6,0,B|364:84|348:40,1,90,0|4,0:0|0:0,0:0:0
176,80,38982,1,0,0:0:0
176,80,39087,2,4,B|164:124|180:168,1,90,0|4,0:0|0:0,0:0:0
248,244,39507,1,0,0:0:0
348,252,39716,1,2,0:0:0
436,204,39926,1,0,0:0:0
444,156,40031,2,0,B|372:96,1,90
364,48,40346,5,8,0:0:0
248,244,40661,1,0,0:0:0
132,48,40975,1,2,0:0:0
132,48,41185,5,0,0:0:0
132,48,41290,2,0,B|76:92|56:156,1,135
92,248,41814,1,2,0:0:0
272,104,42129,1,2,0:0:0
384,304,42444,1,2,0:0:0
384,304,42654,5,8,0:0:0
352,144,42968,1,8,0:0:0
200,200,43283,2,0,B|156:152|148:112,1,101.250003862381,8|0,0:0|0:0,0:0:0
144,76,43702,2,0,B|108:68|72:48,2,67.5000025749208,4|0|0,0:0|0:0|0:0,0:0:0
324,28,44332,5,8,0:0:0
280,184,44647,1,8,0:0:0
436,228,44961,2,0,B|408:280|364:300,1,101.250003862381,0|0,0:0|0:0,0:0:0
328,300,45381,2,0,P|300:280|268:268,1,67.5000025749208,4|0,0:0|0:0,0:0:0
100,164,45800,5,0,0:0:0
116,132,45905,1,0,0:0:0
132,100,46010,2,0,B|184:92|232:80,1,101.250003862381,8|0,0:0|0:0,0:0:0
408,104,46640,2,0,B|356:112|308:124,1,101.250003862381,8|0,0:0|0:0,0:0:0
276,136,47059,1,4,0:0:0
232,196,47269,1,0,0:0:0
256,268,47479,1,0,0:0:0
424,296,47689,5,4,0:0:0
408,104,48003,1,8,0:0:0
232,196,48318,1,0,0:0:0
232,196,48528,5,4,0:0:0
160,216,48737,1,0,0:0:0
92,188,48947,1,8,0:0:0
60,120,49157,1,0,0:0:0
192,40,49367,5,4,0:0:0
192,40,49577,2,0,B|236:60|280:60,1,90
412,148,49996,2,0,B|368:128|324:128,1,90
228,148,50416,1,0,0:0:0
184,236,50626,1,0,0:0:0
220,328,50835,1,0,0:0:0
316,356,51045,5,4,0:0:0
412,148,51360,1,8,0:0:0
200,60,51675,1,0,0:0:0
200,60,51884,1,8,0:0:0
132,132,52094,1,0,0:0:0
116,228,52304,1,0,0:0:0
244,320,52514,5,0,0:0:0
288,296,52619,1,0,0:0:0
328,276,52723,2,0,B|372:288|432:288,1,101.250003862381,0|0,0:0|0:0,0:0:0
468,260,53143,6,0,B|448:220|460:168,1,90,4|0,0:0|0:0,0:0:0
428,80,53563,1,0,0:0:0
324,48,53772,1,0,0:0:0
212,84,53982,1,0,0:0:0
168,204,54192,1,0,0:0:0
252,312,54402,2,0,B|312:316|344:288|344:288|384:296,1,135,4|0,0:0|0:0,0:0:0
428,304,54821,1,0,0:0:0
480,164,55031,5,0,0:0:0
480,164,55136,1,0,0:0:0
480,164,55241,2,0,B|392:144,1,90
308,228,55661,2,0,B|268:148,1,90,8|0,0:0|0:0,0:0:0
128,64,56080,2,0,B|96:104|100:152|100:152|68:176,1,135,4|0,0:0|0:0,0:0:0
20,212,56500,1,8,0:0:0
104,340,56709,1,0,0:0:0
220,240,56919,1,0,0:0:0
256,192,57024,12,0,59017,0:0:0
156,248,59227,5,0,0:0:0
156,248,59437,2,0,B|144:292|108:324,1,90,4|0,0:0|0:0,0:0:0
256,192,59856,1,8,0:0:0
372,172,60066,1,0,0:0:0
468,236,60276,2,0,B|480:284|464:328,1,90,2|0,0:0|0:0,0:0:0
420,344,60591,2,0,B|372:336|348:304|348:304|300:316,1,135,2|0,0:0|0:0,0:0:0
144,268,61115,6,0,B|200:196,1,90
296,128,61535,2,0,B|288:180|316:220,1,90,8|2,0:0|0:0,0:0:0
344,252,61849,1,0,0:0:0
412,152,62059,1,8,0:0:0
412,152,62164,2,0,B|416:104|392:64,1,90,0|8,0:0|0:0,0:0:0
208,48,62584,1,0,0:0:0
296,128,62793,5,0,0:0:0
264,240,63003,1,0,0:0:0
264,240,63213,2,0,B|224:260|176:260,1,90,8|0,0:0|0:0,0:0:0
28,160,63633,2,0,B|92:128|160:132,1,135,2|0,0:0|0:0,0:0:0
208,160,64052,1,8,0:0:0
320,196,64262,1,0,0:0:0
428,148,64472,5,2,0:0:0
208,160,64786,1,2,0:0:0
340,336,65101,1,0,0:0:0
224,356,65311,2,0,B|180:340|156:300,1,90
120,264,65626,1,0,0:0:0
96,220,65730,1,8,0:0:0
256,68,65940,1,0,0:0:0
312,76,66045,1,0,0:0:0
368,96,66150,6,0,B|368:148|400:192,1,101.250003862381,4|0,0:0|0:0,0:0:0
432,228,66570,1,8,0:0:0
184,280,66779,1,4,0:0:0
184,280,67199,5,4,0:0:0
248,180,67409,1,0,0:0:0
204,72,67619,1,0,0:0:0
88,68,67828,1,4,0:0:0
32,172,68038,2,0,B|44:224|80:248,1,90
152,148,68458,6,0,B|196:176|208:228,1,101.250003862381,4|0,0:0|0:0,0:0:0
184,280,68877,1,2,0:0:0
304,360,69087,1,8,0:0:0
312,216,69297,1,2,0:0:0
312,216,69402,1,0,0:0:0
312,216,69507,6,0,B|300:172|324:128,1,90,4|0,0:0|0:0,0:0:0
404,44,69926,1,8,0:0:0
504,108,70136,1,0,0:0:0
468,220,70346,1,2,0:0:0
352,224,70556,1,0,0:0:0
352,224,70661,2,0,B|312:244|288:280|288:280|240:288,1,135
188,296,71080,1,0,0:0:0
140,292,71185,5,4,0:0:0
104,64,71500,1,0,0:0:0
332,92,71814,1,0,0:0:0
412,176,72024,1,0,0:0:0
428,224,72129,1,0,0:0:0
412,272,72234,1,0,0:0:0
376,304,72339,1,0,0:0:0
328,316,72444,1,0,0:0:0
280,312,72549,1,0,0:0:0
236,292,72654,1,0,0:0:0
200,180,72863,5,4,0:0:0
200,180,73073,2,0,B|212:132|172:92,1,90,0|8,0:0|0:0,0:0:0
88,172,73493,1,0,0:0:0
0,96,73702,1,2,0:0:0
48,280,73912,1,0,0:0:0
48,280,74017,2,0,B|88:312|132:316,1,90
180,320,74332,6,0,B|252:276|252:276|256:228|304:196,1,180,2|0,0:0|0:0,0:0:0
420,196,74961,1,8,0:0:0
384,308,75171,1,0,0:0:0
336,308,75276,2,0,B|252:276,1,90,2|8,0:0|0:0,0:0:0
208,256,75591,1,0,0:0:0
128,136,75800,1,8,0:0:0
248,56,76010,1,0,0:0:0
296,40,76115,1,0,0:0:0
344,28,76220,1,0,0:0:0
464,88,76430,5,0,0:0:0
420,196,76640,1,8,0:0:0
324,260,76849,1,0,0:0:0
208,256,77059,2,0,B|184:216|192:172|192:172|148:152,1,135,2|0,0:0|0:0,0:0:0
92,140,77479,1,8,0:0:0
8,24,77689,1,0,0:0:0
124,40,77898,5,2,0:0:0
208,256,78213,1,2,0:0:0
348,76,78528,1,0,0:0:0
348,76,78737,2,0,B|308:60,1,45
260,44,78947,2,0,B|232:88|188:96,1,90,0|8,0:0|0:0,0:0:0
60,160,79367,5,0,0:0:0
88,200,79472,1,0,0:0:0
116,240,79577,1,4,0:0:0
192,328,79786,2,0,B|232:304|280:296,1,90,0|8,0:0|0:0,0:0:0
392,284,80206,1,0,0:0:0
392,284,80416,1,4,0:0:0
328,64,80730,1,8,0:0:0
200,184,81045,6,0,B|160:212|112:220|112:220|116:268|88:308,1,180,4|0,0:0|0:0,0:0:0
212,292,81675,1,8,0:0:0
304,360,81884,1,0,0:0:0
392,284,82094,2,0,B|424:248|432:204,1,90,4|0,0:0|0:0,0:0:0
432,156,82409,1,0,0:0:0
180,64,82723,5,0,0:0:0
180,64,82828,1,0,0:0:0
180,64,82933,2,0,B|204:108|204:152,1,90,4|0,0:0|0:0,0:0:0
220,268,83353,1,8,0:0:0
220,268,83563,2,0,B|240:224|284:204,1,90
384,80,83982,2,0,B|364:124|320:144,1,90,0|8,0:0|0:0,0:0:0
203,149,84402,1,0,0:0:0
156,156,84507,1,0,0:0:0
108,160,84612,1,12,0:0:0
244,352,85031,5,0,0:0:0
244,352,85451,2,0,B|288:320|340:320,2,101.250003862381
156,360,86290,5,4,0:0:0
120,132,86605,1,0,0:0:0
344,188,86919,1,0,0:0:0
268,276,87129,2,0,B|224:292|180:272|180:272|152:308|104:316,1,180,4|0,0:0|0:0,0:0:0
52,208,87758,1,0,0:0:0
84,168,87863,1,0,0:0:0
120,132,87968,5,4,0:0:0
232,160,88178,1,0,0:0:0
344,128,88388,1,0,0:0:0
420,40,88598,1,0,0:0:0
384,232,88807,2,0,B|360:280|320:296,1,90,2|0,0:0|0:0,0:0:0
220,236,89227,1,8,0:0:0
116,292,89437,5,0,0:0:0
68,292,89542,1,0,0:0:0
28,264,89647,1,2,0:0:0
152,72,89961,1,2,0:0:0
280,264,90276,1,0,0:0:0
392,292,90486,1,2,0:0:0
440,300,90591,1,0,0:0:0
488,308,90695,2,0,B|504:216,1,90,0|8,0:0|0:0,0:0:0
440,92,91115,5,0,0:0:0
392,84,91220,1,0,0:0:0
344,76,91325,2,0,B|320:144|252:176,1,135,4|0,0:0|0:0,0:0:0
212,196,91744,1,8,0:0:0
296,300,91954,6,0,B|316:248|356:220,1,101.250003862381,4|0,0:0|0:0,0:0:0
396,192,92374,1,0,0:0:0
256,76,92584,1,0,0:0:0
116,192,92793,1,0,0:0:0
116,192,93003,6,0,B|176:224|220:280,1,135,12|2,0:0|0:0,0:0:0
396,192,93633,1,2,0:0:0
396,192,93842,2,0,B|336:224|292:280,1,135,4|0,0:0|0:0,0:0:0
256,128,94472,1,12,0:0:0
256,192,94577,12,0,99716,0:0:0
