osu file format v9

[General]
AudioFilename: Touhou vo^Karu Arrange_ ~ _ Sai Gatsu _-_ Sagyou Bougai _Remix_-_ ~.mp3
AudioLeadIn: 1500
PreviewTime: 78086
Countdown: 0
SampleSet: Normal
StackLeniency: 0.7
Mode: 0
LetterboxInBreaks: 0

[Editor]
Bookmarks: 13170,70086,205086
DistanceSpacing: 1
BeatDivisor: 4
GridSize: 4

[Metadata]
Title:~ Saigetsu - Sagyou Bougai Remix - ~
Artist:KOKO
Creator:o0cannian0o
Version:Goblin
Source:Touhou
Tags:nicovideo fanzhen0019 sherrie__fay veoliouy vlaoye

[Difficulty]
HPDrainRate:6
CircleSize:4
OverallDifficulty:7
ApproachRate:9
SliderMultiplier:1.8
SliderTickRate:1

[Events]
//Background and Video events
0,0,"B.jpg"
Video,0,"video.flv"
//Break Periods
2,89753,99486
//Storyboard Layer 0 (Background)
//Storyboard Layer 1 (Fail)
//Storyboard Layer 2 (Pass)
//Storyboard Layer 3 (Foreground)
//Storyboard Sound Samples
//Background Colour Transformations
3,100,163,162,255

[TimingPoints]
2087,333.333333333333,4,1,1,60,1,0
13336,-66.6666666666667,4,1,1,60,0,0
15336,-100,4,1,1,60,0,0
16170,-100,4,1,1,40,0,0
16336,-100,4,1,1,60,0,0
16836,-100,4,1,1,40,0,0
17003,-100,4,1,1,60,0,0
17503,-100,4,1,1,40,0,0
17670,-100,4,1,1,60,0,0
29336,-66.6666666666667,4,1,1,60,0,0
29670,-100,4,1,1,60,0,0
36003,-200,4,1,1,60,0,0
36128,-200,4,1,1,5,0,0
36211,-200,4,1,1,60,0,0
36295,-200,4,1,1,5,0,0
36378,-200,4,1,1,60,0,0
36461,-200,4,1,1,5,0,0
36545,-200,4,1,1,60,0,0
36628,-200,4,1,1,5,0,0
36711,-100,4,1,1,60,0,0
46086,-100,4,2,0,40,0,0
58003,-80,4,2,0,40,0,0
58336,-66.6666666666667,4,2,0,40,0,0
60336,-80,4,2,0,40,0,0
60670,-100,4,2,0,40,0,0
65336,-100,4,1,1,65,0,0
65503,-100,4,2,0,45,0,0
65670,-100,4,1,1,65,0,0
65836,-100,4,2,0,45,0,0
66003,-100,4,1,1,65,0,0
66170,-100,4,2,0,45,0,0
66336,-100,4,1,1,65,0,0
66503,-100,4,1,0,65,0,0
66670,-100,4,1,1,65,0,0
68086,-86.9565217391304,4,1,1,65,0,1
70003,-66.6666666666667,4,1,1,65,0,1
70170,-66.6666666666667,4,2,0,65,0,1
70336,-100,4,1,1,65,0,1
82336,-74.0740740740741,4,1,1,65,0,1
82670,-66.6666666666667,4,1,1,65,0,1
83170,-100,4,1,1,65,0,1
89420,-100,4,1,1,65,0,0
99420,-100,4,2,0,65,0,0
108003,-66.6666666666667,4,2,0,65,0,0
110003,-100,4,1,1,65,0,0
121336,-100,4,1,1,65,0,0
121670,-76.9230769230769,4,1,1,65,0,0
122003,-62.5,4,1,1,65,0,0
122336,-62.5,4,1,1,65,0,0
122670,-76.9230769230769,4,1,1,65,0,0
123003,-100,4,1,1,65,0,0
123336,-100,4,1,1,65,0,0
145545,-200,4,1,1,65,0,0
145628,-200,4,1,1,5,0,0
145711,-200,4,1,1,65,0,0
145795,-200,4,1,1,5,0,0
145878,-200,4,1,1,65,0,0
145961,-200,4,1,1,5,0,0
146045,-200,4,1,1,65,0,0
146128,-200,4,1,1,5,0,0
146211,-200,4,1,1,65,0,0
146295,-200,4,1,1,5,0,0
146378,-200,4,1,1,65,0,0
146461,-200,4,1,1,5,0,0
146545,-200,4,1,1,65,0,0
146628,-200,4,1,1,5,0,0
146711,-100,4,1,1,65,0,0
153420,-100,4,2,0,65,0,0
174670,-100,4,1,1,65,0,0
176086,-100,4,1,1,65,0,1
197420,-100,4,1,1,65,0,0
199503,-100,4,1,1,65,0,0
206670,-100,4,2,0,40,0,0
207336,-100,4,1,1,65,0,0
219336,-100,4,2,0,40,0,0
230003,-100,4,2,0,55,0,0
240003,-100,4,1,1,45,0,0
240086,-100,4,2,0,45,0,1
241086,-100,4,1,1,45,0,0

[Colours]
Combo1 : 253,58,17
Combo2 : 249,230,62
Combo3 : 41,104,250
Combo4 : 248,91,7
SliderBorder : 255,255,255

[HitObjects]
136,116,2086,1,0
124,148,2170,1,0
112,180,2253,1,4
256,116,2420,1,0
268,148,2504,1,0
280,180,2587,1,4
128,264,2753,6,0,B|148:296|172:304|220:288,1,90
296,288,3086,1,8
380,260,3253,1,0
384,120,3420,2,0,B|364:88|340:80|292:96,1,90
216,96,3753,1,8
132,124,3920,1,0
108,212,4086,5,0
152,288,4253,1,8
228,240,4420,1,8
180,164,4586,1,0
276,264,4753,1,4
172,356,4920,1,4
72,260,5086,1,4
180,164,5253,1,4
276,264,5420,6,0,B|336:276|388:232,1,90
312,176,5753,1,8
404,172,5920,1,0
360,96,6086,2,0,B|324:68|248:84,1,90
252,168,6420,1,8
188,104,6586,1,0
124,168,6753,2,0,B|112:228|148:272,1,90
228,248,7086,1,8
188,328,7253,1,0
276,344,7420,5,4
300,324,7503,1,4
324,304,7586,1,4
432,196,7753,1,2
404,336,7920,1,2
336,192,8086,6,0,B|296:128|232:88,1,135
200,84,8420,1,8
152,160,8586,1,0
64,144,8753,2,0,B|56:220|76:296,1,135,0|0
88,320,9086,1,8
176,336,9253,1,0
204,248,9420,1,0
256,176,9586,1,8
272,152,9670,1,0
288,132,9753,1,8
372,96,9920,1,0
372,184,10086,6,4,B|396:228|380:296,1,90
140,200,10420,2,4,B|116:155|132:87,1,90
36,116,10753,6,0,B|16:168|28:220,1,90
84,272,11086,1,8
140,200,11253,1,0
172,284,11420,2,0,B|216:308|276:300,1,90
296,220,11753,1,8
348,296,11920,1,0
388,216,12086,6,0,B|408:160|384:104,1,90
320,72,12420,1,8
232,56,12586,1,0
144,72,12753,1,4
124,100,12836,1,4
112,128,12920,1,4
64,268,13086,1,4
184,356,13253,1,4
324,348,13420,6,0,B|352:268|280:224,1,134.999995976687
425,175,13753,2,0,B|357:124|293:179,1,134.999995976687,8|0
292,25,14086,2,0,B|223:74|255:152,1,134.999995976687
109,105,14420,2,0,B|133:186|217:180,1,134.999995976687,8|0
128,304,14753,2,0,B|213:306|232:224,1,134.999995976687
264,104,15086,1,8
144,44,15253,1,0
84,112,15420,5,0
200,248,15586,1,4
52,248,15753,1,4
168,112,15920,1,4
124,192,16086,5,0
256,192,16253,2,0,B|292:240,2,45,0|0|8
364,128,16586,1,0
304,28,16753,1,0
228,76,16920,1,0
204,92,17003,1,0
180,108,17086,1,8
132,184,17253,5,0
172,264,17420,1,0
240,204,17586,2,0,B|224:160,2,45
308,124,17920,1,0
380,72,18086,5,4
388,100,18169,1,4
396,124,18252,1,4
460,244,18419,1,2
340,308,18586,1,4
256,340,18753,6,0,B|256:312,4,22.5
172,308,19086,2,0,B|132:308|132:308|132:260,1,90,8|0
212,216,19420,1,0
300,216,19586,1,0
380,260,19753,2,0,B|380:312|380:312|332:312,1,90,8|0
256,284,20086,2,0,B|256:188,1,90
256,104,20420,1,8
256,16,20586,1,0
188,76,20753,5,4
324,76,20920,1,4
160,144,21086,1,4
352,144,21253,1,4
384,228,21420,6,0,B|436:228|460:272,3,90,0|0|8|0
320,324,22086,2,0,B|244:244,1,90
192,68,22420,2,0,B|272:144,1,90,8|0
128,228,22753,2,0,B|68:228|40:288,3,90,0|8|8|0
176,308,23420,5,4
204,304,23503,1,4
232,300,23586,1,4
308,188,23753,1,0
252,60,23920,1,4
116,52,24086,5,0
76,176,24253,1,0
204,208,24420,1,8
240,92,24586,1,0
80,52,24753,1,0
76,208,24920,1,0
240,208,25086,1,8
240,56,25253,5,0
156,28,25420,1,0
104,100,25586,1,0
156,172,25753,1,8
240,136,25920,1,0
400,104,26086,1,4
440,264,26253,1,4
276,296,26420,1,4
240,136,26586,1,4
144,212,26753,5,0
172,300,26920,1,0
172,300,27003,1,0
172,300,27086,1,8
240,240,27253,2,0,B|308:172,1,90
368,112,27586,1,0
368,112,27670,1,0
368,112,27753,1,8
412,188,27920,6,0,B|308:188,1,90
232,188,28253,1,0
232,188,28336,1,0
232,188,28420,1,8
144,188,28586,1,0
144,96,28753,5,4
176,88,28836,1,4
208,84,28920,1,4
340,108,29086,1,0
432,208,29253,1,4
360,292,29420,6,0,B|348:316|348:316|332:288|332:288|304:316|304:316|244:324,1,134.999995976687
200,260,29753,2,0,B|140:272|104:240,1,90,8|0
76,164,30086,2,0,B|88:112|136:88,1,90
212,68,30420,1,8
300,68,30586,1,0
384,92,30753,2,0,B|436:120|448:192,1,90
376,224,31086,1,8
284,224,31253,1,0
184,156,31420,6,0,B|144:116|148:52,1,90
328,224,31753,2,0,B|368:264|364:328,1,90
76,84,32253,5,0
76,84,32420,2,0,B|44:52,2,45,8|0|0
160,116,32753,1,0
248,136,32920,1,0
336,136,33086,1,8
424,116,33253,1,0
484,180,33420,2,0,B|504:256|488:284,1,90
432,332,33753,1,8
344,348,33920,5,0
232,328,34086,1,4
232,328,34170,1,4
232,328,34253,1,4
160,224,34420,1,4
160,224,34503,1,4
160,224,34586,1,4
272,160,34753,5,0
336,96,34920,1,0
272,160,35086,1,8
208,96,35253,1,0
116,100,35420,2,0,B|160:128|172:184,1,90
112,240,35753,1,8
160,316,35920,1,0
248,308,36086,2,0,B|232:276,1,22.5
312,296,36253,2,0,B|292:264,1,22.5
364,264,36420,2,0,B|340:236,1,22.5,8|0
400,220,36586,2,0,B|380:196,1,22.5
292,124,36753,6,0,B|324:32,1,90
220,256,37086,2,0,B|188:348,1,90
112,236,37420,6,0,B|136:184|196:152,1,90
256,196,37753,1,8
256,104,37920,1,0
340,168,38086,2,0,B|384:208|396:244,1,90
256,248,38420,1,8
256,156,38586,1,0
232,68,38753,5,0
324,124,38920,1,8
232,68,39086,1,8
160,148,39253,1,8
256,192,39420,1,4
264,224,39503,1,4
272,256,39586,1,4
376,328,39753,1,0
172,276,39920,1,4
136,156,40086,6,0,B|116:108|40:88,2,90,0|0|8
256,128,40586,1,0
376,156,40753,2,0,B|400:112|476:96,2,90,0|0|8
204,212,41420,2,0,B|156:256|164:328,2,90,0|0|8
256,128,41920,1,0
304,212,42086,1,0
328,248,42170,1,4
336,288,42253,1,4
256,332,42420,5,0
256,184,42586,1,0
300,76,42753,6,0,B|300:132|364:164,1,90
412,236,43086,2,0,B|360:228|324:284,1,90,8|0
224,272,43420,2,0,B|236:208|172:196,1,90
108,124,43753,2,0,B|172:144|204:92,1,90,8|0
300,120,44086,6,0,B|272:72|224:64,1,90
140,56,44420,1,8
56,84,44586,1,0
88,168,44753,2,4,B|48:196,2,45
224,272,45086,5,0
384,220,45253,1,4
164,28,46420,5,4
392,176,46753,1,0
164,296,47086,1,8
132,192,47253,1,0
236,216,47420,1,0
440,72,47753,5,8
396,228,47920,1,0
280,112,48086,1,0
464,160,48253,1,0
304,204,48420,1,8
348,48,48586,1,0
372,136,48753,1,0
120,88,49086,5,8
228,92,49253,2,0,B|216:164|144:172,1,90
392,300,49753,1,8
284,296,49920,2,0,B|296:224|368:216,2,90
192,244,50420,1,0
204,132,50586,1,0
228,32,50753,5,0
268,168,50920,1,0
300,32,51086,1,8
328,196,51253,1,0
368,32,51420,1,0
92,312,51753,6,0,B|92:260|160:240,2,90,8|0|0
420,72,52420,2,0,B|420:124|352:144,2,90,8|0|0
312,52,52920,1,0
204,64,53086,2,0,B|172:92|168:116|192:160,1,90,8|0
288,176,53420,1,0
356,260,53586,1,0
248,272,53753,2,0,B|264:320,2,45
208,172,54086,1,0
392,60,54420,6,0,B|312:136,1,90,8|0
120,60,54753,2,0,B|200:136,1,90,0|0
120,324,55086,2,0,B|200:248,1,90,8|0
392,324,55420,2,0,B|312:248,1,90,0|0
256,64,55753,2,0,B|256:172,2,90,8|0|0
472,348,56420,5,8
36,348,56753,1,0
32,36,57086,1,8
476,36,57420,2,0,B|432:72,2,45
348,56,57753,6,0,B|296:80|308:144,1,90
460,152,58086,2,0,B|392:128|348:192,1,112.499998323619
432,292,58420,2,0,B|388:336|300:308,1,134.999995976687
284,276,58670,2,0,B|352:156,2,134.999995976687
240,276,59086,2,0,B|144:260|80:156,1,202.49999396503
64,128,59420,2,0,B|148:136|204:104,1,134.999995976687
324,64,59753,6,0,B|376:24,2,67.4999979883433
308,200,60086,2,0,B|276:264|188:256,1,134.999995976687,8|0
60,244,60420,2,0,B|84:188|156:160,1,112.499998323619,8|0
80,100,60753,2,0,B|128:56|200:80,1,90
236,124,61086,6,0,B|288:116,2,45
176,192,61420,2,0,B|244:224|264:304,1,135
216,308,61753,2,0,B|216:224|320:228,1,135
312,272,62086,2,0,B|232:248|240:156,1,135
239,171,62420,5,0
236,64,62586,1,0
288,160,62753,1,0
356,76,62920,1,0
464,84,63086,2,0,B|452:160|380:168,1,90
344,240,63420,2,0,B|292:260|260:300,1,90
172,240,63753,2,0,B|224:252|256:300,1,90
344,240,64086,6,0,B|380:280,2,45
256,172,64420,1,0
172,240,64586,2,0,B|140:276,2,45
252,308,64920,1,0
368,328,65086,1,0
472,304,65253,1,0
428,204,65420,5,0
480,52,65586,1,0
328,40,65753,1,0
360,152,65920,1,0
288,180,66086,1,0
220,104,66253,1,0
144,112,66420,1,0
104,180,66586,1,0
156,243,66753,5,0
176,256,66836,1,0
196,268,66920,1,0
216,280,67003,1,0
236,292,67086,1,0
336,264,67253,1,0
356,240,67336,1,0
376,216,67420,1,0
396,192,67503,1,0
416,168,67586,1,0
408,36,67753,5,4
384,68,67836,1,4
360,100,67920,1,4
276,204,68086,1,0
172,200,68253,1,0
104,120,68420,2,0,B|136:76|192:80,1,90,8|0
296,108,68753,2,0,B|264:152|208:148,1,90,0|0
184,36,69086,1,8
288,40,69253,1,0
184,36,69420,5,0
100,96,69586,1,0
88,128,69670,1,0
72,160,69753,1,8
84,264,69920,1,0
176,216,70086,2,0,B|172:192|172:192|200:204|200:204|196:176|196:176|224:116,1,134.999995976687,2|0
368,140,70420,1,4
288,268,70586,1,4
372,300,70753,5,0
428,232,70920,1,0
360,172,71086,1,8
284,120,71253,1,0
204,48,71420,1,0
268,136,71586,1,0
160,124,71753,1,8
264,160,71920,2,0,B|192:180|188:232,2,90
308,60,72420,1,8
328,168,72586,1,0
420,168,72753,5,4
420,168,72836,1,4
420,168,72920,1,4
432,256,73086,2,0,B|340:228,1,90,0|4
280,120,73420,2,0,B|280:212,1,90
188,264,73753,2,0,B|188:148,1,90,8|0
344,116,74086,2,0,B|344:212,1,90
248,264,74420,2,0,B|248:164,1,90,8|0
404,148,74753,6,0,B|404:236,1,90
328,284,75086,1,8
276,212,75253,1,0
200,168,75420,1,0
104,88,75586,5,4
164,196,75753,1,4
128,312,75920,1,4
252,312,76086,2,0,B|288:276|348:288,1,90
416,248,76420,2,0,B|356:232|348:176,1,90,8|0
312,112,76753,2,0,B|284:172|224:152,1,90
184,56,77086,5,8
120,32,77253,1,0
132,100,77420,1,0
40,200,77586,1,0
100,232,77753,1,0
96,164,77920,1,0
108,264,78086,5,4
144,296,78170,1,4
180,316,78253,1,4
220,328,78336,1,4
256,336,78420,1,4
292,328,78503,1,4
320,312,78586,1,4
336,292,78670,1,0
344,272,78753,2,0,B|360:220|328:172,1,90
276,116,79086,2,0,B|244:72|164:84,2,90,8|0|0
216,180,79586,1,0
244,264,79753,2,0,B|180:280|132:236,1,90,8|0
128,168,80086,5,0
184,96,80253,1,0
268,68,80420,2,0,B|248:132|312:164,2,90,8|0|0
408,136,80920,1,4
316,220,81086,1,4
456,224,81253,1,4
360,316,81420,1,0
276,280,81586,5,0
236,264,81670,1,0
196,248,81753,1,8
112,220,81920,1,0
36,176,82086,2,0,B|56:120|104:80,1,90
228,116,82420,2,0,B|264:64|352:64,1,121.500003983081,8|0
472,148,82753,2,0,B|388:128|376:212,2,134.999995976687,0|0|8
468,256,83253,1,0
380,320,83420,5,4
380,296,83503,1,4
376,268,83586,1,4
368,240,83670,1,4
352,208,83753,1,4
328,180,83836,1,4
296,156,83920,1,4
256,140,84003,1,0
216,136,84086,2,0,B|176:132|128:156,1,90
120,244,84420,5,8
200,204,84586,1,0
232,120,84753,2,0,B|268:80|340:104,1,90
400,124,85086,1,8
444,204,85253,5,0
368,256,85420,2,0,B|308:232|312:148,1,90
148,124,85753,2,0,B|200:136|212:208,1,90,8|0
336,116,86086,1,4
216,56,86253,1,4
336,116,86420,1,4
216,56,86586,1,4
204,164,86753,6,0,B|272:204|256:264,1,90
216,312,87086,2,0,B|140:296|148:224,1,90,8|0
148,168,87420,1,0
228,128,87586,1,0
308,168,87753,1,8
292,256,87920,1,0
204,236,88086,2,0,B|168:212|132:212|100:240,1,90
156,308,88420,1,8
240,340,88586,1,0
344,316,88753,5,4
372,292,88836,1,4
396,260,88920,1,4
464,136,89086,1,0
332,60,89253,1,0
256,192,89420,5,4
64,68,100086,5,4
132,40,100253,1,0
196,72,100420,1,0
264,44,100586,1,0
316,96,100753,1,0
380,60,100920,1,0
428,116,101086,1,0
416,188,101253,1,0
388,268,101420,6,0,B|488:272,1,90
420,344,101753,2,0,B|320:344,1,90
256,232,102086,2,0,B|256:324,1,90
92,344,102420,2,0,B|196:344,1,90
168,220,102753,5,0
128,120,102920,1,0
232,88,103086,1,0
332,48,103253,1,0
308,152,103420,1,0
416,140,103586,1,0
308,152,103753,1,0
392,220,103920,1,0
304,296,104086,5,0
216,220,104253,1,0
320,276,104420,1,0
208,240,104586,1,0
324,256,104753,1,0
208,256,104920,1,0
324,236,105086,1,0
212,272,105253,1,0
272,184,105420,6,0,B|304:152|296:96,1,90
188,84,105753,1,0
84,116,105920,1,0
84,116,106086,2,0,B|136:156|108:208,1,90
56,324,106420,2,0,B|120:284|164:348,1,90
204,236,106753,2,0,B|256:292|308:248,1,90
352,348,107086,2,0,B|360:288|432:300,1,90
412,188,107420,2,0,B|340:176|324:116,3,90
236,56,108086,6,0,B|234:152|124:153,1,134.999995976687
64,288,108420,2,0,B|128:228|208:292,1,134.999995976687
348,300,108753,2,0,B|272:256|304:168,1,134.999995976687
400,60,109086,2,0,B|340:128|412:192,1,134.999995976687
480,324,109420,2,0,B|468:252|376:240,1,134.999995976687
224,216,109753,2,0,B|152:200|148:104,1,134.999995976687
72,40,110086,5,4
60,80,110170,1,4
56,116,110253,1,4
68,224,110420,1,0
156,328,110586,1,4
336,192,110753,6,0,B|324:240|324:240|264:272,1,90
208,300,111087,1,8
152,232,111253,1,0
64,256,111420,2,0,B|44:216|44:216|80:140,1,90
148,148,111753,1,8
236,164,111920,1,0
320,200,112086,2,0,B|344:260|416:256,2,90,0|8|8
328,112,112587,1,0
228,112,112753,6,0,B|180:104|180:104|188:36,1,90
284,276,113086,2,0,B|332:288|332:288|328:340,1,90
220,324,113420,2,0,B|172:340|160:272,1,90
216,204,113753,1,8
164,132,113920,1,0
228,56,114087,2,0,B|268:20|268:20|332:40,1,90
328,116,114420,1,8
416,112,114587,1,0
416,200,114753,6,0,B|452:236|452:236|428:308,1,90
356,304,115087,1,8
268,308,115253,1,0
128,280,115420,1,4
152,248,115503,1,4
176,216,115587,1,4
114,150,115753,1,4
204,120,115920,1,4
304,96,116086,6,0,B|384:96|416:124|428:168,1,135
428,192,116419,1,8
344,220,116586,1,0
396,292,116753,2,0,B|332:352|248:300,1,135
236,288,117086,1,8
200,204,117253,1,0
132,144,117419,5,0
184,68,117586,2,0,B|248:100|252:28,1,90,0|8
340,56,117919,1,0
416,100,118086,1,4
352,200,118253,1,4
416,300,118419,1,4
352,200,118586,1,4
280,144,118753,6,0,B|244:120|244:120|208:148,1,90
116,140,119086,1,8
68,216,119253,1,0
128,284,119419,2,0,B|140:328|140:328|188:332,1,90
276,332,119753,1,8
300,244,119919,1,0
364,308,120086,2,0,B|404:292|404:292|408:240,1,90
416,156,120419,1,8
368,80,120586,1,0
280,56,120753,5,4
248,80,120836,1,4
212,104,120919,1,4
76,68,121086,1,0
56,196,121253,1,4
60,312,121420,6,0,B|20:232,1,90
140,312,121753,2,0,B|108:196,1,116.999997907877,8|0
220,312,122086,2,0,B|204:164,1,144
292,40,122420,2,0,B|312:192,1,144,8|0
372,40,122753,2,0,B|408:172,1,116.999997907877
452,40,123086,2,0,B|504:148,1,90,8|0
460,248,123420,5,0
320,212,123586,1,4
340,328,123753,1,4
192,292,123920,1,4
124,232,124086,5,0
84,152,124253,1,0
112,136,124336,1,0
140,120,124420,1,8
220,80,124586,1,0
300,40,124753,1,0
392,40,124920,1,0
388,68,125003,1,0
384,96,125086,1,8
368,184,125253,5,0
392,272,125420,1,0
344,348,125586,1,0
312,332,125670,1,0
280,312,125753,1,8
216,248,125920,1,0
152,308,126086,5,4
144,268,126169,1,4
136,232,126252,1,4
104,80,126419,1,0
252,136,126586,1,4
304,56,126753,6,0,B|288:88,4,22.5
380,104,127086,2,0,B|412:140|412:140|388:200,1,90,8|0
352,260,127420,1,0
292,324,127586,1,0
204,316,127753,2,0,B|208:268|208:268|256:236,1,90,8|0
108,280,128086,2,0,B|92:236|92:236|112:184,1,90
148,112,128420,1,8
236,108,128586,1,0
400,104,128753,5,4
272,168,128920,1,4
396,240,129086,1,4
216,168,129253,1,4
116,124,129420,6,0,B|92:164|92:164|120:236,3,90,0|0|8|0
136,308,130086,2,0,B|212:228,1,90
364,92,130420,2,0,B|284:168,1,90,8|0
380,300,130753,2,0,B|376:256|376:256|308:240,3,90,0|8|8|0
232,200,131420,1,4
208,168,131503,1,4
184,140,131586,1,4
96,40,131753,2,0,B|140:76|176:40,1,90
376,64,132086,5,0
452,132,132253,1,0
412,224,132420,1,8
312,208,132586,1,0
288,116,132753,1,0
188,56,132920,1,0
100,128,133086,1,8
148,228,133253,1,0
256,220,133420,1,0
208,328,133586,5,0
80,324,133753,1,8
48,204,133920,1,0
156,136,134086,1,4
376,116,134253,1,4
212,248,134420,1,4
264,60,134586,1,0
336,240,134753,5,0
268,160,134920,1,0
268,160,135003,1,0
268,160,135086,1,8
192,108,135253,2,0,B|104:152,1,90
108,240,135586,1,0
108,240,135670,1,0
108,240,135753,1,8
168,308,135920,6,0,B|276:308,1,90
312,236,136253,1,0
312,236,136336,1,0
312,236,136420,1,8
400,260,136586,1,0
340,332,136753,6,4,B|312:292,2,45
168,308,137086,1,0
104,184,137253,1,4
128,52,137420,6,0,B|128:100|128:100|160:132,1,90
256,176,137753,2,0,B|256:116|256:116|208:76,1,90,8|0
296,32,138086,2,0,B|320:56|320:56|388:56,1,90
340,140,138420,1,8
428,144,138586,1,0
476,216,138753,1,0
388,216,138920,1,0
388,216,139003,1,0
388,216,139086,1,8
340,140,139253,1,0
308,244,139420,6,0,B|344:276|344:276|344:348,1,90
200,140,139753,2,0,B|164:116|164:116|164:36,1,90
480,184,140253,5,0
392,220,140420,2,0,B|400:260,4,22.5
276,176,140753,1,0
204,204,140920,1,0
264,252,141086,1,8
140,284,141253,1,0
36,216,141420,2,0,B|16:164|16:164|32:112,1,90
100,80,141753,1,8
188,60,141920,5,0
280,56,142086,1,4
280,56,142170,1,4
280,56,142253,1,4
352,160,142420,1,4
352,160,142503,1,4
352,160,142586,1,4
244,220,142753,5,0
400,312,143086,1,0
228,312,143253,1,0
316,284,143420,2,0,B|352:252|352:252|340:196,1,90
300,132,143753,1,8
380,92,143920,1,0
300,132,144086,1,0
216,96,144253,1,0
216,96,144336,1,0
216,96,144420,1,8
148,152,144586,1,0
172,240,144753,6,0,B|140:332,1,90
340,144,145086,2,0,B|372:52,1,90
472,220,145420,5,0
448,260,145586,2,0,B|420:244,1,22.5
416,296,145753,2,0,B|392:276,1,22.5,8|0
372,316,145920,2,0,B|360:292,1,22.5
324,324,146086,2,0,B|324:284,1,22.5
276,312,146253,2,0,B|288:276,1,22.5
236,288,146420,2,0,B|264:264,1,22.5,8|0
212,252,146586,2,0,B|248:244,1,22.5
344,208,146753,5,0
300,132,146920,1,8
212,132,147086,1,8
168,208,147253,1,8
84,220,147420,1,4
68,188,147503,1,4
52,160,147586,1,4
160,68,147753,1,0
224,188,147920,1,4
256,296,148086,6,0,B|300:288|300:288|320:328,2,90,0|0|8
276,192,148586,1,0
256,88,148753,2,0,B|212:96|212:96|192:56,2,90,0|0|8
292,96,149170,1,0
320,112,149253,1,0
372,228,149420,5,0
288,256,149586,1,0
196,252,149753,1,0
124,196,149920,1,0
40,224,150086,1,0
40,224,150170,1,4
40,224,150253,1,4
164,116,150420,5,0
320,136,150586,1,0
320,268,150753,6,0,B|320:216|320:216|256:180,1,90
144,192,151086,2,0,B|196:200|196:200|232:144,1,90,8|0
340,68,151420,2,0,B|292:80|292:80|276:128,1,90
236,200,151753,2,0,B|212:248|212:248|152:248,1,90,8|0
132,124,152086,6,0,B|224:148,1,90
64,104,152420,1,8
288,168,152586,1,0
332,88,152753,1,0
332,88,152836,1,0
332,88,152920,1,0
196,88,153086,5,0
172,224,153253,1,4
80,200,154420,5,8
432,188,154753,1,0
228,112,155086,1,8
156,192,155253,1,0
228,272,155420,1,0
436,64,155753,5,8
376,256,155920,1,0
408,84,156086,1,0
404,240,156253,1,0
376,96,156420,1,8
428,228,156586,1,0
256,136,156753,1,0
88,280,157086,5,8
88,188,157253,2,0,B|76:116|4:108,1,90
420,104,157753,1,8
424,196,157920,2,0,B|436:268|508:276,2,90
340,232,158420,1,0
256,264,158586,1,0
252,172,158753,5,0
172,292,158920,1,0
268,148,159086,1,8
192,264,159253,1,0
276,136,159420,1,0
60,64,159753,5,8
132,128,159920,1,0
36,40,160086,1,0
452,320,160420,1,8
380,256,160587,1,0
476,344,160753,1,0
212,192,161086,1,8
256,304,161253,5,0
300,192,161420,1,0
392,100,161586,1,0
256,100,161753,2,0,B|280:60,2,45,8|0|0
120,100,162086,1,0
256,276,162420,5,8
348,192,162586,1,0
256,100,162753,1,0
160,192,162920,1,0
256,100,163086,1,8
348,192,163253,1,0
256,280,163420,1,0
160,192,163586,1,0
348,192,163753,1,8
160,192,163920,1,0
348,192,164086,1,0
184,120,164420,5,8
408,192,164753,1,8
244,324,165086,1,8
256,192,165420,2,0,B|244:172,4,22.5
316,244,165753,5,8
336,156,165920,1,0
256,112,166086,1,8
176,156,166253,1,0
200,244,166420,2,0,B|224:224,4,22.5
176,156,166753,2,0,B|128:128,2,45
252,84,167086,2,0,B|268:148|340:140,1,90
316,232,167420,2,0,B|320:296|256:304,1,90
184,320,167753,6,0,B|224:288|244:232|252:160,1,135,0|0
236,160,168086,2,0,B|280:132,2,45
160,208,168420,2,0,B|108:172|104:116|124:76,1,135
136,48,168753,2,0,B|192:32|236:40,1,90
412,40,169086,5,8
304,68,169253,1,0
428,76,169420,1,8
304,84,169586,1,0
444,112,169753,1,8
304,96,169920,1,0
456,144,170086,1,8
168,276,170420,1,0
256,244,170586,1,0
340,276,170753,1,0
216,144,171086,2,0,B|184:96|124:112,1,90
104,192,171420,6,0,B|132:236|224:220,1,90,8|0
324,220,171753,2,0,B|376:216|400:160|400:116,1,135
380,80,172086,2,0,B|420:44,2,45
288,76,172420,1,0
200,76,172586,1,0
112,88,172753,2,0,B|112:152|152:200,1,90
216,212,173086,1,8
300,176,173253,1,0
392,176,173420,5,0
432,264,173586,1,0
352,264,173753,1,0
392,176,173920,1,0
276,264,174086,1,0
392,176,174253,1,0
204,264,174420,1,0
392,176,174586,1,0
348,72,174753,5,0
316,88,174836,1,0
288,116,174920,1,0
272,152,175003,1,0
264,184,175086,1,0
280,272,175253,1,0
364,304,175420,1,0
396,280,175503,1,0
412,252,175586,1,0
412,212,175670,1,0
400,176,175753,1,0
372,148,175836,1,0
344,132,175920,1,0
256,108,176086,5,4
304,184,176253,1,0
280,272,176420,2,0,B|208:264|192:192,1,90,8|0
160,304,176753,2,0,B|196:356|260:348,1,90
324,352,177086,1,8
412,340,177253,1,0
476,276,177420,5,0
488,188,177586,1,0
484,152,177670,1,0
464,116,177753,1,8
384,76,177920,1,0
304,116,178086,1,0
248,184,178253,1,4
164,216,178420,1,4
80,184,178586,1,4
88,96,178753,6,0,B|128:80|176:100,1,90
256,140,179086,2,0,B|288:172|292:228,1,90,8|0
344,296,179420,1,0
416,240,179586,1,0
424,152,179753,1,8
380,72,179920,1,0
296,44,180086,2,0,B|268:64|256:104|264:148,1,90
240,212,180420,1,8
160,252,180586,1,0
73,232,180753,5,4
73,232,180836,1,4
73,232,180920,1,4
158,108,181086,2,0,B|252:136,1,90,0|4
244,224,181420,2,0,B|244:132,1,90
329,105,181753,2,0,B|221:141,1,90,8|0
172,188,182086,1,0
316,188,182253,1,0
296,276,182420,2,0,B|248:312|176:276,1,90,8|0
128,256,182753,6,0,B|116:208|128:168,1,90
216,140,183086,1,8
296,184,183253,1,0
356,252,183420,1,0
388,336,183586,5,4
444,204,183753,1,4
412,56,183920,1,4
260,72,184086,2,0,B|224:108|164:96,1,90
88,100,184420,2,0,B|136:124|136:176,1,90,8|0
152,260,184753,2,0,B|180:200|240:220,1,90
312,228,185086,1,8
388,280,185253,1,0
308,320,185420,1,0
396,308,185586,1,0
468,256,185753,1,0
376,252,185920,1,0
404,120,186086,5,4
372,92,186170,1,4
332,72,186253,1,4
292,60,186336,1,4
252,56,186420,1,4
216,56,186503,1,4
184,72,186586,1,4
164,96,186670,1,0
152,124,186753,2,0,B|136:176|168:224,1,90
260,312,187086,2,0,B|284:232|212:204,3,90,8|0|0|0
264,140,187753,2,0,B|304:92|376:136,1,90,8|0
324,208,188086,5,0
236,224,188253,1,0
168,284,188420,2,0,B|128:340|60:308,2,90,8|0|0
32,252,188920,1,4
28,108,189086,1,4
136,200,189253,1,4
88,104,189420,1,0
196,120,189586,5,0
236,136,189670,1,0
276,152,189753,1,8
364,128,189920,1,0
404,208,190086,2,0,B|408:264|348:296,1,90
276,296,190420,2,0,B|212:280|196:216,1,90,8|0
136,188,190753,2,0,B|200:184|232:124,2,90,0|0|8
68,128,191253,1,0
132,64,191420,5,4
156,64,191503,1,4
180,72,191586,1,4
208,84,191670,1,4
232,100,191753,1,4
252,124,191836,1,4
268,156,191920,1,4
284,188,192003,1,0
300,224,192086,2,0,B|320:280|368:280,1,90
452,300,192420,5,8
364,324,192586,1,0
276,328,192753,2,0,B|228:332|176:316,1,90
116,260,193086,1,8
84,176,193253,5,0
184,140,193420,1,0
204,244,193586,1,0
308,220,193753,1,8
284,116,193920,1,0
204,244,194086,1,4
296,328,194253,1,4
204,244,194420,1,4
296,328,194586,1,4
424,288,194753,6,0,B|356:248|372:188,1,90
292,108,195086,2,0,B|368:124|360:196,1,90,8|0
284,212,195420,1,0
204,256,195586,1,0
164,176,195753,1,8
244,136,195920,1,0
332,156,196086,2,0,B|376:164|404:144|408:116,1,90
360,44,196420,1,8
268,24,196586,1,0
168,68,196753,5,4
140,92,196836,1,4
116,124,196920,1,4
88,268,197086,1,0
204,188,197253,1,0
244,264,197420,5,0
256,232,197503,1,0
280,208,197586,1,0
344,132,197753,1,8
356,164,197836,1,0
380,184,197920,1,0
464,220,198086,2,0,B|456:280|384:296,1,90
366,366,198420,1,0
276,360,198586,1,0
320,288,198753,2,0,B|256:288|232:248,1,90
176,192,199086,1,0
132,112,199253,5,0
200,52,199420,2,0,B|252:52|308:64,1,90
376,92,199753,1,4
400,120,199836,1,4
412,152,199920,1,4
412,188,200003,1,4
404,220,200086,1,4
388,248,200170,1,4
360,264,200253,1,0
328,264,200336,1,0
296,256,200420,2,0,B|248:240|228:188,1,90,8|0
216,100,200753,5,0
128,56,200920,1,0
76,140,201086,1,8
164,188,201253,1,0
288,160,201420,1,0
264,32,201586,1,0
128,56,201753,1,8
164,188,201920,1,0
240,296,202086,6,0,B|224:316,6,22.5
240,296,202420,2,0,B|340:300,1,90
420,288,202753,1,0
376,212,202920,1,0
348,212,203003,1,0
320,212,203086,1,8
228,212,203253,1,0
156,160,203420,1,0
144,72,203586,5,0
180,72,203670,1,0
208,72,203753,1,8
292,104,203920,1,0
352,36,204086,1,0
424,88,204253,1,0
420,124,204336,1,0
416,156,204420,1,8
420,244,204586,1,0
344,192,204753,6,0,B|308:280,1,90
420,244,205086,2,0,B|380:340,1,90
296,348,205420,6,0,B|204:308,1,90
124,316,205753,1,0
40,240,205920,1,0
52,128,206086,1,0
128,56,206253,1,0
160,48,206336,1,0
192,52,206420,1,8
272,92,206586,1,0
312,192,206753,6,0,B|348:192,4,22.5
224,168,207086,1,0
348,120,207253,1,0
344,36,207420,5,0
308,36,207503,1,0
264,44,207586,1,0
236,72,207670,1,0
216,108,207753,1,0
184,136,207836,1,0
144,148,207920,1,0
100,140,208003,1,0
80,100,208086,1,4
172,56,208253,1,0
244,108,208420,5,8
260,196,208586,1,0
196,260,208753,1,0
96,220,208920,1,0
196,260,209086,1,8
96,300,209253,1,0
196,260,209420,1,0
304,256,209586,5,0
328,236,209670,1,0
344,212,209753,1,8
408,148,209920,2,0,B|452:136|472:84,2,90
320,124,210420,2,0,B|264:104|240:24,1,90
168,44,210753,1,0
36,52,210920,5,0
32,68,211003,1,0
28,88,211086,1,8
24,112,211170,1,0
24,140,211253,1,0
28,168,211336,1,0
40,196,211420,1,0
56,224,211503,1,0
80,248,211586,1,0
112,272,211670,1,0
152,288,211753,1,8
196,292,211836,1,0
244,280,211920,1,0
316,224,212086,6,0,B|340:188|332:132,1,90
264,76,212420,2,0,B|196:64|164:124,1,90,8|0
220,200,212753,2,0,B|188:184,6,22.5
220,200,213086,2,0,B|296:160|272:96,1,90
160,56,213420,6,0,B|136:124|64:120,1,90
92,224,213753,2,0,B|156:248|160:324,1,90,8|0
260,276,214086,2,0,B|192:256|192:188,1,90
252,124,214420,2,0,B|284:76|356:84,1,90,8|0
388,212,214753,5,0
256,188,214920,1,0
380,140,215086,1,8
300,248,215253,1,0
316,112,215420,1,0
368,236,215586,1,0
260,152,215753,1,0
392,172,215920,1,0
368,40,216086,5,0
472,180,216253,1,0
368,312,216420,1,8
216,308,216586,1,0
100,208,216753,1,0
64,100,216920,5,0
100,88,217003,1,0
136,76,217086,1,8
344,104,217253,6,0,B|384:72,2,45
240,192,217586,1,0
148,292,217753,2,0,B|104:328,2,45,8|0|0
280,216,218086,5,4
280,216,218170,1,4
280,216,218253,1,4
248,84,218420,1,0
136,180,218586,1,4
256,92,219420,5,0
196,272,219586,1,0
352,168,219753,1,8
160,168,219920,1,0
320,272,220086,1,0
140,80,220420,6,0,B|100:52|40:60,2,90
372,80,221086,2,0,B|412:52|472:60,2,90
276,128,221586,1,0
248,148,221670,1,0
232,176,221753,1,0
180,268,221920,1,0
328,268,222086,1,0
96,92,222420,5,0
132,196,222586,1,0
208,68,222753,1,0
416,292,223086,1,0
380,188,223252,1,0
304,316,223419,1,0
132,40,223753,5,0
256,100,223920,1,0
376,36,224086,1,0
256,100,224253,1,0
256,268,224420,1,0
180,188,224586,1,0
336,188,224753,1,0
92,280,225086,5,0
32,236,225253,1,0
96,212,225420,1,0
128,56,225753,5,0
192,132,225920,1,0
260,48,226086,1,0
364,44,226253,1,0
436,124,226420,5,0
320,148,226586,1,0
432,228,226753,1,0
272,248,226920,1,0
140,204,227086,2,0,B|104:236,2,45
196,72,227420,1,0
256,312,227753,6,0,B|256:216,1,90
292,40,228086,2,0,B|292:144,1,90
328,316,228420,2,0,B|328:208,1,90
360,40,228753,2,0,B|360:136,1,90
200,172,229086,1,0
368,204,229253,1,0
228,112,229420,1,0
72,280,230086,6,0,B|76:216|136:208,1,90
228,208,230420,2,0,B|280:208|308:156,1,90
228,116,230753,1,0
156,168,230920,1,0
168,256,231086,2,0,B|196:320|276:296,2,90
212,156,231586,6,0,B|272:120,2,45
344,100,231920,1,0
316,236,232086,1,0
420,180,232253,1,0
332,260,232420,1,0
436,200,232586,1,0
348,280,232753,1,0
140,88,233086,5,0
68,204,233253,1,0
204,200,233420,1,0
32,100,233753,1,0
244,100,233920,1,0
136,284,234086,1,0
396,212,234420,6,0,B|460:216|476:296,1,90
392,148,234753,2,0,B|388:100|464:72,1,90
328,148,235086,2,0,B|272:144|264:56,1,90
332,212,235420,1,0
264,276,235586,5,0
264,276,235670,1,0
264,276,235753,1,0
176,288,235920,1,0
156,200,236086,2,0,B|164:128|240:120,1,90
288,100,236420,1,0
336,176,236586,1,0
424,160,236753,2,0,B|468:208|456:276,1,90
352,324,237086,6,0,B|280:320|256:256,3,90
212,168,237753,1,0
124,88,237920,1,0
96,200,238086,1,0
220,68,238420,6,0,B|192:56|192:56|192:20|192:20|136:-4,1,90
352,108,238753,2,0,B|384:116|384:116|408:96|408:96|472:104,1,90
468,212,239086,5,0
420,320,239253,1,0
368,212,239420,1,0
320,320,239586,1,0
272,212,239753,1,0
216,320,239920,1,0
84,292,240086,6,0,B|20:280|-24:236|-28:160|32:133|80:176|80:176|96:116|176:100|232:208|172:256|148:292|108:316|84:336,1,540,0|4
