osu file format v9

[General]
AudioFilename: Touhou vo^Karu Arrange_ ~ _ Sai Gatsu _-_ Sagyou Bougai _Remix_-_ ~.mp3
AudioLeadIn: 2000
PreviewTime: 78086
Countdown: 0
SampleSet: Normal
StackLeniency: 0.7
Mode: 0
LetterboxInBreaks: 0

[Editor]
Bookmarks: 89420,100086,174753,176086,197420,208086,218753,219420
DistanceSpacing: 1
BeatDivisor: 4
GridSize: 4

[Metadata]
Title:~ Saigetsu - Sagyou Bougai Remix - ~
Artist:KOKO
Creator:o0cannian0o
Version:Collab
Source:Touhou
Tags:nicovideo fanzhen0019 sherrie__fay veoliouy vlaoye

[Difficulty]
HPDrainRate:8
CircleSize:4
OverallDifficulty:8
ApproachRate:9
SliderMultiplier:2
SliderTickRate:1

[Events]
//Background and Video events
0,0,"B.jpg"
Video,0,"video.flv"
//Break Periods
2,89753,99486
2,132286,136820
2,154086,164153
//Storyboard Layer 0 (Background)
//Storyboard Layer 1 (Fail)
//Storyboard Layer 2 (Pass)
//Storyboard Layer 3 (Foreground)
Sprite,Foreground,Centre,"fanzhen.png",320,240 M,0,2086,,204,404 F,0,2086,5420,0,1 F,0,5420,89420,1 F,0,89420,91420,1,0 F,0,91420,176086,0 S,0,176086,176170,1,1.13312 F,0,176086,176253,0,1 S,0,176170,176253,1.13312,1 F,0,176253,196420,1 S,0,176253,218753,1 F,0,196420,197420,1,0 F,0,197420,208086,0 F,0,208086,209420,0,1 F,0,209420,218753,1 F,0,218753,219420,1,0 S,0,218753,219420,1,1.12288
Sprite,Foreground,Centre,"fay.png",320,240 M,0,100086,,435,404 F,0,100086,102753,0,1 F,0,102753,174753,1 F,0,174753,176086,1,0 F,0,176086,197420,0 S,0,197420,197503,1,1.09216 F,0,197420,197586,0,1 S,0,197503,197586,1.09216,1 F,0,197586,206753,1 F,0,206753,208086,1,0 F,0,208086,219420,0 F,0,219420,220753,0,1 F,0,220753,240086,1 F,0,240086,240753,1,0
//Storyboard Sound Samples
//Background Colour Transformations
3,100,163,162,255

[TimingPoints]
2087,333.333333333333,4,1,0,60,1,0
4753,-100,4,1,0,50,0,0
4920,-100,4,1,0,60,0,0
5086,-100,4,1,0,70,0,0
5253,-100,4,1,0,80,0,0
5420,-100,4,1,0,60,0,0
7420,-100,4,1,0,50,0,0
7586,-100,4,1,0,60,0,0
7753,-100,4,1,0,70,0,0
7920,-100,4,1,0,80,0,0
8086,-100,4,1,0,60,0,0
12753,-100,4,1,0,50,0,0
12836,-100,4,1,0,65,0,0
12920,-100,4,1,0,80,0,0
13253,-100,4,1,0,60,0,0
44253,-100,4,1,0,40,0,0
44586,-66.6666666666667,4,1,0,60,0,0
45086,-100,4,1,0,5,0,0
46753,-100,4,2,0,70,0,0
56086,-166.666666666667,4,2,0,70,0,0
56336,-166.666666666667,4,2,0,5,0,0
56420,-166.666666666667,4,2,0,70,0,0
57420,-100,4,2,0,70,0,0
68253,-100,4,1,0,70,0,0
99753,-100,4,2,0,100,0,0
110003,-100,4,2,0,50,0,0
110128,-100,4,2,0,60,0,0
110211,-100,4,2,0,70,0,0
110336,-100,4,1,0,70,0,0
111128,-100,4,1,0,5,0,0
111378,-100,4,1,0,70,0,0
111461,-100,4,1,0,5,0,0
111670,-100,4,1,0,70,0,0
112003,-100,4,2,0,70,0,0
112670,-100,4,1,0,70,0,0
112836,-100,4,2,0,70,0,0
113003,-100,4,1,0,70,0,0
113711,-100,4,2,0,100,0,0
113795,-100,4,1,0,70,0,0
115503,-100,4,1,0,70,0,0
116003,-100,4,2,0,100,0,0
116586,-100,4,1,0,70,0,0
117336,-100,4,2,0,70,0,0
118003,-100,4,1,0,70,0,0
120003,-100,4,2,0,70,0,0
120670,-100,4,1,0,70,0,0
122003,-100,4,2,0,100,0,0
122128,-100,4,1,0,70,0,0
123045,-100,4,2,0,100,0,0
123336,-100,4,1,0,70,0,0
125336,-100,4,2,0,70,0,0
125503,-100,4,2,0,80,0,0
125670,-100,4,2,0,90,0,0
125836,-100,4,2,0,100,0,0
126336,-100,4,1,0,70,0,0
126586,-100,4,2,0,100,0,0
127045,-100,4,1,0,70,0,0
127670,-100,4,2,0,100,0,0
128045,-100,4,1,0,70,0,0
130003,-100,4,2,0,100,0,0
130128,-100,4,1,0,70,0,0
130670,-100,4,2,0,100,0,0
130795,-100,4,1,0,70,0,0
131336,-100,4,2,0,100,0,0
131545,-100,4,1,0,70,0,0
131670,-100,4,1,0,70,0,0
132045,-100,4,1,0,100,0,0
137086,-100,4,1,0,50,0,0
139920,-100,4,1,0,70,0,0
153086,-100,4,1,0,10,0,0
164420,-100,4,2,0,100,0,0
173336,-100,4,1,0,50,0,0
173670,-100,4,1,0,70,0,0
174003,-100,4,1,0,90,0,0
174586,-100,4,1,0,100,0,0
176003,-100,4,1,0,70,0,0
185753,-100,4,1,0,5,0,0
186086,-100,4,1,0,70,0,0
219253,-100,4,2,0,70,0,0

[Colours]
Combo1 : 247,56,40
Combo2 : 239,236,165
Combo3 : 41,104,250
Combo4 : 248,139,31
SliderBorder : 255,255,255

[HitObjects]
396,120,2087,1,8
416,160,2170,1,0
440,200,2253,1,0
368,280,2420,5,8
348,240,2503,1,0
324,200,2586,1,0
272,104,2753,5,0
272,104,2920,1,0
272,104,3086,6,0,B|232:128|176:128,1,100,10|0
72,64,3420,1,0
64,184,3586,1,2
168,240,3753,1,8
176,128,3920,1,2
272,200,4086,6,0,B|328:248|424:240,1,150,0|2
456,200,4420,2,0,B|432:256|432:312,1,100,10|2
312,320,4753,5,8
144,328,4920,1,0
64,184,5086,1,8
224,232,5253,1,0
344,232,5420,5,0
456,200,5586,1,2
488,88,5753,1,10
376,128,5920,1,0
400,264,6086,2,0,B|400:184|440:144|432:56,1,200,2|0
432,67,6586,1,2
328,120,6753,5,8
216,200,6920,1,2
360,256,7086,1,8
152,104,7253,1,10
32,120,7420,5,0
32,160,7503,1,0
32,200,7586,1,2
32,320,7753,1,2
32,120,7920,1,0
96,224,8086,6,0,B|120:272|184:296,1,100,2|0
288,328,8420,1,8
408,336,8586,1,2
424,216,8753,2,0,B|320:216|224:288,1,200,2|8
352,304,9253,1,2
328,184,9420,6,0,B|304:64,2,100,0|2|10
352,304,9920,1,0
224,240,10086,5,2
328,184,10253,1,2
448,200,10420,1,8
315,84,10586,1,0
208,136,10753,6,0,B|136:120|104:64,1,100,0|2
40,160,11086,2,0,B|88:184|144:192,1,100,10|0
176,272,11420,2,0,B|120:280|56:264,1,100,2|2
16,376,11753,2,0,B|80:384|144:352,1,100,8|2
200,208,12087,5,2
304,272,12253,1,0
408,328,12420,1,8
352,152,12587,1,2
256,232,12753,5,0
216,264,12837,1,0
176,296,12920,1,0
184,104,13087,1,8
288,168,13253,1,8
400,240,13420,6,0,B|431:258|431:258|456:272|504:264,1,100,2|2
432,160,13753,1,8
368,56,13920,2,0,B|405:49|430:63|430:63|461:81,1,100,2|2
360,152,14253,5,0
256,216,14420,1,8
152,280,14587,1,2
64,192,14753,6,0,B|120:184|152:144,1,100,2|0
304,128,15087,2,0,B|248:136|216:176,1,100,8|2
256,56,15420,2,0,B|160:120|48:48,1,200,2|8
160,136,15920,1,0
192,256,16087,6,0,B|296:272,1,100,0|2
290,271,16420,2,0,B|256:200|304:128,1,150,8|0
362,142,16753,2,0,B|466:158,1,100,2|2
352,216,17087,1,8
176,184,17253,1,2
40,112,17420,5,0
112,248,17587,1,2
136,96,17753,1,8
24,208,17920,1,2
176,184,18087,5,0
208,200,18170,1,0
240,216,18253,1,0
320,232,18420,1,8
104,168,18587,1,0
232,120,18753,5,4
232,120,19086,2,0,B|288:136|328:112,1,100,8|2
232,120,19420,2,0,B|176:104|136:128,1,100,2|0
328,111,19753,2,0,B|328:112|432:56|528:144,1,200,10|0
416,192,20253,1,0
312,248,20420,6,0,B|312:247|208:303|112:215,1,200,10|2
40,144,20920,1,2
176,128,21086,1,8
288,200,21253,1,0
416,192,21420,6,0,B|440:296,1,100,2|2
304,80,21753,1,8
328,160,21920,2,0,B|352:264,1,100,2|2
224,48,22253,1,0
248,128,22420,2,0,B|272:232,1,100,10|0
152,248,22753,5,0
96,80,22920,1,2
240,256,23086,1,8
80,160,23253,1,2
64,240,23420,5,0
102,211,23503,1,0
144,184,23586,1,0
224,128,23753,1,8
304,64,23920,1,8
400,96,24086,5,4
320,152,24253,1,0
224,128,24420,2,0,B|328:192|400:96,1,200,10|2
464,176,24920,1,0
336,240,25086,1,8
184,216,25253,1,0
112,280,25420,5,0
152,120,25586,1,2
32,224,25753,1,10
240,280,25920,1,0
384,312,26086,5,2
424,168,26253,1,2
280,136,26420,1,8
240,280,26586,1,0
336,288,26753,5,0
376,192,26920,1,2
280,184,27086,1,8
240,280,27253,1,2
136,280,27420,6,0,B|88:280|88:280|32:224|64:128,1,200,2|8
144,192,27920,1,0
219,245,28086,2,0,B|248:160|192:104|192:104|144:104,1,200,2|8
144,192,28586,1,0
256,152,28753,5,0
304,136,28836,1,0
352,120,28920,1,0
256,152,29086,1,8
448,88,29253,1,0
416,208,29420,5,6
312,264,29586,1,0
192,280,29753,1,8
72,256,29920,1,2
240,328,30086,5,0
128,288,30253,1,2
72,184,30420,1,10
48,64,30586,1,0
160,104,30753,6,0,B|256:136,1,100,0|2
352,280,31086,2,0,B|256:248,1,100,10|0
152,184,31420,2,0,B|208:176|208:176|304:208|304:208|368:200,1,200,2|8
464,184,31920,1,0
456,280,32086,5,0
352,280,32253,1,2
264,320,32420,1,10
168,320,32586,1,0
16,240,32753,5,2
120,240,32920,1,2
208,192,33086,1,8
312,192,33253,1,2
464,96,33420,6,0,B|456:40|408:8,1,100,0|2
262,108,33753,2,0,B|270:164|318:196,1,100,10|0
336,72,34086,2,0,B|312:24|240:32,1,100,0|2
240,232,34420,2,0,B|264:280|336:272,1,100,10|0
432,160,34753,5,0
336,176,34920,1,2
240,144,35086,1,8
144,176,35253,1,2
48,216,35420,2,2,B|88:288|176:296,1,150,2|2
216,296,35753,2,0,B|136:368,1,100,8|2
48,336,36086,6,0,B|144:296|144:171,1,200,2|8
48,216,36586,1,2
144,176,36753,2,0,B|256:136|336:224,1,200,2|8
384,296,37253,1,0
432,208,37420,6,0,B|380:174|352:112,1,100,0|2
464,128,37753,2,0,B|432:88|432:32,1,100,8|2
336,40,38086,2,0,B|344:144|432:208,1,200,2|8
328,216,38586,1,2
256,152,38753,6,0,B|240:208|256:272,1,100,2|0
208,88,39086,2,0,B|160:120|144:176,1,100,8|2
192,16,39420,1,0
144,24,39503,1,0
104,56,39586,1,2
64,144,39753,2,0,B|56:192|64:248,1,100,10|0
160,216,40087,6,0,B|192:256|264:264,1,100,0|2
432,208,40420,2,0,B|400:168|328:160,1,100,10|0
248,152,40753,2,0,B|264:176|256:200|256:200|288:176|288:176|280:200|352:288,1,200,2|10
392,360,41253,1,0
456,288,41420,6,0,B|384:192,1,100,0|2
216,256,41753,2,0,B|288:352,1,100,10|0
339,271,42087,2,0,B|323:247|331:223|331:223|299:247|299:247|307:223|235:135,1,200,2|10
192,72,42587,1,0
192,72,42920,5,2
112,131,43087,1,10
205,162,43253,1,0
280,104,43420,1,2
299,191,43587,1,2
216,256,43753,1,8
127,225,43920,1,2
31,187,44087,5,0
47,288,44253,1,2
228,347,44587,2,0,B|296:368|352:344|352:344|400:304|376:248|320:256|304:312|352:344|352:344|432:368|496:328,1,449.999986588955
256,32,46420,5,8
256,232,46753,5,4
128,136,47087,1,8
144,216,47253,1,0
88,272,47420,1,2
88,272,47753,5,8
144,216,47920,1,0
224,200,48087,1,2
304,216,48253,1,2
384,216,48420,1,8
456,176,48587,1,0
488,104,48753,1,2
80,104,49087,5,8
160,128,49253,1,0
224,80,49420,1,2
72,24,49753,5,8
80,104,49920,1,0
24,160,50087,1,2
176,208,50420,5,8
160,128,50587,1,0
80,104,50753,1,2
24,160,50920,1,0
40,240,51087,1,8
120,264,51253,1,0
104,184,51420,1,2
216,72,51753,5,8
280,120,51920,1,0
352,88,52087,1,2
208,152,52420,5,8
216,232,52587,1,0
288,248,52753,1,2
328,176,52920,1,2
280,120,53087,1,8
208,152,53253,1,0
88,208,53420,5,0
80,88,53587,1,2
192,32,53753,1,8
280,120,53920,1,2
216,232,54087,1,2
216,232,54420,5,8
408,144,54587,1,0
304,328,54753,1,2
280,120,54920,1,0
416,272,55087,1,8
216,232,55253,1,0
208,152,55420,5,2
280,120,55587,1,0
336,176,55753,1,8
336,176,56087,2,0,B|288:264,1,90.0000021457673
292,255,56420,5,0
289,262,56753,1,0
286,270,57087,1,0
240,352,57420,5,4
160,296,57587,2,0,B|120:352,2,50,0|0|8
96,216,57920,1,0
64,120,58087,2,0,B|8:120,2,50
160,136,58420,1,0
248,88,58587,1,0
344,112,58753,6,0,B|372:112|372:112|384:96|384:96|392:104|392:104|448:96,1,100
472,192,59087,2,0,B|440:192|440:192|424:192|424:192|408:200|408:200|376:208,1,100
389,312,59420,2,0,B|360:288|360:288|360:280|360:280|352:288|352:288|352:280|352:280|248:192,1,200
176,128,59920,1,0
120,208,60087,6,0,B|128:216|128:216|128:208|128:208|136:216|136:216|136:208|136:208|216:240|248:304|248:304|248:304|248:304|248:304|248:304|248:304|248:304|256:320,1,200
152,312,60587,1,0
152,312,60753,2,0,B|152:304|152:304|160:312|160:312|152:296|152:296|160:304|160:304|160:296|160:296|208:280|208:280|208:272|208:272|200:280|200:280|224:272|256:176,1,200
272,128,61253,1,0
368,152,61420,5,0
496,184,61587,1,0
376,232,61753,1,0
448,120,61920,1,0
456,256,62087,1,0
384,72,62420,6,0,B|336:32|280:64,1,100
280,160,62753,2,0,B|208:192|120:160,1,150
96,136,63087,2,0,B|144:112|192:136,1,100
176,272,63420,6,0,B|248:304|336:272,1,150
360,248,63753,2,0,B|312:224|264:248,1,100
184,184,64087,5,0
96,136,64253,1,0
32,208,64420,1,0
80,296,64587,1,0
176,272,64753,1,0
448,192,65087,6,0,B|480:288,1,100
352,200,65420,2,0,B|448:248,1,100
296,272,65753,2,0,B|392:232,1,100
304,368,66087,2,0,B|352:272,1,100
280,200,66420,1,0
80,160,66753,5,0
104,136,66837,1,0
136,120,66920,1,0
168,112,67003,1,0
200,112,67087,6,0,B|176:176|208:224,1,100
232,224,67337,1,0
264,232,67420,1,0
296,232,67503,1,0
328,224,67587,1,0
440,144,67753,5,0
408,128,67837,1,0
376,120,67920,1,0
280,112,68087,6,0,B|256:160|200:176,1,100,4|2
104,184,68420,2,0,B|128:280,1,100,10|0
224,320,68753,2,2,B|304:344|400:328,1,150,2|2
372,331,69087,2,0,B|344:224,1,100,8|2
320,136,69420,5,0
224,136,69587,1,2
120,136,69753,1,10
16,136,69920,1,0
112,168,70087,5,2
216,168,70253,1,2
320,168,70420,1,8
416,168,70587,1,2
320,200,70753,6,0,B|264:216|224:288,1,100,0|2
320,320,71087,2,0,B|272:296|208:320,1,100,10|0
120,312,71420,2,2,B|184:224|304:240,1,200,2|10
392,272,71920,1,0
392,184,72087,6,0,B|496:232,1,100,2|0
416,104,72420,2,0,B|520:152,1,100,8|2
440,24,72753,2,0,B|404:11|404:11|312:32|328:144,1,200,2|8
328,232,73253,1,10
232,264,73420,6,0,B|184:160|232:72,1,200,2|8
328,160,73920,1,2
232,264,74087,6,0,B|280:160|232:72,1,200,2|8
136,160,74587,1,2
64,232,74753,5,0
136,160,74920,1,2
144,280,75087,1,8
136,160,75253,1,2
232,264,75420,1,2
384,136,75753,5,8
328,224,75920,1,0
232,264,76087,5,0
144,280,76253,1,2
192,192,76420,1,8
288,208,76587,1,2
232,128,76753,5,0
88,152,76920,1,2
192,64,77087,1,8
344,80,77253,1,2
440,96,77420,6,0,B|440:312,1,200,2|0
240,320,78087,5,0
280,320,78170,1,0
320,320,78253,1,0
280,248,78420,5,0
240,248,78503,1,0
200,248,78586,1,0
120,248,78753,6,0,B|64:160|104:48|104:48,1,200,6|8
160,128,79253,1,2
64,160,79420,2,0,B|8:264|88:368,1,200,2|8
168,320,79920,1,2
264,288,80086,6,0,B|304:184,1,100,0|2
392,160,80420,2,0,B|352:264,1,100,8|2
448,224,80753,2,0,B|512:32,1,200,2|8
422,78,81253,1,2
328,44,81420,6,0,B|120:44,1,200
36,84,81920,1,2
132,112,82086,2,0,B|332:112,1,200
344,200,82586,1,2
376,296,82753,6,0,B|432:312|488:288,1,100,2|0
312,360,83086,2,0,B|256:344|200:368,1,100,8|2
48,288,83420,2,0,B|152:336|248:256,1,200,2|8
272,168,83920,1,10
216,88,84086,6,0,B|192:144|120:160,1,100,2|0
48,120,84420,2,0,B|32:168|80:240,1,100,10|2
136,288,84753,1,0
232,304,84920,2,0,B|248:256|200:184,1,100,2|10
264,120,85253,1,0
360,88,85420,6,0,B|464:112,1,100,2|0
512,192,85753,2,2,B|392:216,1,100,10|2
376,304,86086,2,0,B|472:328,2,100,0|2|10
304,232,86586,1,0
200,224,86753,6,0,B|144:120,1,100,0|2
152,136,87086,2,0,B|96:136|40:160,1,100,8|2
200,224,87420,2,0,B|256:224|312:200,1,100,2|0
384,160,87753,1,8
256,192,88086,12,4,89420
128,104,100086,6,0,B|96:152|112:208,1,100,4|0
200,160,100420,2,0,B|216:208|192:256,1,100
96,224,100753,2,0,B|72:288|104:332,1,100
188,280,101086,2,0,B|232:312|288:296,1,100
256,200,101420,6,0,B|324:112,1,100
324,220,101753,2,0,B|317:116,1,100
389,190,102086,2,0,B|307:110,1,100
417,130,102420,2,0,B|308:119,1,100
256,200,102753,6,0,B|368:212,1,100
288,136,103086,2,0,B|384:104,1,100
292,64,103420,2,0,B|368:0,1,100
356,100,103753,2,0,B|456:92,1,100
440,192,104086,5,0
372,268,104253,1,0
304,192,104420,1,0
236,268,104586,1,0
172,192,104753,1,0
104,268,104920,1,0
172,340,105086,1,0
236,268,105253,1,0
172,192,105420,5,0
240,120,105586,1,0
304,192,105753,1,0
236,268,105920,1,0
172,192,106086,1,0
104,116,106253,1,0
176,48,106420,1,0
240,120,106586,1,0
308,48,106753,5,0
396,96,106920,1,0
436,188,107086,1,0
412,284,107253,1,0
332,344,107420,1,0
232,356,107586,1,0
140,320,107753,1,0
88,232,107920,1,0
92,132,108086,6,0,B|92:72|156:48,1,100
168,152,108420,2,0,B|204:116|240:192|272:144,1,100
292,60,108753,2,0,B|368:92|352:160,1,100
261,156,109086,2,0,B|309:196|221:236|285:280,1,100
324,328,109420,6,0,B|368:280|352:228,1,100
296,156,109753,2,0,B|236:116|184:168,1,100
156,240,110086,1,2
136,268,110170,1,2
132,304,110253,1,2
232,300,110420,2,0,B|248:240|312:240,1,100,8|0
224,92,110753,1,4
300,276,111086,6,2,B|348:320|440:312|472:240,2,200,2|0|0
376,212,111920,1,0
464,164,112086,1,2
384,100,112253,1,2
292,136,112420,1,2
272,232,112586,1,2
204,308,112753,5,2
76,192,112920,1,2
216,64,113086,1,8
368,192,113420,6,0,B|420:220|468:180,3,100,0|0|2|0
408,268,114086,2,0,B|332:300|272:284|224:224,1,200
176,144,114586,1,0
156,240,114753,2,0,B|216:252|264:220|268:152,1,150,2|0
268,116,115086,2,0,B|264:80|232:52|188:52,1,100
104,80,115420,5,2
68,168,115586,1,0
100,260,115753,1,0
188,312,115920,1,0
284,288,116086,1,4
436,160,116420,5,4
248,92,116753,1,0
284,288,117086,1,0
368,232,117253,1,0
276,192,117420,1,2
284,288,117586,1,2
324,196,117753,1,2
228,168,117920,1,2
240,268,118086,1,2
280,176,118253,1,0
180,176,118420,6,0,B|124:212|116:276|156:320|240:312,1,200
312,296,118920,1,0
400,252,119086,1,0
396,352,119253,1,0
344,264,119420,1,2
436,228,119586,1,0
356,164,119753,1,0
452,132,119920,1,0
376,68,120086,5,10
284,104,120253,1,2
272,204,120420,1,2
356,164,120586,1,2
284,104,120753,1,0
208,40,120920,1,0
116,76,121086,2,0,B|32:96|112:128,2,100,0|0|0
192,144,121586,2,0,B|276:164|196:196,2,100
104,196,122086,6,0,B|68:252|100:304|156:308,1,150,2|0
192,276,122420,2,0,B|220:316|276:312|300:288,1,100
352,228,122753,1,0
412,148,122920,1,0
436,180,123003,1,0
444,220,123086,1,2
392,308,123253,1,2
292,304,123420,2,0,B|192:296|320:152|176:144,1,200,2|0
264,56,123920,1,0
384,56,124086,6,0,B|428:124|428:124|340:124|340:124|376:72,1,200
264,56,124586,1,0
164,44,124753,2,0,B|164:124|164:124|80:124|80:124|80:44|80:44|136:44,1,300
236,44,125420,1,2
300,120,125586,1,2
244,204,125753,1,2
300,284,125920,1,2
356,204,126086,1,2
356,204,126170,1,2
356,204,126253,1,2
356,204,126420,1,4
180,108,126753,6,0,B|128:152|72:140|40:92|36:88,1,150,2|0
84,68,127086,2,0,B|144:68|160:8,1,100
252,52,127420,1,0
276,96,127503,1,0
268,144,127586,1,0
180,188,127753,2,0,B|216:240|264:248|316:228,1,150,2|0
300,180,128086,2,0,B|372:144|448:192,1,150
476,228,128420,1,0
388,272,128586,1,0
368,176,128753,5,2
276,96,128920,1,0
184,180,129086,1,4
48,32,129420,6,0,B|48:148|48:144,1,100
132,76,129753,2,0,B|132:192,1,100
220,124,130086,2,0,B|272:160|272:224|208:264,1,150,2|0
180,272,130420,2,0,B|196:328|252:332,1,100
276,236,130753,2,0,B|336:228|388:260|380:344,1,150,2|0
404,272,131086,2,0,B|416:216|468:204,1,100
476,304,131420,5,2
456,336,131503,1,2
416,348,131586,1,0
320,320,131753,2,2,B|256:320,4,50,2|2|2|2|4
256,192,137420,12,0,139753
256,96,140086,5,0
344,144,140253,1,0
344,244,140420,1,8
256,292,140586,1,0
168,244,140753,1,0
168,144,140920,1,0
268,144,141086,5,8
220,232,141253,1,0
120,192,141420,1,0
256,96,141586,1,0
400,192,141753,1,8
256,292,141920,1,0
208,204,142086,6,0,B|168:144,2,50,0|0|8
304,204,142420,2,0,B|344:144,2,50,0|0|8
256,96,142753,2,0,B|284:48|340:28|392:52,1,150
432,72,143086,1,8
340,124,143253,1,8
432,164,143420,5,0
352,220,143586,1,0
256,188,143753,1,0
252,88,143920,1,0
168,140,144086,2,0,B|144:196|84:208|28:176,1,150
36,132,144420,1,8
36,232,144586,1,8
88,316,144753,6,0,B|148:324|188:296|196:232,1,150
200,188,145086,1,8
304,104,145253,1,0
400,192,145420,1,0
44,188,145753,1,0
456,72,146086,1,4
136,348,146420,1,0
108,152,146753,6,0,B|156:156|196:192|184:264,1,150
224,228,147086,2,0,B|248:168|312:176,1,100
392,216,147420,2,0,B|412:160|396:108|336:80,1,150
300,72,147753,2,0,B|236:64|208:116,1,100
116,80,148086,6,0,B|80:132|116:192,1,100,4|0
32,244,148420,2,0,B|64:292|136:280,1,100,8|0
196,216,148753,2,0,B|232:264|296:264|348:236,1,150
372,216,149086,1,8
372,216,149420,6,0,B|408:164|372:104,1,100
456,52,149753,2,0,B|424:4|352:16,1,100,8|0
292,80,150086,2,0,B|256:32|192:32|140:60,1,150
116,80,150420,2,0,B|144:136|120:188|92:180,1,100,8|0
40,240,150753,5,0
112,308,150920,1,0
208,280,151086,1,0
224,180,151253,1,0
128,204,151420,1,0
144,108,151586,1,0
240,76,151753,1,0
320,132,151920,1,0
224,180,152086,2,0,B|204:300,1,100
256,192,152420,12,0,153420
124,100,164753,6,0,B|228:100,1,100
300,164,165087,2,0,B|176:164,2,100
120,248,165753,2,0,B|236:248,2,100
312,308,166420,1,0
404,272,166587,1,0
432,176,166753,1,0
392,84,166920,1,0
296,60,167087,1,0
208,108,167253,1,0
184,204,167420,1,0
364,116,167753,6,0,B|448:196,1,100
436,184,168087,1,0
252,104,168420,2,0,B|336:180,1,100
326,171,168753,1,0
144,92,169087,2,0,B|224:168,1,100
224,260,169420,2,0,B|128:168,1,100
52,180,169753,2,0,B|132:260,1,100
122,250,170087,1,0
256,100,170420,6,0,B|304:64|360:104,2,100
444,164,171087,2,0,B|400:200|340:168,2,100
244,148,171753,2,0,B|192:124|136:152,1,100
216,216,172087,2,0,B|272:232|324:216,1,100
252,112,172420,2,0,B|200:88|144:116,1,100
60,200,172753,1,0
224,316,173087,6,0,B|292:308|304:248,1,100
204,236,173420,2,0,B|212:176|280:164,1,100
364,200,173753,2,0,B|376:136|328:104,1,100
240,132,174087,2,0,B|236:72|296:44,1,100
384,32,174420,1,0
188,76,174753,5,0
204,100,174837,1,0
220,124,174920,1,0
236,148,175003,1,0
252,176,175087,1,0
348,200,175253,1,0
332,224,175337,1,0
316,248,175420,1,0
300,272,175503,5,0
284,296,175587,1,0
188,260,175753,1,0
160,272,175837,1,0
132,284,175920,1,0
56,176,176087,5,4
56,176,176253,2,0,B|96:136|160:136,1,100,2|10
280,224,176587,2,0,B|240:264|176:264,1,100,0|2
88,264,176920,1,0
168,200,177087,1,10
248,136,177253,1,2
352,160,177420,6,0,B|328:64,1,100,0|2
432,184,177753,2,0,B|408:88,1,100,8|2
512,208,178087,2,0,B|488:112,1,100,2|2
464,40,178420,5,8
376,232,178587,1,8
296,296,178753,6,0,B|240:312|184:288,1,100,0|2
264,224,179087,2,0,B|192:208|152:160,1,100,10|0
264,144,179420,1,2
152,80,179587,1,0
264,144,179753,1,10
152,80,179920,1,0
32,96,180087,5,2
96,168,180253,1,0
128,264,180420,1,10
192,336,180587,1,2
288,360,180753,6,0,B|336:368,2,50
192,336,181087,2,2,B|136:328|72:344,1,100,10|2
16,280,181420,6,0,B|112:256|224:264,1,200,2|8
136,200,181920,1,2
40,184,182087,2,0,B|136:152|248:144,1,200,2|8
144,104,182587,1,2
48,88,182753,6,0,B|104:72|144:48,1,100,0|2
216,120,183087,2,2,B|256:88|280:40,1,100,8|2
360,96,183420,1,2
360,96,183753,5,10
216,192,183920,1,0
360,288,184087,1,2
504,192,184253,1,0
360,96,184420,5,10
288,144,184587,1,0
360,192,184753,1,2
424,144,184920,1,0
360,96,185087,1,10
360,96,185420,6,0,B|320:192|408:192|360:288,1,200,2|8
160,288,186087,6,0,B|160:344,2,50
240,224,186420,2,0,B|240:296,2,50
160,168,186753,6,0,B|152:200|160:224|160:224|168:216|72:208|0:256,1,200,4|8
64,152,187253,1,0
40,56,187420,2,0,B|96:32|176:80|159:175,1,200,0|8
64,152,187920,1,0
22,242,188087,6,0,B|64:288|120:256,1,100
250,184,188420,2,0,B|208:138|154:172,1,100,8|0
113,259,188753,5,0
248,328,188920,1,0
392,288,189087,1,8
440,144,189253,1,0
440,40,189420,6,0,B|320:64|312:208,1,200,0|8
400,232,189920,1,0
440,144,190087,2,0,B|320:144|256:56,1,200,0|8
168,104,190587,1,0
72,136,190753,6,0,B|104:240,1,100
216,376,191087,2,0,B|184:272,1,100,8|0
96,328,191420,5,0
96,328,191503,1,0
96,328,191587,1,0
152,240,191753,5,0
152,240,191837,1,0
152,240,191920,1,0
208,152,192087,6,0,B|280:184|360:128,1,150
350,134,192420,2,0,B|376:240,1,100,8|0
384,272,192670,1,0
392,312,192753,6,0,B|328:351|247:329,1,150
296,312,193087,2,0,B|248:328|184:288,1,100,8|0
176,272,193337,1,8
136,256,193420,6,0,B|80:240|24:256,1,100
152,184,193753,2,0,B|208:200|264:184,1,100,8|0
344,152,194087,5,0
440,216,194253,1,0
416,96,194420,1,0
320,32,194587,1,0
232,88,194753,6,0,B|184:112|136:88,1,100
8,152,195087,2,0,B|56:176|104:152,1,100,8|0
232,216,195420,2,0,B|184:240|136:216,1,100,0|0
8,280,195753,1,8
256,192,196087,12,4,197253
160,332,197420,6,0,B|248:280,1,100
184,280,197753,2,0,B|272:228,1,100
208,228,198087,2,0,B|296:176,1,100
232,172,198420,1,0
260,156,198503,1,0
288,140,198587,1,0
324,284,198837,1,0
344,308,198920,1,0
400,168,199253,1,0
428,168,199337,1,0
460,168,199420,6,0,B|456:232|416:260,1,100
320,248,199753,2,0,B|304:204|360:152,1,100
176,64,200253,1,0
88,112,200420,1,0
184,80,200587,1,0
92,124,200753,1,0
188,92,200920,1,0
96,132,201087,1,0
192,100,201253,1,0
100,140,201420,1,0
196,108,201587,1,0
104,148,201753,5,0
84,172,201837,1,0
76,200,201920,1,0
88,300,202087,2,0,B|56:324,4,25
144,320,202420,2,0,B|200:336|256:288,1,100
340,292,202753,2,0,B|368:236|312:192,1,100
224,192,203087,2,0,B|188:244|228:292,1,100
312,236,203420,5,0
300,136,203587,1,0
388,180,203753,1,0
408,80,203920,1,0
500,100,204087,1,0
500,100,204253,1,0
448,184,204420,5,0
308,272,204587,1,0
188,168,204753,2,0,B|112:136|200:108,1,100
292,124,205087,2,0,B|380:120|304:64,1,100
212,68,205420,6,0,B|96:76,1,100
88,92,205670,1,0
76,120,205753,2,0,B|152:200,1,100
132,292,206087,2,0,B|240:280,1,100
260,276,206337,1,0
288,284,206420,2,0,B|392:328,1,100
444,248,206753,5,0
428,220,206837,1,0
412,196,206920,1,0
396,172,207003,1,0
380,148,207087,1,0
364,124,207170,1,0
336,120,207253,1,0
308,120,207337,1,0
276,120,207420,1,0
248,120,207503,5,0
220,120,207587,1,0
188,120,207670,1,0
168,140,207753,1,0
148,164,207837,1,0
128,188,207920,1,0
112,212,208003,1,0
92,236,208087,6,0,B|116:284|172:292,1,100,4|0
256,216,208420,1,8
344,264,208587,1,0
488,208,208753,6,0,B|464:160|408:152,1,100,4|0
320,200,209087,1,8
232,152,209253,1,0
104,120,209420,5,0
104,120,209587,1,0
176,56,209753,2,0,B|176:64|176:64|184:56|184:56|184:64|184:64|208:96|280:88,1,100,8|0
384,64,210087,5,8
384,64,210253,1,8
480,96,210420,2,0,B|456:152|392:176,1,100,0|8
304,240,210753,5,0
288,128,210920,1,8
296,256,211087,1,0
280,144,211253,1,8
288,272,211420,5,0
272,160,211587,1,8
280,288,211753,1,0
264,176,211920,1,8
200,248,212087,5,8
104,208,212253,1,8
40,288,212420,1,0
96,368,212587,1,8
192,344,212753,2,0,B|216:352,8,25
128,288,213253,5,0
24,184,213420,2,0,B|64:216|120:216,1,100
216,112,213753,2,0,B|176:144|120:144,1,100,8|0
24,64,214087,1,0
24,64,214253,1,0
144,48,214420,5,8
272,56,214587,1,0
368,144,214753,5,0
368,144,214920,1,0
360,256,215087,1,8
368,144,215253,1,0
264,184,215420,2,0,B|240:208|208:200|208:200|184:192|192:160|224:160|208:200|208:200|168:248|112:256,1,200,0|8
53,278,215920,1,0
128,328,216087,6,0,B|184:312|216:272,1,100
304,232,216420,1,8
288,328,216587,1,0
212,278,216753,6,0,B|156:262|124:222,1,100
36,182,217087,1,8
52,278,217253,1,0
144,152,217420,6,0,B|168:152|168:152|176:136|176:136|176:168|176:168|184:152|184:152|296:152,1,200
384,224,217920,6,0,B|360:224|360:224|352:240|352:240|352:208|352:208|344:224|344:224|232:224,1,200
136,224,218420,5,0
40,224,218587,1,0
140,152,219420,5,2
220,92,219587,1,2
196,188,219753,1,2
160,92,219920,1,2
244,144,220087,1,10
428,220,220420,2,2,B|464:324,2,100
244,296,221087,2,2,B|204:200,1,100
156,290,221420,2,2,B|217:183,1,100
304,224,221753,1,2
272,128,221920,1,2
205,203,222087,1,10
472,128,222420,5,2
420,212,222587,1,2
368,124,222753,1,10
68,304,223087,1,2
132,228,223253,1,2
176,316,223420,1,10
132,120,223753,6,2,B|188:88|232:152,1,100
240,40,224087,2,2,B|272:96|352:72,1,100
420,40,224420,2,2,B|472:24,2,50
420,40,224753,1,6
392,236,225087,2,2,B|352:280|388:344|436:344|464:268|428:236,1,200,2|10
248,188,225753,2,2,B|264:156|228:132|196:152|188:180|216:200,1,100
112,224,226087,2,10,B|96:256|132:280|164:260|172:232|144:212,3,100
80,164,226753,6,2,B|108:116|136:132|156:136|184:140|212:136|232:128|240:116|236:88|228:64|208:44|184:32|152:48|140:88|144:116|168:132|212:144|252:140|284:160|300:144,1,400,2|10
468,240,227753,2,2,B|408:284|356:228,1,100
428,160,228087,2,2,B|368:116|316:184,1,100,10|2
328,264,228420,2,2,B|272:284|216:228,1,100,10|2
308,176,228753,2,2,B|260:128|192:164,1,100,10|2
140,220,229087,1,2
140,220,229420,2,2,B|68:200|92:128|144:108|208:148|164:228,1,200,10|2
340,80,230087,6,2,B|456:80,1,100
368,148,230420,2,2,B|248:148,1,100
268,148,230753,1,10
68,148,231087,2,2,B|184:148,1,100
168,148,231420,1,10
332,264,231753,6,2,B|300:304|300:304|264:256,1,100,10|2
170,264,232087,2,2,B|138:304|138:304|102:256,1,100,8|0
204,228,232420,2,2,B|236:188|236:188|272:236,2,100,10|0|10
368,116,233087,2,2,B|336:76|336:76|300:124,2,100,2|0|8
167,116,233753,2,2,B|199:76|199:76|235:124,2,100,2|2|10
368,116,234420,2,2,B|308:204,1,100
292,100,234753,2,2,B|368:184,1,100
316,264,235087,2,2,B|236:176,1,100
248,190,235420,1,6
76,92,235753,5,2
76,164,235920,1,2
76,232,236087,1,10
192,312,236420,1,2
196,244,236587,1,2
196,172,236753,1,10
324,112,237087,2,2,B|376:96|376:96|372:144,1,100
376,212,237420,2,2,B|376:268|376:268|304:252,1,100
264,240,237753,2,2,B|220:212|220:212|268:152,1,100
296,124,238087,1,10
156,104,238420,6,2,B|136:172|80:180,1,100
108,244,238753,2,10,B|168:228|192:284,1,100
248,236,239087,2,10,B|204:192|224:124,1,100
224,76,239420,1,2
144,116,239587,1,2
220,164,239753,1,6
256,192,240087,12,2,241087
